osu file format v14

[General]
AudioFilename: audio.mp3
AudioLeadIn: 0
PreviewTime: 55585
Countdown: 0
SampleSet: Soft
StackLeniency: 0.4
Mode: 0
LetterboxInBreaks: 0
WidescreenStoryboard: 0

[Editor]
Bookmarks: 85095
DistanceSpacing: 1.2
BeatDivisor: 4
GridSize: 4
TimelineZoom: 2.019999

[Metadata]
Title:Kawaranai Sora (TV-version)
TitleUnicode:変わらない空 (TV-version)
Artist:Luck Life
ArtistUnicode:ラックライフ
Creator:Sieg
Version:Easy
Source:純情ロマンチカ3
Tags:junjou romantica 3 ending rock anime japanese namki fcl krfawy gokugohan12468 kittyadventure
BeatmapID:1162626
BeatmapSetID:505277

[Difficulty]
HPDrainRate:3
CircleSize:2.5
OverallDifficulty:2
ApproachRate:3
SliderMultiplier:0.7
SliderTickRate:1

[Events]
//Background and Video events
0,0,"bg.jpg",0,0
//Break Periods
//Storyboard Layer 0 (Background)
//Storyboard Layer 1 (Fail)
//Storyboard Layer 2 (Pass)
//Storyboard Layer 3 (Foreground)
//Storyboard Sound Samples

[TimingPoints]
3535,300,4,2,1,75,1,0
5935,-100,4,2,1,75,0,1
13097,-100,4,2,1,75,0,0
13135,-100,4,2,1,75,0,1
15535,-100,4,2,1,75,0,1
22772,-100,4,2,1,75,0,0
51047,300,4,2,1,75,1,0
51365,320.855614973262,4,2,1,75,1,0
51685,300,4,2,1,75,1,0
52735,300,4,2,1,75,1,0
54985,-100,4,2,1,75,0,1
55060,-100,4,2,1,75,0,0
56335,-100,4,2,1,75,0,1
65860,-100,4,2,1,75,0,0
65935,-100,4,2,1,75,0,1
75460,-100,4,2,1,75,0,0
75535,-100,4,2,1,75,0,1
75610,-100,4,2,1,75,0,0
77935,-100,4,2,1,75,0,1
78010,-100,4,2,1,75,0,0
78797,300,4,2,1,75,1,0
79222,300,4,2,1,75,1,0
79990,300,4,2,1,75,1,0
80721,300,4,2,1,75,1,0
82052,300,4,2,1,75,1,0
82370,300,4,2,1,75,1,0
82695,300,4,2,1,75,1,0

[Colours]
Combo1 : 26,104,46
Combo2 : 155,28,21
Combo3 : 20,97,78
Combo4 : 139,57,27

[HitObjects]
409,65,3535,6,0,L|261:93,1,140,4|2,1:0|1:0,0:0:0:0:
131,184,4735,1,2,1:0:0:0:
237,313,5335,2,0,L|312:299,1,70,2|0,1:0|0:0,0:0:0:0:
389,286,5935,5,4,1:0:0:0:
460,134,6535,2,0,P|470:76|444:31,2,105,2|0|10,1:0|1:0|1:0,0:0:0:0:
385,93,7735,1,2,1:0:0:0:
261,206,8335,6,0,P|186:199|151:140,1,140,2|2,1:0|1:0,0:0:0:0:
279,38,9535,1,4,0:1:0:0:
113,10,10135,1,4,1:1:0:0:
20,150,10735,6,0,B|0:199|39:230|39:230|19:260|11:305|54:351,1,210,4|10,1:1|1:0,0:0:0:0:
110,281,11935,1,2,0:1:0:0:
264,348,12535,2,0,L|349:338,1,70,2|10,1:0|1:0,0:0:0:0:
350,257,13135,6,0,L|419:237,1,70,6|12,1:0|2:0,0:0:0:0:
442,157,13735,1,10,1:0:0:0:
383,45,14185,2,0,P|332:38|293:74,1,105,4|10,1:0|1:0,0:0:0:0:
257,146,14935,2,0,L|272:230,1,70,10|10,1:0|1:0,0:0:0:0:
290,296,15535,5,4,1:2:0:0:
139,370,16135,1,4,1:2:0:0:
183,208,16735,2,0,L|170:139,1,70,4|10,1:1|1:0,0:0:0:0:
93,106,17335,2,0,L|80:37,1,70,2|10,1:0|1:0,0:0:0:0:
161,14,17935,6,0,L|257:0,1,70,12|10,1:0|1:0,0:0:0:0:
289,63,18535,2,0,B|330:75|341:111|341:111|403:66|481:93,1,210,10|10,1:0|1:0,0:0:0:0:
430,253,20035,1,10,1:0:0:0:
371,313,20335,6,0,L|301:322,1,70,4|10,1:0|1:0,0:0:0:0:
134,341,21235,1,14,1:0:0:0:
256,192,21535,12,4,22735,1:0:0:0:
261,254,23785,6,0,L|373:265,1,105,0|10,1:0|1:0,0:0:0:0:
427,206,24535,2,0,L|436:124,1,70,2|10,1:0|1:0,0:0:0:0:
447,53,25135,1,4,1:0:0:0:
279,53,25735,2,0,L|158:42,2,105,2|12|4,1:0|1:0|1:0,0:0:0:0:
313,302,27535,6,0,P|288:342|197:342,1,140,4|2,1:0|1:0,0:0:0:0:
48,277,28735,2,0,L|30:131,1,140,2|2,1:0|1:0,0:0:0:0:
18,54,29635,1,10,1:0:0:0:
94,19,29935,6,0,L|175:9,1,70,2|10,1:0|1:0,0:0:0:0:
314,83,30835,1,10,1:0:0:0:
267,153,31135,2,0,P|257:182|329:254,1,140,2|2,1:0|1:0,0:0:0:0:
404,235,32035,1,10,1:0:0:0:
471,185,32335,6,0,L|483:29,1,140,2|2,1:0|1:0,0:0:0:0:
332,114,33535,2,0,L|320:270,1,140,2|0,1:0|1:0,0:0:0:0:
170,327,34735,6,0,P|130:335|92:325,2,70,2|10|2,1:0|1:0|1:0,0:0:0:0:
234,171,35935,2,0,P|199:165|165:173,1,70,2|10,1:0|1:0,0:0:0:0:
90,211,36535,1,2,1:0:0:0:
221,315,37135,6,0,B|262:315|302:357|302:357|330:299|403:299,1,210,2|10,1:0|1:0,0:0:0:0:
448,234,38335,2,0,B|435:156,1,70,2|2,1:0|1:0,0:0:0:0:
418,82,38935,1,2,1:0:0:0:
260,23,39535,6,0,P|254:62|263:99,2,70,2|10|2,1:0|1:0|1:0,0:0:0:0:
334,173,40735,2,0,P|254:202|158:133,1,210,2|10,1:0|1:0,0:0:0:0:
163,50,41935,6,0,L|82:33,1,70,4|10,1:0|1:0,0:0:0:0:
13,59,42535,2,0,P|29:105|20:171,2,105,2|0|10,1:0|1:0|1:0,0:0:0:0:
195,232,44335,6,0,L|280:222,1,70,4|10,1:0|1:0,0:0:0:0:
340,259,44935,2,0,P|348:238|318:161,2,105,2|8|2,1:0|1:0|1:0,0:0:0:0:
151,353,46585,6,0,P|95:368|54:344,1,105,4|12,1:0|1:0,0:0:0:0:
108,280,47335,1,2,1:0:0:0:
210,147,47935,2,0,L|191:4,1,140,2|10,1:0|1:0,0:0:0:0:
300,72,48985,6,0,L|317:189,1,105,4|12,1:0|1:0,0:0:0:0:
320,259,49735,2,0,P|378:235|395:157,1,140,2|2,1:0|1:0,0:0:0:0:
152,51,51365,6,0,L|47:30,1,102.5,4|2,1:0|1:0,0:0:0:0:
20,109,52135,2,0,L|102:125,1,70,2|10,1:0|1:0,0:0:0:0:
138,190,52735,2,0,P|223:197|248:144,1,140,2|2,1:0|1:0,0:0:0:0:
256,192,53635,12,4,54985,1:0:0:0:
248,137,56335,6,0,P|277:116|316:108,1,70,4|10,1:0|1:0,0:0:0:0:
476,130,57235,1,10,1:0:0:0:
445,208,57535,2,0,P|440:242|447:276,2,70,2|10|2,1:0|1:0|1:0,0:0:0:0:
295,285,58735,6,0,P|299:319|292:353,1,70,4|10,1:0|1:0,0:0:0:0:
217,316,59335,2,0,P|168:326|125:253,1,140,2|2,1:0|1:0,0:0:0:0:
51,107,60535,2,0,L|130:130,1,70,10|12,1:0|1:0,0:0:0:0:
168,59,61135,6,0,P|212:48|248:58,1,70,4|10,1:0|1:0,0:0:0:0:
402,68,62035,2,0,P|392:128|433:198,1,140,10|10,1:0|1:0,0:0:0:0:
508,342,63235,1,12,1:0:0:0:
435,299,63535,6,0,P|353:290|305:336,1,140,4|2,1:0|1:0,0:0:0:0:
233,354,64435,2,0,P|197:282|214:218,1,140,10|12,1:0|1:0,0:0:0:0:
252,154,65335,1,2,1:0:0:0:
366,31,65935,6,0,B|290:21,1,70,4|10,1:2|1:0,0:0:0:0:
212,167,66835,2,0,P|160:159|133:140,1,70,10|4,1:0|1:1,0:0:0:0:
47,13,67735,2,0,B|123:23,1,70,2|10,1:0|1:0,0:0:0:0:
192,57,68335,6,0,B|268:67,1,70,12|10,1:0|1:0,0:0:0:0:
338,100,68935,2,0,P|387:110|423:61,1,105,10|4,1:0|1:2,0:0:0:0:
481,273,70135,2,0,P|454:257|402:250,1,70,2|10,1:0|1:0,0:0:0:0:
349,299,70735,6,0,L|267:323,1,70,4|10,1:0|1:0,0:0:0:0:
258,151,71635,2,0,L|121:191,1,140,14|10,1:0|1:0,0:0:0:0:
44,218,72535,1,2,1:0:0:0:
168,330,73135,6,0,P|225:338|285:286,1,140,4|8,1:0|1:0,0:0:0:0:
365,309,74035,2,0,P|422:317|482:265,1,140,10|10,1:0|1:0,0:0:0:0:
403,235,74935,1,8,1:0:0:0:
387,67,75535,6,0,L|496:51,2,105,4|8|12,1:0|1:0|1:0,0:0:0:0:
304,53,76735,2,0,P|269:37|233:40,1,70,8|12,1:3|1:0,0:0:0:0:
124,263,77935,6,0,P|71:270|19:237,1,105,4|4,1:0|0:2,0:0:0:0:
94,152,78797,1,4,1:0:0:0:
153,48,79222,2,0,L|274:58,1,105,4|4,1:2|1:0,0:0:0:0:
429,72,80290,5,4,1:0:0:0:
370,177,80721,2,0,P|350:254|356:289,1,105,4|4,1:2|1:0,0:0:0:0:
135,165,82052,5,4,1:0:0:0:
94,244,82370,2,0,L|12:261,1,76,4|4,1:2|1:0,0:0:0:0:
