osu file format v14

[General]
AudioFilename: audio.mp3
AudioLeadIn: 0
PreviewTime: 55483
Countdown: 0
SampleSet: Soft
StackLeniency: 0.7
Mode: 0
LetterboxInBreaks: 0
WidescreenStoryboard: 0

[Editor]
DistanceSpacing: 0.9
BeatDivisor: 4
GridSize: 32
TimelineZoom: 1.2

[Metadata]
Title:Kawaranai Sora (TV-version)
TitleUnicode:変わらない空(TV-version)
Artist:Luck Life
ArtistUnicode:ラックライフ
Creator:Battle
Version:Easy
Source:純情ロマンチカ3
Tags:Junjou romantica bl boys love rock yaoi ed ending shounen ai
BeatmapID:1151559
BeatmapSetID:538417

[Difficulty]
HPDrainRate:3.5
CircleSize:3
OverallDifficulty:3.5
ApproachRate:4
SliderMultiplier:1
SliderTickRate:1

[Events]
//Background and Video events
0,0,"mayb 1 day.jpg",0,0
Video,-490,"alt.avi"
//Break Periods
//Storyboard Layer 0 (Background)
//Storyboard Layer 1 (Fail)
//Storyboard Layer 2 (Pass)
//Storyboard Layer 3 (Foreground)
//Storyboard Sound Samples

[TimingPoints]
3567,300,4,2,1,75,1,0
5517,-100,4,2,1,75,0,0
5967,-100,4,2,1,75,0,0
27587,300,4,2,1,75,1,0
46637,-100,4,2,1,75,0,0
47087,-100,4,2,1,75,0,0
47387,-100,4,2,1,75,0,0
47687,-100,4,2,1,75,0,0
47987,-100,4,2,1,75,0,0
48287,-100,4,2,1,75,0,0
49037,-100,4,2,1,75,0,0
49487,-100,4,2,1,75,0,0
49787,-100,4,2,1,75,0,0
51095,300,4,2,1,70,1,0
51413,320.855614973262,4,2,1,70,1,0
51413,-98.0392156862745,4,2,1,70,0,0
51733,300,4,2,1,70,1,0
52783,300,4,2,1,70,1,0
56383,-100,4,2,1,70,0,1
76783,-100,4,2,1,75,0,0
77983,-147.275405007364,4,2,1,55,0,0
78845,300,4,2,1,55,1,0
78845,-94.3396226415094,4,2,1,55,0,0
79270,300,4,2,1,55,1,0
79720,-100.502512562814,4,2,1,55,0,0
80038,300,4,2,1,55,1,0
80338,-135.135135135135,4,2,1,55,0,0
80769,300,4,2,1,55,1,0
82100,300,4,2,1,55,1,0
82100,-100,4,2,1,55,0,0
82418,300,4,2,1,55,1,0
82743,300,4,2,1,55,1,0
83943,-100,4,2,1,45,0,0
85143,-100,4,2,1,35,0,0
86343,-100,4,2,1,25,0,0
87543,-100,4,2,1,15,0,0
88743,-100,4,2,1,10,0,0
89943,-100,4,2,1,5,0,0
89944,-100,4,2,1,5,0,0

[Colours]
Combo1 : 137,152,158
Combo2 : 179,160,180
Combo3 : 209,158,196
Combo4 : 201,175,152

[HitObjects]
40,175,3567,6,0,P|46:81|138:59,1,200,2|2,0:0|0:0,0:0:0:0:
193,127,4467,1,2,0:0:0:0:
279,101,4767,2,0,B|264:52|264:52|279:1,2,100,2|2|0,0:0|0:0|1:0,0:0:0:0:
429,199,5967,6,0,B|452:251|452:251|437:347,1,150,4|0,0:0|0:0,0:0:0:0:
353,311,6717,1,0,0:0:0:0:
280,364,7017,2,0,L|124:362,1,150,2|0,0:0|1:0,0:0:0:0:
53,314,7767,2,0,P|41:249|66:208,1,100,2|0,0:0|1:0,0:0:0:0:
135,180,8367,6,0,B|193:214|193:214|278:186,2,150,2|0|0,0:0|0:0|1:0,0:0:0:0:
81,108,9567,2,0,P|75:36|95:5,1,100,2|0,0:0|1:0,0:0:0:0:
177,12,10167,2,0,P|194:58|183:106,1,100,2|0,0:0|1:0,0:0:0:0:
135,180,10767,6,0,B|111:249|111:249|135:344,1,150,4|0,0:0|0:0,0:0:0:0:
207,368,11517,1,4,0:3:0:0:
237,283,11817,2,0,P|285:232|368:249,1,150,2|0,0:0|1:0,0:0:0:0:
437,286,12567,2,0,P|445:211|431:185,1,100,2|0,0:0|1:0,0:0:0:0:
371,127,13167,6,0,L|372:25,1,100,4|0,0:0|1:0,0:0:0:0:
283,12,13767,2,0,L|284:80,1,50,0|4,1:0|0:3,0:0:0:0:
278,153,14217,2,0,P|201:190|143:153,1,150,4|0,1:2|1:0,0:0:0:0:
76,108,14967,2,0,P|59:152|71:207,1,100,4|0,0:3|1:0,0:0:0:0:
111,282,15567,6,0,L|227:284,1,100,4|0,0:0|1:0,0:0:0:0:
296,311,16167,2,0,P|301:276|289:241,1,50,8|4,0:3|0:3,0:0:0:0:
247,187,16617,2,0,B|234:109|234:109|249:37,1,150,2|2,0:0|1:2,0:0:0:0:
333,9,17367,2,0,B|439:9,1,100,2|2,0:0|1:2,0:0:0:0:
473,89,17967,6,0,B|367:89,1,100,0|0,1:0|1:0,0:0:0:0:
289,122,18567,2,0,P|281:167|285:182,1,50,4|8,0:3|0:3,0:0:0:0:
314,254,19017,2,0,P|278:194|197:189,1,150,4|0,0:0|1:0,0:0:0:0:
127,233,19767,2,0,P|117:166|140:123,1,100,8|0,0:3|1:0,0:0:0:0:
181,64,20367,6,0,B|255:97|255:97|329:75,2,150,4|0|4,0:1|0:0|0:0,0:0:0:0:
51,24,21717,2,0,P|12:77|44:172,1,150,0|0,1:0|1:0,0:0:0:0:
88,221,22467,1,0,1:0:0:0:
157,164,22767,6,0,B|238:189|238:189|311:167,1,150,4|2,0:0|0:0,0:0:0:0:
346,92,23517,1,0,0:0:0:0:
430,122,23817,2,0,P|463:184|436:263,1,150,2|0,0:0|1:0,0:0:0:0:
355,230,24567,2,0,L|358:331,1,100,8|0,0:3|1:0,0:0:0:0:
274,365,25167,6,0,L|271:211,1,150,2|2,1:2|0:0,0:0:0:0:
233,133,25917,1,0,1:0:0:0:
158,183,26217,2,0,P|69:206|21:168,1,150,2|0,1:2|1:0,0:0:0:0:
9,87,26967,2,0,P|32:53|90:36,1,100,8|0,0:3|1:0,0:0:0:0:
172,62,27587,6,0,B|238:89|238:89|322:62,2,150,4|2|0,0:0|0:0|1:0,0:0:0:0:
102,119,28787,2,0,P|68:166|98:267,2,150,0|2|0,0:0|0:0|1:0,0:0:0:0:
153,194,29987,6,0,L|263:194,1,100,0|0,1:0|1:0,0:0:0:0:
318,132,30587,2,0,P|343:199|333:241,1,100,2|0,0:0|1:0,0:0:0:0:
277,289,31187,2,0,L|109:290,2,150,2|2|0,1:2|0:0|1:0,0:0:0:0:
339,225,32387,6,0,B|320:135|320:135|340:71,2,150,4|0|0,0:2|0:0|1:0,0:0:0:0:
428,214,33587,2,0,B|447:304|447:304|427:368,2,150,4|2|0,0:0|0:0|1:0,0:0:0:0:
367,146,34787,6,0,P|372:65|432:24,2,150,4|0|0,0:0|0:0|1:0,0:0:0:0:
450,113,35987,2,0,B|367:147|367:147|249:113,1,200,2|8,0:0|0:3,0:0:0:0:
231,31,36887,1,0,1:0:0:0:
143,50,37187,6,0,P|95:91|86:132,2,100,4|0|8,0:0|1:0|0:3,0:0:0:0:
172,135,38087,2,0,L|160:348,1,200,0|0,1:0|1:0,0:0:0:0:
244,301,38987,2,0,L|251:196,1,100,8|0,0:3|1:0,0:0:0:0:
306,131,39587,6,0,P|385:136|418:157,2,100,4|0|8,0:0|1:0|0:3,0:0:0:0:
250,201,40487,1,0,1:0:0:0:
196,128,40787,2,0,P|117:133|84:154,2,100,6|0|8,0:0|1:0|0:3,0:0:0:0:
250,201,41687,1,0,1:0:0:0:
323,148,41987,6,0,B|303:72|303:72|332:4,1,150,4|0,0:0|0:0,0:0:0:0:
420,10,42737,1,4,0:3:0:0:
486,70,43037,2,0,L|475:220,1,150,2|0,0:0|1:0,0:0:0:0:
439,303,43787,2,0,P|363:304|341:287,1,100,8|0,0:3|1:0,0:0:0:0:
287,223,44387,6,0,L|126:222,1,150,4|2,0:0|0:0,0:0:0:0:
78,290,45137,1,4,0:3:0:0:
26,216,45437,2,0,P|24:120|66:82,1,150,0|2,1:0|0:0,0:0:0:0:
144,57,46187,2,0,B|211:87|211:87|296:53,1,150,8|2,1:3|0:0,0:0:0:0:
414,32,47087,6,0,P|466:70|477:121,2,100,4|0|4,1:0|0:0|1:0,0:0:0:0:
389,118,47987,2,0,L|268:118,1,100,0|4,0:0|1:0,0:0:0:0:
226,53,48587,2,0,P|200:107|245:198,1,150,0|2,1:0|0:0,0:0:0:0:
353,243,49487,6,0,L|351:343,2,100,4|0|4,1:0|0:0|1:0,0:0:0:0:
330,155,50387,2,0,P|338:65|443:60,1,200,0|8,0:0|0:3,0:0:0:0:
508,151,51413,6,0,B|485:213|485:213|500:312,1,150,4|0,0:0|1:0,0:0:0:0:
423,340,52183,2,0,L|261:338,2,150,4|2|2,0:3|0:0|1:2,0:0:0:0:
397,255,53383,2,0,L|285:253,1,100,8|0,0:3|1:0,0:0:0:0:
227,196,53983,6,0,P|219:116|236:86,2,100,0|0|0,1:0|1:0|1:0,0:0:0:0:
146,304,55033,2,0,P|94:257|10:277,1,150,4|4,0:0|1:0,0:0:0:0:
17,0,56383,5,4,0:1:0:0:
63,76,56683,2,0,P|138:103|222:19,1,200,0|0,1:0|1:0,0:0:0:0:
131,13,57583,2,0,L|131:225,1,200,2|8,0:0|0:3,0:0:0:0:
180,288,58483,1,0,1:0:0:0:
260,248,58783,5,4,0:0:0:0:
336,295,59083,2,0,P|415:330|490:253,1,200,0|0,1:0|1:0,0:0:0:0:
446,180,59983,2,0,L|444:73,2,100,2|0|8,0:0|1:0|0:3,0:0:0:0:
359,154,60883,1,0,1:0:0:0:
287,208,61183,5,4,0:0:0:0:
212,157,61483,2,0,P|184:77|267:5,1,200,0|0,1:0|1:0,0:0:0:0:
341,43,62383,2,0,B|412:76|412:76|498:42,2,150,2|0|0,0:0|0:0|1:0,0:0:0:0:
259,5,63583,6,0,L|259:211,1,200,4|8,1:2|1:3,0:0:0:0:
232,337,64633,2,0,P|191:261|123:256,1,150,4|0,0:1|1:0,0:0:0:0:
57,300,65383,2,0,P|53:219|69:192,1,100,8|0,0:3|1:0,0:0:0:0:
104,126,65983,1,4,0:0:0:0:
187,159,66283,6,0,B|264:209|264:209|378:179,1,200,0|0,1:0|1:0,0:0:0:0:
366,91,67183,2,0,P|460:167|433:250,1,200,0|8,0:0|0:3,0:0:0:0:
413,316,68083,1,0,1:0:0:0:
342,260,68383,6,0,P|325:333|339:369,2,100,4|0|8,1:2|1:0|1:3,0:0:0:0:
322,126,69433,2,0,P|250:196|198:188,1,150,4|0,0:1|1:0,0:0:0:0:
173,108,70183,2,0,P|151:65|103:51,1,100,8|0,0:3|1:0,0:0:0:0:
17,75,70783,5,4,0:0:0:0:
47,159,71083,2,0,L|42:364,1,200,0|0,1:0|1:0,0:0:0:0:
126,327,71983,2,0,L|129:209,1,100,4|0,0:0|1:0,0:0:0:0:
169,146,72583,2,0,P|219:144|266:184,1,100,8|4,0:3|0:3,0:0:0:0:
335,218,73183,6,0,P|424:204|444:95,1,200,4|8,1:0|1:3,0:0:0:0:
343,25,74233,2,0,B|266:56|266:56|188:23,1,150,4|0,0:0|1:0,0:0:0:0:
115,13,74983,2,0,P|80:72|83:107,1,100,8|0,0:3|1:0,0:0:0:0:
115,184,75583,5,4,0:0:0:0:
202,164,75883,2,0,B|303:144|303:144|407:192,1,200,0|4,1:0|1:2,0:0:0:0:
459,243,76783,2,0,P|476:177|459:127,1,100,4|4,1:3|1:3,0:0:0:0:
469,147,77983,6,0,B|376:123|376:123|275:146,1,194.999991073609,4|4,0:1|0:1,0:0:0:0:
126,356,79720,1,4,0:0:0:0:
37,251,80338,2,0,P|32:180|154:137,1,217.500001825333,4|4,0:1|0:1,0:0:0:0:
321,337,82100,1,4,0:0:0:0:
399,160,82743,1,4,0:1:0:0:
256,192,82893,12,0,89943,0:0:0:0:
