osu file format v14

[General]
AudioFilename: audio.mp3
AudioLeadIn: 0
PreviewTime: 55558
Countdown: 0
SampleSet: Soft
StackLeniency: 0.5
Mode: 0
LetterboxInBreaks: 0
WidescreenStoryboard: 1

[Editor]
Bookmarks: 3567,5967,31187,41987,46637,56383,75583,77983
DistanceSpacing: 0.9
BeatDivisor: 4
GridSize: 4
TimelineZoom: 4.249998

[Metadata]
Title:Kawaranai Sora (TV Size)
TitleUnicode:変わらない空 (TV Size)
Artist:Luck Life
ArtistUnicode:ラックライフ
Creator:Chompy
Version:Kyrian's Insane
Source:純情ロマンチカ3
Tags:Japanese rock anime junjou romantica 3 bl boys love shounen ai yaoi ed ending Kyrian [_lost_] conner c_o_n_n_e_r Sarawatlism Yahuri OneShotFox Mint appleeaterx
BeatmapID:2854770
BeatmapSetID:1375342

[Difficulty]
HPDrainRate:5.5
CircleSize:3.8
OverallDifficulty:7.5
ApproachRate:9
SliderMultiplier:1.6
SliderTickRate:1

[Events]
//Background and Video events
0,0,"junjou.jpg",0,0
Video,1200,"junjou3 ed.mp4"
//Break Periods
//Storyboard Layer 0 (Background)
//Storyboard Layer 1 (Fail)
//Storyboard Layer 2 (Pass)
//Storyboard Layer 3 (Foreground)
//Storyboard Layer 4 (Overlay)
//Storyboard Sound Samples

[TimingPoints]
2367,300,4,2,1,50,1,0
3267,-222.222222222221,4,2,1,50,0,0
3567,-153.846153846153,4,2,1,50,0,0
3867,-142.857142857143,4,2,1,50,0,0
4167,-133.333333333333,4,2,1,50,0,0
4467,-125,4,2,1,50,0,0
4767,-117.647058823529,4,2,1,50,0,0
5067,-111.111111111111,4,2,1,50,0,0
5967,-105.263157894737,4,2,1,60,0,0
13167,-86.9565217391304,4,2,1,60,0,0
15567,-95.2380952380952,4,2,1,60,0,0
20367,-90.9090909090909,4,2,1,60,0,0
22767,-90.9090909090909,4,2,1,60,0,0
26217,-86.9565217391304,4,2,1,60,0,0
27587,300,4,2,1,50,1,0
27587,-117.647058823529,4,2,1,50,0,0
41987,-105.263157894737,4,2,1,60,0,0
44387,-100,4,2,1,60,0,0
46637,-133.333333333333,4,2,1,60,0,0
47087,-76.9230769230769,4,2,1,60,0,0
47387,-200,4,2,1,60,0,0
47687,-76.9230769230769,4,2,1,60,0,0
47987,-200,4,2,1,60,0,0
48287,-76.9230769230769,4,2,1,60,0,0
48587,-200,4,2,1,60,0,0
49037,-133.333333333333,4,2,1,60,0,0
49487,-76.9230769230769,4,2,1,60,0,0
49787,-200,4,2,1,60,0,0
50087,-76.9230769230769,4,2,1,60,0,0
50387,-200,4,2,1,60,0,0
51095,300,4,2,1,60,1,0
51095,-166.666666666667,4,2,1,60,0,0
51413,320.855614973262,4,2,1,60,1,0
51413,-125,4,2,1,60,0,0
51733,300,4,2,1,60,1,0
52783,300,4,2,1,60,1,0
55033,-83.3333333333333,4,2,1,60,0,0
56383,-83.3333333333333,4,2,1,70,0,1
69433,-90.9090909090909,4,2,1,70,0,1
69883,-83.3333333333333,4,2,1,70,0,1
70783,-90.9090909090909,4,2,1,70,0,1
73183,-83.3333333333333,4,2,1,70,0,1
75583,-111.111111111111,4,2,1,60,0,1
77983,-76.9230769230769,4,2,1,55,0,1
78283,-76.9230769230769,4,2,1,5,0,1
78433,-100,4,2,1,55,0,1
78733,-100,4,2,1,5,0,1
78845,300,4,2,1,55,1,0
78845,-90.9090909090909,4,2,1,55,0,0
79145,-90.9090909090909,4,2,1,5,0,0
79270,300,4,2,1,55,1,0
79270,-100,4,2,1,55,0,0
79570,-100,4,2,1,5,0,0
79720,-90.9090909090909,4,2,1,55,0,0
79870,-90.9090909090909,4,2,1,5,0,0
80038,300,4,2,1,55,1,0
80038,-111.111111111111,4,2,1,55,0,0
80188,-111.111111111111,4,2,1,5,0,0
80338,-90.9090909090909,4,2,1,55,0,0
80638,-90.9090909090909,4,2,1,5,0,0
80769,300,4,2,1,55,1,0
80769,-86.9565217391304,4,2,1,55,0,0
81069,-86.9565217391304,4,2,1,5,0,0
81219,-84.7457627118644,4,2,1,55,0,0
81519,-84.7457627118644,4,2,1,5,0,0
81669,-102.040816326531,4,2,1,55,0,0
81969,-102.040816326531,4,2,1,5,0,0
82100,300,4,2,1,55,1,0
82100,-83.3333333333333,4,2,1,55,0,0
82250,-83.3333333333333,4,2,1,5,0,0
82418,300,4,2,1,55,1,0
82418,-76.9230769230769,4,2,1,55,0,0
82568,-76.9230769230769,4,2,1,5,0,0
82743,300,4,2,1,55,1,0
82743,-416.666666666667,4,2,1,55,0,0
83943,-416.666666666667,4,2,1,45,0,0
85143,-416.666666666667,4,2,1,35,0,0
86343,-416.666666666667,4,2,1,25,0,0
87543,-416.666666666667,4,2,1,15,0,0
88743,-416.666666666667,4,2,1,10,0,0
89943,-416.666666666667,4,2,1,5,0,0
91068,-416.666666666667,4,2,69,5,0,0

[Colours]
Combo1 : 250,228,146
Combo2 : 255,185,151
Combo3 : 176,255,183

[HitObjects]
494,181,3117,5,0,3:2:0:0:
494,181,3192,1,0,3:2:0:0:
494,181,3267,2,0,L|498:236,1,53.9999983520508,12|0,0:2|0:0,0:0:0:0:
418,249,3567,6,0,L|412:189,1,51.999997619629,0|0,3:2|0:2,0:0:0:0:
341,270,3867,2,0,L|336:215,1,55.9999982910157,0|0,3:2|0:2,0:0:0:0:
320,72,4167,2,0,L|325:132,1,60.0000022888184,0|0,3:2|0:2,0:0:0:0:
237,63,4467,2,0,L|242:129,1,64,0|0,3:2|0:2,0:0:0:0:
206,299,4767,2,0,L|200:232,1,68.0000012969971,0|0,3:2|0:2,0:0:0:0:
128,323,5067,2,0,L|121:251,1,71.9999978027344,0|0,3:2|0:2,0:0:0:0:
47,344,5367,5,8,3:2:0:0:
94,170,5517,1,8,0:2:0:0:
94,170,5967,6,0,L|169:177,1,75.9999979705811,6|2,3:2|3:2,0:0:0:0:
212,96,6267,2,0,L|137:89,1,75.9999979705811,10|2,0:2|3:2,0:0:0:0:
258,175,6567,1,0,0:0:0:0:
258,175,6717,1,2,3:2:0:0:
288,40,6867,1,10,0:2:0:0:
169,177,7017,6,0,L|11:162,1,151.999995941162,2|2,3:2|3:2,0:0:0:0:
46,252,7467,2,0,L|121:259,1,75.9999979705811,10|2,0:2|3:2,0:0:0:0:
258,175,7767,1,2,3:2:0:0:
206,301,7917,1,2,3:2:0:0:
258,175,8067,2,0,P|294:166|332:185,1,75.9999979705811,10|2,0:2|0:2,0:0:0:0:
290,331,8367,6,0,L|283:256,1,75.9999979705811,2|2,3:2|3:2,0:0:0:0:
372,258,8667,2,0,L|379:333,1,75.9999979705811,10|2,0:2|3:2,0:0:0:0:
328,181,8967,1,0,0:0:0:0:
328,181,9117,1,2,3:2:0:0:
424,105,9267,2,0,L|417:180,1,75.9999979705811,10|2,0:2|3:2,0:0:0:0:
281,71,9567,5,2,3:2:0:0:
401,26,9717,1,2,3:2:0:0:
281,71,9867,2,0,L|206:64,1,75.9999979705811,10|2,0:2|0:2,0:0:0:0:
58,17,10167,1,2,3:2:0:0:
103,137,10317,1,2,3:2:0:0:
58,17,10467,2,0,L|133:10,1,75.9999979705811,10|2,0:2|0:2,0:0:0:0:
103,137,10767,6,0,L|28:130,1,75.9999979705811,2|2,3:2|3:2,0:0:0:0:
1,230,11067,2,0,L|76:223,1,75.9999979705811,10|2,0:2|3:2,0:0:0:0:
191,93,11367,1,0,0:0:0:0:
191,93,11517,1,2,3:2:0:0:
27,129,11667,1,10,0:2:0:0:
176,244,11817,6,0,L|191:93,1,151.999995941162,2|2,3:2|3:2,0:0:0:0:
279,39,12267,2,0,L|286:114,1,75.9999979705811,10|0,0:2|0:2,0:0:0:0:
258,272,12567,1,2,3:2:0:0:
378,179,12717,1,2,3:2:0:0:
265,347,12867,2,0,L|257:271,1,75.9999979705811,10|2,0:2|0:2,0:0:0:0:
463,229,13167,6,0,L|472:137,1,92.0000017547608,6|0,3:2|0:0,0:0:0:0:
365,263,13467,1,10,0:2:0:0:
283,190,13617,1,2,3:2:0:0:
256,182,13692,1,0,3:2:0:0:
229,188,13767,1,8,0:2:0:0:
123,265,13917,1,2,3:2:0:0:
161,109,14067,1,8,0:2:0:0:
26,254,14217,6,0,B|20:296|69:332|69:332|115:311|123:264,1,184.000003509522,6|10,0:2|0:2,0:0:0:0:
89,53,14667,2,0,B|65:94|65:94|81:154,1,92.0000017547608,6|0,3:2|0:0,0:0:0:0:
95,163,14892,1,2,3:2:0:0:
126,171,14967,1,2,0:2:0:0:
279,23,15117,1,2,3:2:0:0:
109,70,15267,1,10,0:2:0:0:
250,196,15417,1,10,0:2:0:0:
194,30,15567,6,0,B|109:25|109:25|108:27|108:27|7:21,1,167.999994873047,6|10,3:2|0:2,0:0:0:0:
27,22,16017,1,2,0:2:0:0:
75,195,16167,2,0,L|85:102,1,83.9999974365235,2|2,3:2|3:2,0:0:0:0:
182,281,16467,2,0,L|171:188,1,83.9999974365235,10|2,0:2|3:2,0:0:0:0:
126,342,16767,6,0,P|85:347|50:325,1,83.9999974365235,0|2,0:0|3:2,0:0:0:0:
249,333,17067,2,0,P|289:327|324:349,1,83.9999974365235,8|2,0:2|0:2,0:0:0:0:
182,281,17367,1,2,3:2:0:0:
182,281,17517,1,2,3:2:0:0:
273,153,17667,2,0,L|263:236,1,83.9999974365235,10|0,0:2|0:2,0:0:0:0:
343,366,17967,5,6,3:2:0:0:
416,260,18117,1,2,3:2:0:0:
419,343,18267,5,14,0:2:0:0:
342,222,18417,1,0,3:2:0:0:
354,195,18492,1,0,3:2:0:0:
381,184,18567,1,8,3:2:0:0:
496,274,18717,1,2,3:2:0:0:
512,127,18867,1,8,0:2:0:0:
455,197,19017,6,0,B|413:200|413:200|371:131|371:131|326:135,1,167.999994873047,6|2,3:2|3:2,0:0:0:0:
238,183,19467,2,0,L|242:94,1,83.9999974365235,10|0,0:2|0:0,0:0:0:0:
160,208,19767,1,2,3:2:0:0:
160,208,19917,1,2,3:2:0:0:
78,89,20067,2,0,L|82:172,1,83.9999974365235,10|0,0:2|0:0,0:0:0:0:
145,310,20367,6,0,B|202:293|202:293|75:274,1,176.000005371094,6|10,3:2|0:2,0:0:0:0:
204,377,20817,1,2,3:2:0:0:
187,384,21117,1,2,3:2:0:0:
256,207,21267,2,0,B|307:254|307:254|289:367,1,176.000005371094,14|0,0:2|3:2,0:0:0:0:
290,359,21717,5,2,3:2:0:0:
393,346,21867,1,2,3:2:0:0:
329,278,22017,1,2,3:2:0:0:
426,262,22167,5,10,0:2:0:0:
292,197,22317,1,10,0:2:0:0:
467,127,22467,1,10,0:2:0:0:
467,127,22767,6,0,P|427:131|399:188,1,88.000002685547,6|2,3:2|3:2,0:0:0:0:
266,47,23067,2,0,P|288:83|330:92,1,88.000002685547,10|2,0:2|3:2,0:0:0:0:
172,204,23367,2,0,P|213:194|236:158,1,88.000002685547,0|2,0:0|3:2,0:0:0:0:
170,32,23667,1,10,0:2:0:0:
86,65,23817,6,0,L|91:162,1,88.000002685547,2|0,3:2|0:2,0:0:0:0:
4,217,24117,2,0,L|-1:129,1,88.000002685547,2|8,3:2|0:2,0:0:0:0:
93,243,24417,1,2,0:2:0:0:
93,243,24492,1,2,0:2:0:0:
93,243,24567,1,2,3:2:0:0:
57,316,24717,1,2,3:2:0:0:
171,272,24867,2,0,L|175:359,1,88.000002685547,10|2,0:2|0:2,0:0:0:0:
299,318,25167,5,6,3:2:0:0:
257,248,25317,1,2,3:2:0:0:
305,182,25467,1,10,0:2:0:0:
429,246,25617,2,0,L|341:250,1,88.000002685547,2|0,3:2|0:0,0:0:0:0:
224,171,25917,1,10,0:2:0:0:
224,171,26217,6,0,B|178:155|178:155|134:188,1,92.0000017547608,14|0,0:2|3:2,0:0:0:0:
33,91,26517,2,0,B|78:75|78:75|118:104,1,92.0000017547608,10|8,0:2|3:2,0:0:0:0:
86,240,26817,1,10,0:2:0:0:
86,240,26892,1,10,0:2:0:0:
86,240,26967,1,10,0:2:0:0:
16,182,27117,1,10,0:2:0:0:
5,263,27267,1,2,3:2:0:0:
60,361,27417,2,0,L|67:302,1,46.0000008773804,2|0,3:2|0:0,0:0:0:0:
171,259,27587,6,0,P|267:302|313:279,1,136.000002593994,6|10,3:2|0:2,0:0:0:0:
339,230,28037,1,2,3:2:0:0:
410,272,28187,2,0,L|403:353,1,68.0000012969971,0|2,0:0|3:2,0:0:0:0:
497,244,28487,1,10,0:2:0:0:
487,379,28637,6,0,L|497:243,1,136.000002593994,2|0,3:2|3:2,0:0:0:0:
508,134,29087,1,10,0:2:0:0:
508,134,29237,2,0,P|441:171|380:141,1,136.000002593994,2|0,3:2|3:2,0:0:0:0:
368,33,29687,1,10,0:2:0:0:
437,84,29837,1,2,3:2:0:0:
368,33,29987,6,0,B|320:14|320:14|212:36,1,136.000002593994,0|8,3:2|0:2,0:0:0:0:
70,124,30587,1,0,3:2:0:0:
70,124,30737,1,0,3:2:0:0:
140,80,30887,2,0,L|148:-4,1,68.0000012969971,8|0,0:2|3:2,0:0:0:0:
226,118,31187,6,0,L|232:185,1,68.0000012969971,0|0,3:2|0:0,0:0:0:0:
136,255,31487,2,0,L|142:187,1,68.0000012969971,8|0,0:2|0:0,0:0:0:0:
209,311,31787,1,0,3:2:0:0:
209,311,31937,1,0,3:2:0:0:
77,384,32087,2,0,L|70:316,1,68.0000012969971,10|2,0:2|3:2,0:0:0:0:
209,311,32387,6,0,P|268:337|324:304,1,136.000002593994,0|10,0:0|0:2,0:0:0:0:
338,217,32837,1,2,3:2:0:0:
471,272,32987,2,0,L|403:266,1,68.0000012969971,0|0,0:0|3:2,0:0:0:0:
405,162,33287,1,10,0:2:0:0:
405,162,33437,1,2,3:2:0:0:
470,62,33587,6,0,B|505:102|505:102|490:183,1,136.000002593994,0|10,0:0|0:2,0:0:0:0:
405,162,34037,1,2,3:2:0:0:
332,284,34187,2,0,L|338:216,1,68.0000012969971,0|0,0:0|3:2,0:0:0:0:
355,80,34487,1,10,0:2:0:0:
355,80,34637,1,2,3:2:0:0:
259,180,34787,6,0,L|123:168,1,136.000002593994,0|10,0:0|0:2,0:0:0:0:
62,103,35237,1,2,3:2:0:0:
30,249,35387,2,0,L|36:181,1,68.0000012969971,0|0,0:0|3:2,0:0:0:0:
144,87,35687,1,10,0:2:0:0:
144,87,35837,1,2,3:2:0:0:
259,180,35987,6,0,L|395:168,1,136.000002593994,0|8,0:0|0:2,0:0:0:0:
476,119,36437,1,0,0:2:0:0:
452,243,36587,1,2,3:2:0:0:
452,243,36737,1,0,3:2:0:0:
402,82,36887,2,0,L|334:88,1,68.0000012969971,10|0,0:2|0:2,0:0:0:0:
199,19,37187,6,0,L|267:25,1,68.0000012969971,2|0,3:2|0:0,0:0:0:0:
261,155,37487,2,0,L|125:167,1,136.000002593994,10|0,0:2|3:0,0:0:0:0:
70,103,37937,1,0,3:2:0:0:
41,246,38087,2,0,L|33:164,1,68.0000012969971,10|0,0:2|0:2,0:0:0:0:
79,342,38387,6,0,P|165:290|211:318,1,136.000002593994,0|8,3:2|0:2,0:0:0:0:
261,346,38837,1,0,0:2:0:0:
353,246,38987,2,0,L|362:162,1,68.0000012969971,2|0,3:2|3:2,0:0:0:0:
276,269,39287,1,10,0:2:0:0:
339,325,39437,1,0,0:2:0:0:
434,226,39587,6,0,P|465:214|498:220,1,68.0000012969971,2|0,3:2|0:0,0:0:0:0:
360,178,39887,2,0,P|365:144|387:119,1,68.0000012969971,10|0,0:2|0:0,0:0:0:0:
205,149,40187,2,0,P|173:137|140:143,1,68.0000012969971,2|0,3:2|3:2,0:0:0:0:
279,101,40487,2,0,P|273:67|251:42,1,68.0000012969971,10|0,0:2|0:2,0:0:0:0:
51,113,40787,6,0,L|58:180,1,68.0000012969971,2|0,3:2|0:0,0:0:0:0:
127,294,41087,2,0,L|134:226,1,68.0000012969971,10|0,0:2|0:0,0:0:0:0:
0,242,41387,2,0,L|7:309,1,68.0000012969971,2|0,3:2|3:2,0:0:0:0:
200,383,41687,2,0,L|207:315,1,68.0000012969971,10|0,0:2|0:2,0:0:0:0:
355,205,41987,6,0,B|317:242|317:242|215:231,1,151.999995941162,6|10,3:2|0:2,0:0:0:0:
167,162,42437,1,2,3:2:0:0:
267,61,42587,2,0,L|254:152,1,75.9999979705811,0|2,0:0|3:2,0:0:0:0:
148,12,42887,1,10,0:2:0:0:
167,162,43037,6,0,L|147:11,1,151.999995941162,2|2,3:2|3:2,0:0:0:0:
57,147,43487,2,0,L|66:71,1,75.9999979705811,10|10,0:2|0:2,0:0:0:0:
66,71,43712,1,10,0:2:0:0:
66,71,43787,1,10,0:2:0:0:
22,11,43937,1,10,0:2:0:0:
22,218,44087,2,0,P|56:233|92:224,1,75.9999979705811,2|10,3:2|3:2,0:0:0:0:
256,136,44387,6,0,P|346:121|387:197,1,160,6|10,3:2|0:2,0:0:0:0:
331,239,44837,1,2,3:2:0:0:
438,216,44987,1,0,0:0:0:0:
384,167,45137,2,0,P|401:202|437:217,1,80,10|10,0:2|0:2,0:0:0:0:
334,353,45437,6,0,P|370:337|387:302,1,80,6|8,3:2|0:2,0:0:0:0:
224,244,45737,2,0,P|252:271|255:310,1,80,2|8,3:2|0:2,0:0:0:0:
175,368,46037,1,10,0:2:0:0:
175,368,46112,1,10,0:2:0:0:
175,368,46187,1,10,0:2:0:0:
52,306,46337,1,10,0:2:0:0:
91,375,46487,1,10,0:2:0:0:
37,223,46637,6,0,P|102:231|129:281,1,120.000004577637,6|0,3:2|3:2,0:0:0:0:
195,104,47087,6,0,P|130:112|103:162,1,103.999995239258,10|0,0:2|0:2,0:0:0:0:
207,249,47387,6,0,L|210:206,1,40,2|0,3:2|0:2,0:0:0:0:
186,92,47687,6,0,P|121:100|94:150,1,103.999995239258,10|0,0:2|0:2,0:0:0:0:
198,237,47987,6,0,L|201:194,1,40,2|0,3:2|0:2,0:0:0:0:
99,127,48287,6,0,P|135:91|186:92,1,103.999995239258,10|0,0:2|0:2,0:0:0:0:
207,249,48587,1,10,0:2:0:0:
279,214,48737,1,10,0:2:0:0:
334,271,48887,1,8,0:2:0:0:
500,183,49037,6,0,P|427:182|393:221,1,120.000004577637,6|0,3:2|3:2,0:0:0:0:
308,66,49487,6,0,P|358:61|400:90,1,103.999995239258,10|0,0:2|0:2,0:0:0:0:
290,189,49787,6,0,L|286:137,1,40,2|0,3:2|3:2,0:0:0:0:
308,51,50087,6,0,P|358:46|400:75,1,103.999995239258,10|2,0:2|0:2,0:0:0:0:
290,174,50387,1,0,3:2:0:0:
206,70,50537,1,0,3:2:0:0:
215,150,50687,1,0,3:2:0:0:
158,209,50837,1,2,3:2:0:0:
144,211,50912,1,0,3:2:0:0:
130,207,50987,1,2,3:2:0:0:
64,165,51095,6,0,L|12:161,1,47.9999985351563,10|0,0:2|3:2,0:0:0:0:
3,318,51413,6,0,L|152:304,1,128,6|0,3:2|3:2,0:0:0:0:
285,362,51883,2,0,L|188:353,1,80,10|0,0:2|0:2,0:0:0:0:
130,306,52183,1,2,3:2:0:0:
130,306,52333,1,0,3:2:0:0:
213,196,52483,1,10,0:2:0:0:
213,196,52633,6,0,L|205:280,1,80,0|2,3:2|3:2,0:0:0:0:
302,180,52933,1,10,0:2:0:0:
302,180,53083,2,0,L|294:264,1,80,10|0,0:2|0:0,0:0:0:0:
365,345,53383,1,0,3:2:0:0:
365,345,53533,1,0,3:2:0:0:
497,303,53683,2,0,P|455:281|415:295,1,80,10|0,0:2|0:2,0:0:0:0:
285,362,53983,5,14,0:2:0:0:
339,257,54133,1,2,3:2:0:0:
205,275,54283,5,8,0:2:0:0:
356,240,54433,2,0,L|366:194,2,40,2|0|0,3:2|3:2|3:2,0:0:0:0:
442,167,54733,2,0,L|432:121,2,40,0|0|2,3:2|3:2|3:2,0:0:0:0:
470,41,55033,6,0,B|440:49|404:18|404:18|360:38|340:80|361:146,1,191.999994140625,14|8,0:2|0:2,0:0:0:0:
440,251,55483,1,8,0:2:0:0:
440,251,56383,6,0,L|267:231,1,143.999995605469,6|0,3:2|0:0,0:0:0:0:
229,184,56683,2,0,B|207:230|207:230|226:275,1,95.9999970703126,10|0,0:2|0:0,0:0:0:0:
341,160,56983,1,0,3:2:0:0:
293,316,57133,1,0,3:2:0:0:
133,270,57283,2,0,B|115:228|115:228|137:182,1,95.9999970703126,10|2,0:2|0:2,0:0:0:0:
266,20,57583,6,0,L|275:123,1,95.9999970703126,0|0,3:2|0:0,0:0:0:0:
136,182,57883,2,0,L|144:86,1,95.9999970703126,8|2,0:2|0:2,0:0:0:0:
220,207,58183,1,2,3:2:0:0:
48,158,58333,1,2,3:2:0:0:
234,13,58483,2,0,L|242:108,1,95.9999970703126,10|2,0:2|0:2,0:0:0:0:
302,229,58783,6,0,P|368:247|422:203,1,143.999995605469,2|0,3:2|0:0,0:0:0:0:
440,123,59083,2,0,L|432:28,1,95.9999970703126,10|0,0:2|0:0,0:0:0:0:
350,160,59383,1,0,3:2:0:0:
511,194,59533,1,0,3:2:0:0:
340,40,59683,2,0,L|348:135,1,95.9999970703126,10|2,0:2|0:2,0:0:0:0:
238,296,59983,6,0,B|190:304|190:304|155:270,1,95.9999970703126,0|0,3:2|0:0,0:0:0:0:
327,342,60283,2,0,B|375:350|375:350|410:316,1,95.9999970703126,8|0,0:2|2:2,0:0:0:0:
302,229,60583,1,2,3:2:0:0:
259,376,60733,1,2,3:2:0:0:
408,317,60883,1,10,0:2:0:0:
487,341,61033,1,2,0:2:0:0:
502,175,61183,6,0,P|458:228|367:199,1,143.999995605469,2|0,3:2|0:0,0:0:0:0:
302,229,61483,2,0,P|258:203|214:211,1,95.9999970703126,10|0,0:2|0:0,0:0:0:0:
167,350,61783,1,0,3:2:0:0:
167,350,61933,1,0,3:2:0:0:
24,259,62083,2,0,P|70:252|110:277,1,95.9999970703126,10|0,2:2|2:2,0:0:0:0:
293,254,62383,6,0,P|253:278|206:272,1,95.9999970703126,2|0,3:2|0:0,0:0:0:0:
85,174,62683,1,10,0:2:0:0:
116,92,62833,2,0,P|157:113|174:157,1,95.9999970703126,2|0,0:2|3:2,0:0:0:0:
300,6,63133,1,0,3:2:0:0:
298,135,63283,2,0,P|256:113|239:69,1,95.9999970703126,10|2,0:2|0:2,0:0:0:0:
404,14,63583,6,0,L|392:125,1,95.9999970703126,4|0,3:2|0:0,0:0:0:0:
315,218,63883,1,10,0:2:0:0:
431,278,64033,1,10,0:2:0:0:
441,261,64108,1,10,0:2:0:0:
441,241,64183,1,10,0:2:0:0:
337,310,64333,1,0,3:2:0:0:
230,205,64483,1,2,0:2:0:0:
129,308,64633,6,0,B|87:309|54:357|54:357|61:301|30:263,1,191.999994140625,6|0,3:2|3:2,0:0:0:0:
128,98,65083,2,0,P|141:152|130:193,1,95.9999970703126,8|10,0:2|0:2,0:0:0:0:
126,209,65308,1,8,0:2:0:0:
114,224,65383,1,10,0:2:0:0:
199,273,65533,1,10,0:2:0:0:
252,194,65683,1,2,3:2:0:0:
337,242,65833,1,0,3:2:0:0:
472,178,65983,6,0,P|421:191|367:121,1,143.999995605469,6|0,3:2|0:0,0:0:0:0:
407,53,66283,2,0,P|350:43|307:77,1,95.9999970703126,10|0,0:2|0:0,0:0:0:0:
252,194,66583,1,0,3:2:0:0:
252,194,66733,1,0,3:2:0:0:
141,96,66883,2,0,L|255:109,1,95.9999970703126,10|2,0:2|0:2,0:0:0:0:
80,159,67183,6,0,P|46:88|96:19,1,143.999995605469,0|0,3:2|0:0,0:0:0:0:
155,7,67483,2,0,L|269:20,1,95.9999970703126,8|2,0:2|0:2,0:0:0:0:
333,207,67783,1,2,3:2:0:0:
318,61,67933,1,2,3:2:0:0:
252,194,68083,1,10,0:2:0:0:
236,106,68233,1,2,0:2:0:0:
277,275,68383,5,14,3:2:0:0:
381,133,68533,1,0,3:2:0:0:
358,312,68683,5,10,0:2:0:0:
252,194,68833,1,10,0:2:0:0:
252,194,68908,1,10,0:2:0:0:
252,194,68983,1,10,0:2:0:0:
181,230,69133,1,0,3:2:0:0:
128,171,69283,1,0,3:2:0:0:
0,187,69433,6,0,B|52:201|72:162|64:154|89:110|146:112,1,176.000005371094,6|0,0:2|3:2,0:0:0:0:
271,53,69883,2,0,B|224:66|224:66|178:18,1,95.9999970703126,8|0,0:2|0:2,0:0:0:0:
339,2,70183,1,2,3:2:0:0:
359,82,70333,1,2,3:2:0:0:
512,19,70483,2,0,B|465:6|465:6|419:54,1,95.9999970703126,10|2,0:2|0:2,0:0:0:0:
328,182,70783,6,0,P|390:168|434:214,1,132.00000402832,6|0,3:2|0:0,0:0:0:0:
500,263,71083,2,0,P|469:293|426:292,1,88.000002685547,10|0,0:2|0:0,0:0:0:0:
328,182,71383,1,0,3:2:0:0:
355,335,71533,1,0,3:2:0:0:
434,214,71683,1,10,0:2:0:0:
357,355,71833,1,2,3:2:0:0:
260,254,71983,6,0,L|103:242,1,132.00000402832,4|0,3:2|0:0,0:0:0:0:
57,206,72283,2,0,B|36:248|36:248|63:291,1,88.000002685547,10|0,2:2|2:2,0:0:0:0:
174,170,72583,1,2,3:2:0:0:
125,326,72733,1,2,3:2:0:0:
5,147,72883,2,0,P|41:124|83:130,1,88.000002685547,10|0,0:2|0:0,0:0:0:0:
149,249,73183,5,6,3:2:0:0:
259,168,73333,1,8,0:2:0:0:
227,42,73483,1,10,0:2:0:0:
140,60,73633,1,8,0:2:0:0:
123,50,73708,1,8,0:2:0:0:
111,34,73783,1,8,0:2:0:0:
196,128,73933,1,10,0:2:0:0:
306,67,74083,1,0,3:2:0:0:
333,220,74233,6,0,B|379:263|379:263|509:245,1,191.999994140625,6|2,3:2|3:2,0:0:0:0:
405,168,74683,1,8,0:2:0:0:
333,220,74833,1,8,0:2:0:0:
313,222,74908,1,8,0:2:0:0:
294,215,74983,1,10,0:2:0:0:
208,131,75133,1,10,0:2:0:0:
143,234,75283,1,10,0:2:0:0:
77,188,75433,1,0,3:2:0:0:
21,274,75583,6,0,P|116:279|135:338,1,143.999995605469,6|2,3:2|0:0,0:0:0:0:
266,344,76033,2,0,P|241:369|206:373,1,71.9999978027344,8|0,0:2|3:2,0:0:0:0:
209,292,76333,1,0,3:2:0:0:
347,364,76483,2,0,L|360:271,1,71.9999978027344,10|2,0:2|0:2,0:0:0:0:
206,373,76783,5,10,3:2:0:0:
260,131,77083,5,10,3:2:0:0:
260,131,77983,6,0,B|261:78|325:73|325:73|355:107|345:165|312:185,1,207.999990478516,6|0,3:2|0:2,0:0:0:0:
280,247,78433,6,0,B|246:241|238:210|238:210|183:180|145:219,1,160,6|0,3:2|2:2,0:0:0:0:
67,242,78845,6,0,B|110:282|110:282|75:166,1,176.000005371094,6|0,3:2|0:2,0:0:0:0:
6,100,79270,6,0,B|37:101|53:129|53:129|99:122|120:91|105:45,1,160,6|0,3:2|0:2,0:0:0:0:
189,16,79720,6,0,P|242:13|275:49,1,88.000002685547,6|0,3:2|0:2,0:0:0:0:
351,94,80038,6,0,P|316:96|291:124,1,71.9999978027344,6|0,3:2|0:2,0:0:0:0:
257,233,80338,6,0,P|360:189|424:187,1,176.000005371094,6|0,3:2|0:2,0:0:0:0:
500,233,80769,6,0,B|468:275|478:320|478:320|454:282|399:272,1,184.000003509522,6|0,3:2|0:2,0:0:0:0:
422,186,81219,6,0,B|433:155|403:129|403:129|395:72|422:33|475:26,1,188.799993374024,6|0,3:2|0:2,0:0:0:0:
380,74,81669,6,0,B|340:66|317:93|317:93|214:81,1,156.799998564453,6|0,3:2|0:2,0:0:0:0:
152,39,82100,6,0,B|128:80|128:80|80:68,1,95.9999970703126,6|0,3:2|0:2,0:0:0:0:
147,197,82418,6,0,B|182:157|182:157|229:177,1,103.999995239258,6|0,3:2|0:2,0:0:0:0:
344,172,82743,6,0,B|459:149|432:5|328:-1|271:42|262:126|262:126|195:69|122:55|39:181|81:297|185:321|264:253|330:348|330:348|343:260|403:219|475:233,1,1065.60002601563,6|0,3:2|0:0,0:0:0:0:
