osu file format v14

[General]
AudioFilename: Rakku Medjikara - Golden Nocturne.mp3
AudioLeadIn: 0
PreviewTime: -1
Countdown: 0
SampleSet: Normal
StackLeniency: 0.7
Mode: 0
LetterboxInBreaks: 0
WidescreenStoryboard: 0

[Editor]
DistanceSpacing: 1.5
BeatDivisor: 4
GridSize: 4
TimelineZoom: 1.9

[Metadata]
Title:Golden Nocturne
TitleUnicode:Golden Nocturne
Artist:Luck Ganriki
ArtistUnicode:ラック眼力
Creator:Bot Bot
Version:...
Source:Umineko no naku koro ni : Chiru
Tags:
BeatmapID:899422
BeatmapSetID:415016

[Difficulty]
HPDrainRate:5.5
CircleSize:4.5
OverallDifficulty:8
ApproachRate:9.6
SliderMultiplier:1.8
SliderTickRate:1

[Events]
//Background and Video events
0,0,"bgGolden.jpg",0,0
//Break Periods
//Storyboard Layer 0 (Background)
//Storyboard Layer 1 (Fail)
//Storyboard Layer 2 (Pass)
//Storyboard Layer 3 (Foreground)
//Storyboard Sound Samples

[TimingPoints]
13556,300,4,1,1,80,1,0
15056,-166.666666666667,4,1,1,80,0,0
15506,-100,4,1,1,80,0,0
15956,-100,4,1,1,80,0,1
27956,-100,4,1,1,80,0,0
32456,-200,4,1,1,80,0,0
32681,-100,4,1,1,80,0,0
36956,-200,4,1,1,80,0,0
37256,-100,4,1,1,80,0,0
99206,-200,4,1,1,80,0,0
99506,-100,4,1,1,80,0,0
99956,-83.3333333333333,4,1,1,80,0,1
114356,-100,4,1,1,80,0,0

[Colours]
Combo1 : 169,140,255
Combo2 : 132,255,132
Combo3 : 89,164,255
Combo4 : 247,100,122

[HitObjects]
32,256,13556,6,0,B|33:209|33:209|154:176|153:32,1,270,4|0,0:0|0:0,0:0:0:0:
336,309,14456,2,0,B|365:273|365:273|441:327|514:274,1,180,8|0,0:0|0:0,0:0:0:0:
444,189,14906,1,0,0:0:0:0:
325,31,15056,6,0,L|325:139,1,107.999996704102,8|0,0:0|0:0,0:0:0:0:
272,233,15506,1,0,0:0:0:0:
203,316,15656,1,8,0:2:0:0:
155,341,15731,1,8,0:2:0:0:
101,335,15806,1,8,0:2:0:0:
63,296,15881,1,8,0:2:0:0:
63,242,15956,1,12,0:2:0:0:
160,92,16106,5,0,0:0:0:0:
267,76,16256,2,0,P|348:68|439:22,1,180,8|0,0:0|0:0,0:0:0:0:
376,154,16706,2,0,L|413:259,1,90,0|8,0:0|0:2,0:0:0:0:
276,316,17006,1,0,0:0:0:0:
168,305,17156,2,0,B|172:249|215:229|215:229|261:213|267:139,1,180,4|8,0:0|0:0,0:0:0:0:
221,64,17606,2,0,B|186:25|128:21,1,90
27,211,17906,5,8,0:2:0:0:
33,264,17981,1,8,0:2:0:0:
72,300,18056,2,0,P|113:321|169:318,1,90,8|0,0:2|0:0,0:0:0:0:
253,272,18356,2,0,B|346:236|455:282,1,180,4|8,0:0|0:0,0:0:0:0:
230,186,18806,2,0,B|281:160|346:163,1,90
440,89,19106,1,0,0:0:0:0:
440,268,19256,1,8,0:0:0:0:
317,90,19406,1,0,0:0:0:0:
128,256,19556,2,0,B|56:261|17:192|46:118,1,180,4|8,0:0|0:0,0:0:0:0:
149,133,20006,6,0,P|192:97|213:37,1,90
253,164,20306,1,8,0:2:0:0:
289,203,20381,1,8,0:2:0:0:
341,214,20456,2,0,P|386:221|436:206,1,90,8|0,0:2|0:0,0:0:0:0:
480,6,20756,2,0,P|398:37|367:119,1,180,4|8,0:0|0:0,0:0:0:0:
344,224,21206,1,0,0:0:0:0:
156,240,21356,2,0,P|109:223|86:188,1,90
252,48,21656,2,0,P|288:20|349:21,1,90,8|0,0:0|0:0,0:0:0:0:
400,260,21956,2,0,P|410:309|401:356,1,90,4|0,0:0|0:0,0:0:0:0:
153,315,22256,6,0,B|198:322|252:294,1,90,8|0,0:0|0:0,0:0:0:0:
339,194,22556,1,8,0:2:0:0:
368,148,22631,1,8,0:2:0:0:
372,96,22706,1,8,0:2:0:0:
348,48,22781,1,8,0:2:0:0:
304,16,22856,1,8,0:2:0:0:
184,40,23006,1,0,0:0:0:0:
113,148,23156,6,0,B|76:232|184:232|172:335,1,180,4|8,0:0|0:0,0:0:0:0:
66,344,23606,1,0,0:0:0:0:
279,311,23756,2,0,B|305:283|305:283|400:287|429:228,1,180,0|8,0:0|0:0,0:0:0:0:
466,129,24206,1,0,0:0:0:0:
280,19,24356,6,0,P|220:8|167:27,1,90,4|0,0:0|0:0,0:0:0:0:
179,237,24656,2,0,P|203:199|214:156,1,90,8|0,0:0|0:0,0:0:0:0:
64,54,24956,2,0,P|63:109|100:156,1,90
347,172,25256,2,0,P|326:106|306:88,1,90,8|0,0:0|0:0,0:0:0:0:
73,284,25556,2,0,P|149:329|255:323,1,180,4|8,0:0|0:0,0:0:0:0:
353,141,26006,5,2,0:0:0:0:
144,88,26156,1,2,0:0:0:0:
292,244,26306,1,2,0:0:0:0:
444,44,26456,1,10,0:2:0:0:
372,284,26606,1,2,0:0:0:0:
140,184,26756,1,6,0:0:0:0:
451,90,26906,6,0,B|416:50|366:36,1,90,0|8,0:0|0:0,0:0:0:0:
61,90,27206,2,0,B|93:132|159:147,1,90
405,152,27506,2,0,P|426:198|424:247,1,90,0|8,0:0|0:2,0:0:0:0:
410,289,27731,1,8,0:2:0:0:
367,322,27806,1,8,0:2:0:0:
313,325,27881,1,8,0:2:0:0:
263,303,27956,6,0,P|180:291|82:356,1,180,8|8,0:2|0:0,0:0:0:0:
11,268,28406,1,0,0:0:0:0:
16,160,28556,2,0,B|16:98|119:98|120:8,1,180,0|8,0:0|0:0,0:0:0:0:
23,10,29006,1,0,0:0:0:0:
100,173,29156,2,0,P|142:196|209:191,1,90,4|0,0:0|0:0,0:0:0:0:
290,183,29456,2,0,P|272:133|235:102,1,90,8|0,0:0|0:0,0:0:0:0:
353,25,29756,2,0,L|353:115,1,90
486,16,30056,2,0,P|451:44|440:87,1,90,8|0,0:0|0:0,0:0:0:0:
477,232,30356,6,0,P|431:309|334:332,1,180,4|8,0:0|0:0,0:0:0:0:
241,312,30806,2,0,P|241:261|208:206,1,90
184,125,31106,1,0,0:0:0:0:
71,214,31256,1,8,0:0:0:0:
43,36,31406,1,0,0:0:0:0:
253,86,31556,1,4,0:0:0:0:
12,160,31706,6,0,P|17:212|49:253,1,90,0|8,0:0|0:0,0:0:0:0:
130,298,32006,1,0,0:0:0:0:
234,270,32156,1,0,0:0:0:0:
288,176,32306,1,0,0:0:0:0:
192,125,32456,2,0,L|164:62,1,67.5,8|0,0:0|0:0,0:0:0:0:
204,36,32756,5,8,0:2:0:0:
308,36,32906,1,8,0:2:0:0:
130,112,33206,5,8,0:2:0:0:
382,112,33356,1,8,0:2:0:0:
58,186,33656,5,8,0:2:0:0:
454,186,33806,1,12,0:2:0:0:
188,136,34706,5,0,0:0:0:0:
188,136,34856,1,0,0:0:0:0:
200,244,35156,5,8,0:2:0:0:
312,140,35306,1,8,0:2:0:0:
113,224,35606,5,8,0:2:0:0:
399,160,35756,1,8,0:2:0:0:
225,31,36056,5,8,0:2:0:0:
287,353,36206,1,12,0:2:0:0:
53,152,36506,5,8,0:2:0:0:
459,232,36656,1,12,0:2:0:0:
59,319,36956,2,0,L|59:226,1,90,4|0,0:0|0:0,0:0:0:0:
64,175,37331,1,8,0:2:0:0:
79,123,37406,1,8,0:2:0:0:
116,84,37481,1,8,0:2:0:0:
166,64,37556,5,8,0:2:0:0:
273,64,37706,1,8,0:2:0:0:
145,268,38006,5,8,0:2:0:0:
367,116,38156,1,8,0:2:0:0:
98,58,38456,5,8,0:2:0:0:
414,326,38606,1,12,0:2:0:0:
295,115,39806,5,8,0:2:0:0:
295,115,39881,1,8,0:2:0:0:
295,115,39956,1,8,0:2:0:0:
217,269,40106,1,8,0:2:0:0:
214,53,40406,5,8,0:2:0:0:
298,331,40556,1,8,0:2:0:0:
401,141,40856,5,8,0:2:0:0:
111,243,41006,1,12,0:2:0:0:
361,339,41156,5,8,0:2:0:0:
151,45,41306,1,12,0:2:0:0:
406,196,41456,2,0,P|385:224|335:258,1,90,8|0,0:0|0:0,0:0:0:0:
126,174,41752,2,0,P|168:189|204:217,1,90
248,315,42053,2,0,P|204:326|162:315,1,90,8|0,0:0|0:0,0:0:0:0:
229,35,42356,6,0,P|272:103|248:218,1,180,4|8,0:0|0:0,0:0:0:0:
181,125,42806,1,0,0:0:0:0:
392,79,42956,2,0,P|436:58|480:9,2,90,0|0|8,0:0|0:0|0:0,0:0:0:0:
300,112,43406,1,0,0:0:0:0:
207,168,43556,2,0,B|183:214|197:270,1,90,4|0,0:0|0:0,0:0:0:0:
279,321,43856,1,8,0:0:0:0:
173,344,44006,2,0,P|134:310|123:239,1,90
174,64,44306,1,8,0:2:0:0:
213,27,44381,1,8,0:2:0:0:
266,17,44456,2,0,P|323:20|364:44,1,90,8|0,0:2|0:0,0:0:0:0:
481,208,44756,6,0,B|475:314|370:354,1,180,4|8,0:0|0:0,0:0:0:0:
215,211,45206,2,0,P|258:199|323:218,1,90
255,304,45506,1,0,0:0:0:0:
152,338,45656,2,0,P|106:305|93:255,1,90,8|0,0:0|0:0,0:0:0:0:
92,56,45956,2,0,B|144:0|184:120|296:68,1,180,4|8,0:0|0:0,0:0:0:0:
441,112,46406,1,0,0:0:0:0:
487,288,46556,2,0,P|404:261|361:185,1,180,0|8,0:0|0:0,0:0:0:0:
325,44,47006,1,0,0:0:0:0:
224,240,47156,6,0,P|126:239|57:167,1,180,4|8,0:0|0:0,0:0:0:0:
212,28,47606,1,0,0:0:0:0:
224,240,47756,2,0,P|316:232|380:168,1,180,0|8,0:0|0:0,0:0:0:0:
212,28,48206,1,0,0:0:0:0:
224,240,48356,2,0,P|264:324|352:356,2,180,4|8|0,0:0|0:0|0:0,0:0:0:0:
348,60,49106,5,8,0:2:0:0:
400,68,49181,1,8,0:2:0:0:
444,100,49256,2,0,P|476:144|476:192,1,90,8|0,0:2|0:0,0:0:0:0:
121,94,49556,6,0,P|201:127|292:95,1,180,4|8,0:0|0:0,0:0:0:0:
207,30,50006,1,0,0:0:0:0:
29,152,50156,2,0,B|45:211|101:226,1,90
215,159,50456,2,0,P|178:142|104:166,1,90,8|0,0:0|0:0,0:0:0:0:
20,290,50756,2,0,P|57:307|131:283,1,90,4|0,0:0|0:0,0:0:0:0:
271,229,51056,6,0,P|220:260|181:268,1,90,8|2,0:0|0:0,0:0:0:0:
392,192,51356,2,0,P|348:181|310:156,1,90,8|2,0:0|0:0,0:0:0:0:
500,256,51656,2,0,P|476:204|476:148,1,90,8|2,0:0|0:0,0:0:0:0:
23,92,51956,6,0,P|92:27|197:19,1,180,4|8,0:0|0:0,0:0:0:0:
323,192,52406,2,0,P|372:183|416:141,1,90
466,247,52706,2,0,P|481:199|475:139,1,90,0|8,0:0|0:0,0:0:0:0:
31,224,53006,2,0,P|31:179|45:137,1,90,0|4,0:0|0:0,0:0:0:0:
108,224,53307,2,0,P|144:198|189:192,1,90,0|8,0:0|0:0,0:0:0:0:
482,299,53606,2,0,P|441:322|376:328,1,90
256,300,53906,5,8,0:2:0:0:
204,285,53981,1,8,0:2:0:0:
151,294,54056,2,0,P|98:311|45:304,1,90,8|0,0:2|0:0,0:0:0:0:
40,204,54356,2,0,P|83:114|170:64,1,180,4|8,0:0|0:0,0:0:0:0:
256,58,54806,1,0,0:0:0:0:
361,79,54956,2,0,P|407:102|436:149,1,90
478,228,55256,2,0,P|446:239|389:226,1,90,8|0,0:0|0:0,0:0:0:0:
243,70,55556,6,0,P|168:102|114:193,1,180,4|8,0:0|0:0,0:0:0:0:
120,291,56006,1,0,0:0:0:0:
211,348,56156,2,0,L|317:348,1,90
404,317,56456,6,8,L|466:360,1,45,8|8,0:2|0:2,0:2:0:0:
412,296,56606,2,0,L|412:198,1,90,8|4,0:2|0:0,0:0:0:0:
400,100,56906,1,0,0:0:0:0:
304,48,57056,1,8,0:0:0:0:
304,262,57206,2,0,L|304:142,1,90
228,94,57506,2,0,P|151:118|131:137,1,90,0|8,0:0|0:0,0:0:0:0:
5,250,57806,1,0,0:0:0:0:
216,296,57956,2,0,P|249:266|268:225,1,90,4|0,0:0|0:0,0:0:0:0:
268,116,58256,1,8,0:0:0:0:
116,223,58406,2,0,P|161:222|200:200,1,90
453,112,58706,5,8,0:2:0:0:
486,69,58781,1,8,0:2:0:0:
459,22,58856,2,0,P|408:21|367:50,1,90,8|0,0:2|0:0,0:0:0:0:
318,168,59156,5,6,0:0:0:0:
202,254,59306,1,2,0:0:0:0:
234,113,59456,1,10,0:2:0:0:
245,328,59606,5,2,0:0:0:0:
152,132,59756,1,2,0:0:0:0:
321,265,59906,1,2,0:0:0:0:
50,165,60056,5,10,0:2:0:0:
328,92,60206,1,2,0:0:0:0:
182,340,60356,1,6,0:0:0:0:
384,64,60506,5,2,0:0:0:0:
252,380,60656,1,10,0:2:0:0:
112,68,60806,1,2,0:0:0:0:
135,315,60956,5,8,0:2:0:0:
188,309,61031,1,8,0:2:0:0:
228,273,61106,1,8,0:2:0:0:
274,245,61181,1,8,0:2:0:0:
327,244,61256,2,0,P|376:244|422:270,1,90,8|0,0:2|0:0,0:0:0:0:
484,342,61556,6,0,P|443:256|443:154,1,180,4|8,0:0|0:0,0:0:0:0:
455,65,62006,2,0,P|417:30|350:18,1,90
218,125,62306,2,0,P|260:110|293:80,1,90,0|8,0:0|0:0,0:0:0:0:
195,31,62606,1,0,0:0:0:0:
40,181,62756,2,0,P|76:212|142:215,1,90,4|0,0:0|0:0,0:0:0:0:
316,132,63056,2,0,P|332:173|331:218,1,90,8|0,0:0|0:0,0:0:0:0:
240,280,63356,2,0,P|272:316|343:327,1,90,0|8,0:0|0:2,0:0:0:0:
364,332,63581,1,8,0:2:0:0:
416,320,63656,1,8,0:2:0:0:
488,240,63806,1,0,0:0:0:0:
315,27,63956,6,0,B|248:28|246:147|140:133,1,180,4|8,0:0|0:0,0:0:0:0:
130,34,64406,1,0,0:0:0:0:
32,81,64556,2,0,P|45:134|34:186,1,90
4,271,64856,2,0,P|50:281|113:261,1,90,8|0,0:0|0:0,0:0:0:0:
262,138,65156,6,0,P|355:119|440:143,1,180,4|8,0:0|0:0,0:0:0:0:
496,230,65606,1,0,0:0:0:0:
431,316,65756,2,0,P|381:333|323:322,1,90
280,161,66056,1,8,0:0:0:0:
200,300,66206,1,0,0:0:0:0:
127,221,66356,6,0,P|77:208|15:222,1,90,4|0,0:0|0:0,0:0:0:0:
70,316,66656,1,8,0:0:0:0:
176,335,66806,2,0,P|232:319|281:325,1,90
371,322,67106,2,0,B|324:294|310:230,1,90,0|8,0:0|0:0,0:0:0:0:
350,149,67406,1,0,0:0:0:0:
169,30,67556,6,0,P|82:57|39:140,1,180,4|8,0:0|0:0,0:0:0:0:
148,125,68006,2,0,P|171:170|173:225,1,90
116,299,68306,1,8,0:2:0:0:
157,333,68381,1,8,0:2:0:0:
210,342,68456,2,0,P|264:346|315:333,1,90,8|0,0:2|0:0,0:0:0:0:
472,210,68756,6,0,P|447:118|379:64,1,180,4|8,0:0|0:0,0:0:0:0:
292,124,69206,2,0,P|249:95|229:57,1,90
122,61,69506,2,0,P|68:73|32:113,1,90,0|8,0:0|0:0,0:0:0:0:
30,202,69806,1,0,0:0:0:0:
197,338,69956,6,0,P|255:341|314:313,1,90,4|0,0:0|0:0,0:0:0:0:
367,212,70256,1,10,0:2:0:0:
449,329,70406,1,2,0:0:0:0:
457,149,70556,1,2,0:0:0:0:
369,306,70706,1,2,0:0:0:0:
324,94,70856,1,10,0:2:0:0:
217,281,71006,1,2,0:0:0:0:
137,41,71156,6,0,P|90:72|61:137,1,90,4|0,0:0|0:0,0:0:0:0:
36,239,71456,2,0,P|80:264|137:260,1,90,8|0,0:0|0:0,0:0:0:0:
235,349,71756,2,0,P|233:289|211:248,1,90
475,144,72056,2,0,P|437:121|393:118,1,90,8|0,0:0|0:0,0:0:0:0:
276,35,72355,2,0,P|275:79|290:121,1,90,4|0,0:0|0:0,0:0:0:0:
389,227,72656,2,0,P|402:273|391:333,1,90,8|0,0:0|0:0,0:0:0:0:
293,344,72956,1,0,0:0:0:0:
200,288,73106,1,8,0:2:0:0:
163,247,73181,1,8,0:2:0:0:
110,233,73256,2,0,P|63:218|31:174,1,90,8|0,0:2|0:0,0:0:0:0:
204,52,73556,6,0,P|294:51|397:86,1,180,4|8,0:0|0:0,0:0:0:0:
476,124,74006,1,0,0:0:0:0:
507,233,74156,2,0,B|487:283|437:301,1,90
345,258,74456,2,0,P|298:234|243:245,1,90,8|0,0:0|0:0,0:0:0:0:
77,349,74756,6,0,P|19:280|28:177,1,180,4|8,0:0|0:0,0:0:0:0:
50,90,75206,1,0,0:0:0:0:
151,127,75356,2,0,P|208:135|265:122,1,90
385,28,75656,2,0,P|351:67|338:108,1,90,8|0,0:0|0:0,0:0:0:0:
317,208,75956,6,0,P|312:260|334:305,1,90,4|0,0:0|0:0,0:0:0:0:
424,244,76256,1,8,0:0:0:0:
160,292,76406,2,0,P|106:301|45:289,1,90
128,76,76706,1,0,0:0:0:0:
396,32,76856,2,0,P|456:92|488:204,1,180,8|4,0:0|0:0,0:0:0:0:
156,268,77306,5,2,0:0:0:0:
268,20,77456,1,10,0:2:0:0:
456,216,77606,1,2,0:0:0:0:
212,328,77756,1,0,0:0:0:0:
76,160,77906,5,8,0:2:0:0:
100,111,77981,1,8,0:2:0:0:
144,80,78056,2,0,P|185:55|235:46,1,90,8|0,0:2|0:0,0:0:0:0:
363,75,78356,5,6,0:0:0:0:
457,183,78506,1,2,0:0:0:0:
372,299,78656,1,10,0:2:0:0:
471,107,78806,5,2,0:0:0:0:
265,41,78956,1,2,0:0:0:0:
188,244,79106,1,2,0:0:0:0:
460,340,79256,5,10,0:2:0:0:
260,132,79406,1,2,0:0:0:0:
68,336,79556,1,6,0:0:0:0:
88,32,79706,5,2,0:0:0:0:
256,288,79856,1,10,0:2:0:0:
424,32,80006,1,2,0:0:0:0:
184,108,80156,6,0,B|176:196|252:280,1,180,0|8,0:2|0:0,0:0:0:0:
380,328,80606,1,8,0:2:0:0:
432,341,80681,1,8,0:2:0:0:
483,324,80756,2,0,B|544:238|491:124,1,180,8|8,0:2|0:0,0:0:0:0:
320,36,81206,5,0,0:0:0:0:
216,68,81356,2,0,P|172:88|144:148,1,90
36,308,81656,2,0,P|96:296|124:260,1,90,8|0,0:0|0:0,0:0:0:0:
224,144,81956,2,0,P|249:225|321:297,1,180,4|8,0:0|0:0,0:0:0:0:
420,296,82406,1,0,0:0:0:0:
468,200,82556,1,0,0:0:0:0:
276,100,82706,1,0,0:0:0:0:
368,44,82856,2,0,P|410:56|444:85,1,90,8|0,0:0|0:0,0:0:0:0:
192,136,83156,6,0,P|92:96|44:40,1,180,4|8,0:0|0:0,0:0:0:0:
28,260,83606,1,0,0:0:0:0:
116,324,83756,1,0,0:0:0:0:
224,308,83906,2,0,L|252:208,1,90,0|8,0:0|0:0,0:0:0:0:
301,16,84206,1,0,0:0:0:0:
374,94,84356,2,0,B|394:181|484:155|491:262,1,180,4|8,0:0|0:0,0:0:0:0:
415,312,84806,5,0,0:0:0:0:
307,321,84956,2,0,P|271:283|252:235,1,90
150,276,85256,2,0,P|153:222|179:166,1,90,8|0,0:0|0:0,0:0:0:0:
67,141,85556,6,0,P|123:68|214:53,1,180,4|8,0:0|0:0,0:0:0:0:
259,145,86006,2,0,P|355:159|440:111,1,180,4|0,0:0|0:0,0:0:0:0:
496,39,86456,2,0,P|456:98|438:222,1,180,4|4,0:0|0:2,0:0:0:0:
460,308,86906,2,0,P|411:307|361:278,1,90,0|8,0:0|0:0,0:0:0:0:
286,227,87206,1,0,0:0:0:0:
162,49,87356,2,0,P|206:42|250:47,1,90
458,112,87656,2,0,P|406:128|360:121,1,90,8|0,0:0|0:0,0:0:0:0:
155,131,87956,6,0,P|66:159|18:228,1,180,4|8,0:0|0:0,0:0:0:0:
201,344,88406,2,0,P|196:285|176:251,1,90,4|0,0:0|0:0,0:0:0:0:
17,116,88706,2,0,P|59:77|113:59,1,90,0|8,0:0|0:0,0:0:0:0:
304,67,89006,1,0,0:0:0:0:
393,127,89156,6,0,P|422:207|401:301,1,180,4|8,0:0|0:0,0:0:0:0:
351,199,89606,2,0,P|311:181|266:181,1,90
176,312,89906,1,8,0:2:0:0:
131,342,89981,1,8,0:2:0:0:
79,358,90056,2,0,P|38:354|-4:316,1,90,8|0,0:2|0:0,0:0:0:0:
20,73,90356,6,0,P|111:46|204:65,1,180,4|8,0:0|0:0,0:0:0:0:
355,205,90806,2,0,P|433:160|473:66,1,180,4|0,0:0|0:0,0:0:0:0:
260,127,91256,2,0,P|200:192|173:288,1,180,4|4,0:0|0:2,0:0:0:0:
244,359,91706,1,0,0:0:0:0:
351,351,91856,2,0,P|393:322|466:315,1,90,8|0,0:0|0:0,0:0:0:0:
483,218,92156,2,0,P|445:194|415:141,1,90
429,49,92456,2,0,L|319:50,1,90,8|0,0:0|0:0,0:0:0:0:
174,192,92756,6,0,P|118:266|0:286,1,180,4|8,0:0|0:0,0:0:0:0:
36,74,93206,2,0,P|144:41|219:71,1,180,4|0,0:0|0:0,0:0:0:0:
345,225,93656,2,0,L|408:123,1,90,12|0,0:0|0:0,0:0:0:0:
447,61,93956,1,4,0:2:0:0:
447,61,94106,1,0,0:0:0:0:
190,201,94256,5,8,0:2:0:0:
185,236,94331,1,8,0:2:0:0:
200,268,94406,1,8,0:2:0:0:
236,294,94481,1,8,0:2:0:0:
280,303,94556,1,8,0:2:0:0:
324,295,94631,1,8,0:2:0:0:
374,275,94706,1,8,0:2:0:0:
410,234,94781,1,8,0:2:0:0:
426,182,94856,2,0,P|421:134|386:82,1,90,8|0,0:2|0:0,0:0:0:0:
188,144,95156,6,0,L|188:344,1,180
40,164,95756,1,8,0:2:0:0:
456,52,96056,1,4,0:2:0:0:
472,80,96506,1,0,0:0:0:0:
488,112,96806,1,0,0:0:0:0:
500,152,96956,2,0,B|412:156|316:104|212:156,1,270,8|0,0:2|0:0,0:0:0:0:
192,340,97556,2,0,L|192:236,1,90
308,68,97856,2,0,L|276:162,1,90
48,328,98156,2,0,L|128:248,1,90,8|0,0:2|0:0,0:0:0:0:
392,100,98456,2,0,L|496:136,2,90
240,20,98906,5,8,0:2:0:0:
108,140,99056,1,0,0:0:0:0:
312,316,99206,6,0,L|416:316,1,90,0|8,0:0|0:2,0:0:0:0:
452,300,99581,1,8,0:2:0:0:
476,252,99656,1,8,0:2:0:0:
320,44,99956,6,0,P|224:64|152:152,1,215.999993408203,4|8,0:0|0:0,0:0:0:0:
349,245,100406,2,0,P|291:260|240:256,1,107.999996704102
21,162,100706,2,0,P|72:179|111:216,1,107.999996704102,0|8,0:0|0:0,0:0:0:0:
196,340,101006,1,0,0:0:0:0:
325,343,101156,2,0,P|392:323|435:278,1,107.999996704102,4|0,0:0|0:0,0:0:0:0:
364,44,101456,2,0,P|384:156|482:207,1,215.999993408203,8|0,0:0|0:0,0:0:0:0:
228,100,101906,1,0,0:0:0:0:
480,48,102056,1,8,0:0:0:0:
408,296,102206,5,8,0:2:0:0:
368,312,102281,1,8,0:2:0:0:
324,316,102356,2,0,P|264:320|208:304,1,107.999996704102,8|0,0:2|0:0,0:0:0:0:
128,216,102656,2,0,P|80:260|68:312,1,107.999996704102,8|0,0:0|0:0,0:0:0:0:
60,168,102956,2,0,L|20:48,2,107.999996704102,0|0|8,0:0|0:0|0:0,0:0:0:0:
152,260,103406,1,0,0:0:0:0:
328,44,103556,6,0,P|388:52|440:84,1,107.999996704102,4|0,0:0|0:0,0:0:0:0:
492,188,103856,1,8,0:0:0:0:
440,304,104006,1,0,0:0:0:0:
348,156,104156,1,0,0:0:0:0:
196,308,104306,1,8,0:2:0:0:
156,324,104381,1,8,0:2:0:0:
112,324,104456,2,0,P|60:292|36:236,1,107.999996704102,8|0,0:2|0:0,0:0:0:0:
144,16,104756,6,0,B|228:32|280:76|280:76|280:152,1,215.999993408203,4|8,0:0|0:0,0:0:0:0:
288,272,105206,2,0,B|336:308|412:296,1,107.999996704102
352,176,105506,2,0,B|352:112|304:72,1,107.999996704102,0|8,0:0|0:0,0:0:0:0:
120,180,105806,2,0,L|228:180,1,107.999996704102,0|4,0:0|0:0,0:0:0:0:
336,252,106106,1,0,0:0:0:0:
440,172,106256,1,8,0:0:0:0:
344,84,106406,2,0,L|224:84,1,107.999996704102
112,44,106706,1,0,0:0:0:0:
40,292,106856,2,0,P|104:320|152:320,1,107.999996704102,8|0,0:0|0:0,0:0:0:0:
280,220,107156,2,0,P|392:196|488:256,1,215.999993408203,4|8,0:0|0:0,0:0:0:0:
331,309,107606,6,0,P|275:305|215:273,1,107.999996704102
111,105,107906,2,0,P|162:120|202:156,1,107.999996704102,0|8,0:0|0:0,0:0:0:0:
304,235,108206,2,0,P|360:211|396:163,1,107.999996704102,0|4,0:0|0:0,0:0:0:0:
132,187,108506,2,0,P|76:199|28:231,1,107.999996704102,0|8,0:0|0:0,0:0:0:0:
116,328,108806,1,0,0:0:0:0:
376,336,108956,6,0,L|408:224,1,107.999996704102,0|8,0:0|0:2,0:0:0:0:
424,192,109181,1,8,0:2:0:0:
428,148,109256,2,0,P|424:88|384:28,1,107.999996704102,8|0,0:2|0:0,0:0:0:0:
140,36,109556,6,0,B|116:88|116:88|64:132|112:180|112:180|136:248,1,215.999993408203,4|8,0:0|0:0,0:0:0:0:
216,324,110006,2,0,B|280:316|316:268,1,107.999996704102
340,148,110306,1,0,0:0:0:0:
180,104,110456,1,8,0:0:0:0:
284,24,110606,1,0,0:0:0:0:
244,228,110756,6,0,L|320:324,1,107.999996704102,4|0,0:0|0:0,0:0:0:0:
436,348,111056,1,8,0:0:0:0:
496,232,111206,2,0,P|436:224|380:240,1,107.999996704102
296,324,111506,2,0,P|232:292|204:252,1,107.999996704102,0|8,0:0|0:0,0:0:0:0:
172,140,111806,1,0,0:0:0:0:
408,36,111956,6,0,P|452:72|472:136,1,107.999996704102,4|0,0:0|0:0,0:0:0:0:
484,248,112256,2,0,L|372:248,1,107.999996704102,8|0,0:0|0:0,0:0:0:0:
248,272,112556,5,2,0:0:0:0:
148,188,112706,1,2,0:0:0:0:
276,72,112856,5,10,0:2:0:0:
108,116,113006,1,2,0:0:0:0:
176,296,113156,5,2,0:0:0:0:
28,168,113306,1,2,0:0:0:0:
208,48,113456,5,10,0:2:0:0:
100,236,113606,1,2,0:0:0:0:
288,88,113756,5,2,0:0:0:0:
52,72,113906,1,2,0:0:0:0:
232,256,114056,5,8,0:2:0:0:
268,276,114131,1,8,0:2:0:0:
308,288,114206,1,8,0:2:0:0:
352,288,114281,1,8,0:2:0:0:
388,276,114356,2,0,B|432:240|440:188|440:188|440:88,1,180,8|0,0:2|0:0,0:0:0:0:
