osu file format v14

[General]
AudioFilename: audio.mp3
AudioLeadIn: 0
PreviewTime: -1
Countdown: 1
SampleSet: None
StackLeniency: 0.7
Mode: 1
LetterboxInBreaks: 0
WidescreenStoryboard: 0

[Editor]
DistanceSpacing: 0.8
BeatDivisor: 4
GridSize: 32
TimelineZoom: 1.8

[Metadata]
Title:The Sounds of Lucio
TitleUnicode:The Sounds of Lucio
Artist:Lucio
ArtistUnicode:LĂșcio
Creator:Grimbow
Version:RejuvenescĂȘncia
Source:
Tags:overwatch
BeatmapID:1438320
BeatmapSetID:680230

[Difficulty]
HPDrainRate:5
CircleSize:5
OverallDifficulty:5
ApproachRate:5
SliderMultiplier:1.4
SliderTickRate:1

[Events]
//Background and Video events
0,0,"lwp.jpg",0,0
//Break Periods
//Storyboard Layer 0 (Background)
//Storyboard Layer 1 (Fail)
//Storyboard Layer 2 (Pass)
//Storyboard Layer 3 (Foreground)
//Storyboard Sound Samples

[TimingPoints]
-30.40234375,468.75,4,1,0,40,1,0
37469,-100,4,1,0,40,0,1
59969,-100,4,1,0,40,0,0

[HitObjects]
256,192,30907,5,0,0:0:0:0:
256,192,31375,1,0,0:0:0:0:
256,192,31844,1,0,0:0:0:0:
256,192,32313,1,0,0:0:0:0:
256,192,32782,1,0,0:0:0:0:
256,192,33133,1,8,0:0:0:0:
256,192,33250,1,0,0:0:0:0:
256,192,33485,1,8,0:0:0:0:
256,192,33719,1,0,0:0:0:0:
256,192,34071,1,8,0:0:0:0:
256,192,34188,1,0,0:0:0:0:
256,192,34422,1,8,0:0:0:0:
256,192,34657,1,0,0:0:0:0:
256,192,34774,1,0,0:0:0:0:
256,192,34891,1,8,0:0:0:0:
256,192,35008,1,0,0:0:0:0:
256,192,35125,1,0,0:0:0:0:
256,192,35594,1,0,0:0:0:0:
256,192,35828,1,8,0:0:0:0:
256,192,36063,1,0,0:0:0:0:
256,192,36297,1,8,0:0:0:0:
256,192,36532,1,0,0:0:0:0:
256,192,37000,1,0,0:0:0:0:
256,192,37469,1,4,0:0:0:0:
256,192,37703,1,8,0:0:0:0:
256,192,37821,1,0,0:0:0:0:
256,192,37938,1,0,0:0:0:0:
256,192,38172,1,8,0:0:0:0:
256,192,38407,1,0,0:0:0:0:
256,192,38641,1,8,0:0:0:0:
256,192,38758,1,0,0:0:0:0:
256,192,38875,1,0,0:0:0:0:
256,192,38993,1,0,0:0:0:0:
256,192,39110,1,8,0:0:0:0:
256,192,39344,1,0,0:0:0:0:
256,192,39578,1,8,0:0:0:0:
256,192,39813,1,0,0:0:0:0:
256,192,40047,1,8,0:0:0:0:
256,192,40282,1,0,0:0:0:0:
256,192,40633,1,8,0:0:0:0:
256,192,40750,1,0,0:0:0:0:
256,192,40985,1,8,0:0:0:0:
256,192,41219,1,0,0:0:0:0:
256,192,41453,1,8,0:0:0:0:
256,192,41571,1,0,0:0:0:0:
256,192,41688,1,0,0:0:0:0:
256,192,41922,1,8,0:0:0:0:
256,192,42157,1,0,0:0:0:0:
256,192,42274,1,0,0:0:0:0:
256,192,42391,1,8,0:0:0:0:
256,192,42508,1,0,0:0:0:0:
256,192,42625,1,0,0:0:0:0:
256,192,43094,1,0,0:0:0:0:
256,192,43328,1,8,0:0:0:0:
256,192,43563,1,0,0:0:0:0:
256,192,43797,1,8,0:0:0:0:
256,192,44032,1,0,0:0:0:0:
256,192,44500,1,0,0:0:0:0:
256,192,44969,1,4,0:0:0:0:
256,192,45321,1,0,0:0:0:0:
256,192,45438,1,8,0:0:0:0:
256,192,45789,1,0,0:0:0:0:
256,192,45907,1,0,0:0:0:0:
256,192,46141,1,0,0:0:0:0:
256,192,46375,1,8,0:0:0:0:
256,192,46493,1,8,0:0:0:0:
256,192,46844,1,0,0:0:0:0:
256,192,46961,1,0,0:0:0:0:
256,192,47078,1,0,0:0:0:0:
256,192,47196,1,8,0:0:0:0:
256,192,47313,1,8,0:0:0:0:
256,192,47430,1,0,0:0:0:0:
256,192,47547,1,8,0:0:0:0:
256,192,47664,1,8,0:0:0:0:
256,192,47782,1,0,0:0:0:0:
256,192,48133,1,0,0:0:0:0:
256,192,48250,1,8,0:0:0:0:
256,192,48485,1,8,0:0:0:0:
256,192,48719,1,0,0:0:0:0:
256,192,49071,1,0,0:0:0:0:
256,192,49188,1,8,0:0:0:0:
256,192,49422,1,0,0:0:0:0:
256,192,49539,1,8,0:0:0:0:
256,192,49657,1,0,0:0:0:0:
256,192,49891,1,0,0:0:0:0:
256,192,50125,1,8,0:0:0:0:
256,192,50243,1,8,0:0:0:0:
256,192,50594,1,0,0:0:0:0:
256,192,50711,1,0,0:0:0:0:
256,192,50828,1,0,0:0:0:0:
256,192,50946,1,8,0:0:0:0:
256,192,51063,1,8,0:0:0:0:
256,192,51297,1,0,0:0:0:0:
256,192,51414,1,8,0:0:0:0:
256,192,51532,1,0,0:0:0:0:
256,192,51766,1,8,0:0:0:0:
256,192,51883,1,0,0:0:0:0:
256,192,52000,1,8,0:0:0:0:
256,192,52235,1,8,0:0:0:0:
256,192,52469,1,0,0:0:0:0:
256,192,52586,1,0,0:0:0:0:
256,192,52703,1,0,0:0:0:0:
256,192,52821,1,0,0:0:0:0:
256,192,52938,1,8,0:0:0:0:
256,192,53055,1,0,0:0:0:0:
256,192,53172,1,8,0:0:0:0:
256,192,53289,1,8,0:0:0:0:
256,192,53407,1,0,0:0:0:0:
256,192,53524,1,8,0:0:0:0:
256,192,53641,1,0,0:0:0:0:
256,192,53758,1,0,0:0:0:0:
256,192,53875,1,8,0:0:0:0:
256,192,53993,1,8,0:0:0:0:
256,192,54110,1,8,0:0:0:0:
256,192,54227,1,8,0:0:0:0:
256,192,54344,1,0,0:0:0:0:
256,192,54461,1,8,0:0:0:0:
256,192,54578,1,0,0:0:0:0:
256,192,54696,1,0,0:0:0:0:
256,192,54813,1,8,0:0:0:0:
256,192,54930,1,0,0:0:0:0:
256,192,55047,1,8,0:0:0:0:
256,192,55164,1,8,0:0:0:0:
256,192,55282,1,0,0:0:0:0:
256,192,55399,1,8,0:0:0:0:
256,192,55516,1,0,0:0:0:0:
256,192,55633,1,0,0:0:0:0:
256,192,55750,1,8,0:0:0:0:
256,192,55868,1,8,0:0:0:0:
256,192,55985,1,8,0:0:0:0:
256,192,56102,1,8,0:0:0:0:
256,192,56219,1,0,0:0:0:0:
256,192,56336,1,8,0:0:0:0:
256,192,56453,1,0,0:0:0:0:
256,192,56571,1,8,0:0:0:0:
256,192,56688,1,8,0:0:0:0:
256,192,56805,1,8,0:0:0:0:
256,192,56922,1,8,0:0:0:0:
256,192,57039,1,8,0:0:0:0:
256,192,57157,1,0,0:0:0:0:
256,192,57274,1,8,0:0:0:0:
256,192,57391,1,0,0:0:0:0:
256,192,57508,1,0,0:0:0:0:
256,192,57625,1,8,0:0:0:0:
256,192,57743,1,0,0:0:0:0:
256,192,57860,1,8,0:0:0:0:
256,192,57977,1,8,0:0:0:0:
256,192,58094,1,0,0:0:0:0:
256,192,58211,1,8,0:0:0:0:
256,192,58328,1,0,0:0:0:0:
256,192,58446,1,0,0:0:0:0:
256,192,58563,1,8,0:0:0:0:
256,192,58680,1,0,0:0:0:0:
256,192,58797,1,0,0:0:0:0:
256,192,58914,1,8,0:0:0:0:
256,192,59032,1,0,0:0:0:0:
256,192,59149,1,0,0:0:0:0:
256,192,59266,1,0,0:0:0:0:
256,192,59383,1,8,0:0:0:0:
256,192,59500,1,8,0:0:0:0:
256,192,59618,1,8,0:0:0:0:
256,192,59735,1,0,0:0:0:0:
256,192,59852,1,8,0:0:0:0:
256,192,59969,1,4,0:0:0:0:
256,192,60321,1,0,0:0:0:0:
256,192,60438,1,8,0:0:0:0:
256,192,60672,1,0,0:0:0:0:
256,192,60907,1,8,0:0:0:0:
256,192,61258,1,0,0:0:0:0:
256,192,61375,1,8,0:0:0:0:
256,192,61610,1,0,0:0:0:0:
256,192,62078,1,8,0:0:0:0:
256,192,62313,1,8,0:0:0:0:
256,192,62430,1,0,0:0:0:0:
256,192,62547,1,0,0:0:0:0:
256,192,62664,1,8,0:0:0:0:
256,192,63016,1,0,0:0:0:0:
256,192,63133,1,8,0:0:0:0:
256,192,63485,1,0,0:0:0:0:
256,192,63719,1,8,0:0:0:0:
256,192,64071,1,0,0:0:0:0:
256,192,64188,1,8,0:0:0:0:
256,192,64422,1,0,0:0:0:0:
256,192,64657,1,8,0:0:0:0:
256,192,65008,1,0,0:0:0:0:
256,192,65125,1,8,0:0:0:0:
256,192,65594,1,0,0:0:0:0:
256,192,65828,1,8,0:0:0:0:
256,192,66297,1,0,0:0:0:0:
256,192,67469,5,4,0:0:0:0:
256,192,67821,1,8,0:0:0:0:
256,192,67938,1,0,0:0:0:0:
256,192,68172,1,8,0:0:0:0:
256,192,68407,1,0,0:0:0:0:
256,160,68524,1,0,0:0:0:0:
256,160,68641,1,0,0:0:0:0:
256,160,68758,1,8,0:0:0:0:
256,192,68875,1,0,0:0:0:0:
256,192,69344,1,0,0:0:0:0:
256,192,69578,1,8,0:0:0:0:
256,192,69813,1,0,0:0:0:0:
256,192,70282,1,0,0:0:0:0:
256,192,70633,1,8,0:0:0:0:
256,192,70750,1,0,0:0:0:0:
256,192,70985,1,8,0:0:0:0:
256,192,71219,1,0,0:0:0:0:
256,192,71571,1,8,0:0:0:0:
256,192,71688,1,0,0:0:0:0:
256,192,71922,1,8,0:0:0:0:
256,192,72157,1,0,0:0:0:0:
256,192,72274,1,0,0:0:0:0:
256,192,72391,1,8,0:0:0:0:
256,192,72508,1,8,0:0:0:0:
256,192,72625,1,0,0:0:0:0:
256,192,72860,1,8,0:0:0:0:
256,192,73094,1,0,0:0:0:0:
256,192,73328,1,0,0:0:0:0:
256,192,73563,1,0,0:0:0:0:
256,192,73797,1,8,0:0:0:0:
256,192,74032,1,0,0:0:0:0:
256,192,74500,1,0,0:0:0:0:
256,192,74969,1,0,0:0:0:0:
256,192,75321,1,8,0:0:0:0:
256,192,75438,1,0,0:0:0:0:
256,192,75789,1,8,0:0:0:0:
256,192,75907,1,0,0:0:0:0:
256,192,76375,1,0,0:0:0:0:
256,192,76844,1,0,0:0:0:0:
256,192,77078,1,8,0:0:0:0:
256,192,77313,1,0,0:0:0:0:
256,192,77664,1,8,0:0:0:0:
256,192,77782,1,0,0:0:0:0:
256,192,78133,1,8,0:0:0:0:
256,192,78250,1,0,0:0:0:0:
256,192,78485,1,8,0:0:0:0:
256,192,78719,1,0,0:0:0:0:
256,192,79071,1,8,0:0:0:0:
256,192,79188,1,0,0:0:0:0:
256,192,79422,1,8,0:0:0:0:
256,192,79657,1,0,0:0:0:0:
256,192,79774,1,0,0:0:0:0:
256,192,79891,1,0,0:0:0:0:
256,192,80008,1,8,0:0:0:0:
256,192,80125,1,0,0:0:0:0:
256,192,80360,1,8,0:0:0:0:
256,192,80594,1,0,0:0:0:0:
256,192,80828,1,8,0:0:0:0:
256,192,81063,1,0,0:0:0:0:
256,192,81297,1,8,0:0:0:0:
256,192,81414,1,8,0:0:0:0:
256,192,81532,1,0,0:0:0:0:
256,192,81883,1,8,0:0:0:0:
256,192,82000,1,0,0:0:0:0:
256,192,82469,1,4,0:0:0:0:
256,192,82703,1,8,0:0:0:0:
256,192,82821,1,8,0:0:0:0:
256,192,82938,1,0,0:0:0:0:
256,192,83172,1,8,0:0:0:0:
256,192,83407,1,0,0:0:0:0:
256,192,83524,1,8,0:0:0:0:
256,192,83641,1,8,0:0:0:0:
256,192,83758,1,8,0:0:0:0:
256,192,83875,1,0,0:0:0:0:
256,192,84110,1,8,0:0:0:0:
256,192,84344,1,0,0:0:0:0:
256,192,84461,1,0,0:0:0:0:
256,192,84578,1,8,0:0:0:0:
256,192,84696,1,8,0:0:0:0:
256,192,84813,1,0,0:0:0:0:
256,192,85047,1,8,0:0:0:0:
256,192,85164,1,8,0:0:0:0:
256,192,85282,1,0,0:0:0:0:
256,192,85516,1,8,0:0:0:0:
256,192,85750,1,0,0:0:0:0:
256,192,85985,1,8,0:0:0:0:
256,192,86219,1,0,0:0:0:0:
256,192,86453,1,8,0:0:0:0:
256,192,86571,1,8,0:0:0:0:
256,192,86688,1,0,0:0:0:0:
256,192,86805,1,8,0:0:0:0:
256,192,86922,1,8,0:0:0:0:
256,192,87039,1,8,0:0:0:0:
256,192,87157,1,0,0:0:0:0:
256,192,87274,1,0,0:0:0:0:
256,192,87391,1,8,0:0:0:0:
256,192,87625,1,0,0:0:0:0:
256,192,87860,1,8,0:0:0:0:
256,192,88094,1,0,0:0:0:0:
256,192,88211,1,0,0:0:0:0:
256,192,88328,1,8,0:0:0:0:
256,192,88563,1,0,0:0:0:0:
256,192,88797,1,8,0:0:0:0:
256,192,88914,1,8,0:0:0:0:
256,192,89032,1,0,0:0:0:0:
256,192,89149,1,0,0:0:0:0:
256,192,89266,1,8,0:0:0:0:
256,192,89383,1,8,0:0:0:0:
256,192,89500,1,0,0:0:0:0:
256,192,89735,1,8,0:0:0:0:
256,192,89969,1,12,0:0:0:0:
