osu file format v14

[General]
AudioFilename: audio.mp3
AudioLeadIn: 0
PreviewTime: 60575
Countdown: 0
SampleSet: Normal
StackLeniency: 0
Mode: 1
LetterboxInBreaks: 0
WidescreenStoryboard: 0

[Editor]
Bookmarks: 12159,36010,59861,83712,113525,137376
DistanceSpacing: 1.1
BeatDivisor: 4
GridSize: 32
TimelineZoom: 2.15

[Metadata]
Title:2 Germans
TitleUnicode:2 Germans
Artist:Luciano, Gzuz
ArtistUnicode:Luciano, Gzuz
Creator:Genjuro
Version:Kriminell
Source:
Tags:german deutsch hip hop hiphop hip-hop rap deutschrap liku the law the_law greenshell homielove locosquad madein2k
BeatmapID:4369336
BeatmapSetID:2085698

[Difficulty]
HPDrainRate:6
CircleSize:2
OverallDifficulty:6
ApproachRate:10
SliderMultiplier:1.4
SliderTickRate:1

[Events]
//Background and Video events
0,0,"bg.jpg",0,60
//Break Periods
2,60606,62392
2,114271,116057
//Storyboard Layer 0 (Background)
//Storyboard Layer 1 (Fail)
//Storyboard Layer 2 (Pass)
//Storyboard Layer 3 (Foreground)
//Storyboard Layer 4 (Overlay)
//Storyboard Sound Samples

[TimingPoints]
234,372.670807453416,4,1,0,50,1,0
234,-114.285714285714,4,1,0,50,0,0
12066,-100,4,1,0,88,0,0
24084,-100,4,1,0,88,0,1
24144,-99.4396513386107,4,1,0,88,0,1
24206,-98.8942945599292,4,1,0,88,0,1
24268,-98.3548869534618,4,1,0,88,0,1
24640,-95.2380952380952,4,1,0,88,0,1
36010,-95.2380952380952,4,1,0,88,0,0
36103,-100,4,1,0,88,0,0
71786,-100,4,1,0,88,0,1
71845,-99.4484967087707,4,1,0,88,0,1
71908,-98.8942945599292,4,1,0,88,0,1
71970,-98.3548869534618,4,1,0,88,0,1
72342,-95.2380952380952,4,1,0,88,0,1
83712,-95.2380952380952,4,1,0,88,0,0
83805,-100,4,1,0,88,0,0
89951,-101.107594936709,4,1,0,88,0,0
90044,-101.480922698217,4,1,0,88,0,0
90230,-102.235910563577,4,1,0,88,0,0
90417,-103.006367373257,4,1,0,88,0,0
90696,-104.177705318932,4,1,0,88,0,0
90976,-105.380333951763,4,1,0,88,0,0
91162,-106.194690265487,4,1,0,88,0,0
91442,-107.444617260078,4,1,0,88,0,0
91535,-107.866306549629,4,1,0,88,0,0
91721,-108.719693747342,4,1,0,88,0,0
91908,-109.591390472924,4,1,0,88,0,0
92187,-110.918243360528,4,1,0,88,0,0
92467,-112.282551396943,4,1,0,88,0,0
92653,-113.207547169811,4,1,0,88,0,0
92932,-114.623974169245,4,1,0,88,0,0
93026,-115.109209637469,4,1,0,88,0,0
93212,-116.081565920342,4,1,0,88,0,0
93398,-117.070489625796,4,1,0,88,0,0
93678,-118.59137939034,4,1,0,88,0,0
93957,-120.146657892263,4,1,0,88,0,0
94144,-121.212121212121,4,1,0,88,0,0
94516,-115.115695136555,4,1,0,88,0,0
94889,-109.58904109589,4,1,0,88,0,0
95075,-107.026774651175,4,1,0,88,0,0
95262,-104.568741666082,4,1,0,88,0,0
95448,-102.23335277368,4,1,0,88,0,0
95634,-100,4,1,0,88,0,0
125451,-100,4,1,0,88,0,1
125510,-99.4484967087707,4,1,0,88,0,1
125572,-98.9030431705591,4,1,0,88,0,1
125634,-98.3635403836002,4,1,0,88,0,1
126007,-95.2380952380952,4,1,0,88,0,1
137376,-95.2380952380952,4,1,0,88,0,0

[HitObjects]
256,192,12159,5,0,0:0:0:0:
256,192,12438,1,8,0:0:0:0:
256,192,12532,1,0,0:0:0:0:
256,192,12718,1,8,0:0:0:0:
256,192,12904,1,0,0:0:0:0:
256,192,12997,1,0,0:0:0:0:
256,192,13091,1,8,0:0:0:0:
256,192,13277,1,0,0:0:0:0:
256,192,13463,1,8,0:0:0:0:
256,192,13556,1,8,0:0:0:0:
256,192,13650,1,0,0:0:0:0:
256,192,13836,1,8,0:0:0:0:
256,192,14022,1,0,0:0:0:0:
256,192,14147,1,0,0:0:0:0:
256,192,14271,1,8,0:0:0:0:
256,192,14395,1,0,0:0:0:0:
256,192,14519,1,8,0:0:0:0:
256,192,14643,1,8,0:0:0:0:
256,192,14768,1,0,0:0:0:0:
256,192,14954,1,8,0:0:0:0:
256,192,15140,1,0,0:0:0:0:
256,192,15233,1,8,0:0:0:0:
256,192,15420,1,8,0:0:0:0:
256,192,15513,1,0,0:0:0:0:
256,192,15699,1,8,0:0:0:0:
256,192,15886,1,0,0:0:0:0:
256,192,15979,1,0,0:0:0:0:
256,192,16072,1,0,0:0:0:0:
256,192,16258,1,8,0:0:0:0:
256,192,16383,1,0,0:0:0:0:
256,192,16507,1,0,0:0:0:0:
256,192,16631,1,8,0:0:0:0:
256,192,16817,1,0,0:0:0:0:
256,192,17004,1,8,0:0:0:0:
256,192,17128,1,8,0:0:0:0:
256,192,17252,1,8,0:0:0:0:
256,192,17376,1,0,0:0:0:0:
256,192,17563,1,0,0:0:0:0:
256,192,17749,1,8,0:0:0:0:
256,192,17935,1,8,0:0:0:0:
256,192,18122,1,0,0:0:0:0:
256,192,18401,1,8,0:0:0:0:
256,192,18494,1,0,0:0:0:0:
256,192,18681,1,8,0:0:0:0:
256,192,18867,1,0,0:0:0:0:
256,192,18960,1,0,0:0:0:0:
256,192,19053,1,8,0:0:0:0:
256,192,19147,1,8,0:0:0:0:
256,192,19240,1,0,0:0:0:0:
256,192,19426,1,8,0:0:0:0:
256,192,19519,1,0,0:0:0:0:
256,192,19612,1,8,0:0:0:0:
256,192,19799,1,0,0:0:0:0:
256,192,19985,1,8,0:0:0:0:
256,192,20109,1,0,0:0:0:0:
256,192,20233,1,0,0:0:0:0:
256,192,20358,1,8,0:0:0:0:
256,192,20482,1,8,0:0:0:0:
256,192,20606,1,8,0:0:0:0:
256,192,20730,1,0,0:0:0:0:
256,192,20917,1,8,0:0:0:0:
256,192,21103,1,0,0:0:0:0:
256,192,21196,1,8,0:0:0:0:
256,192,21383,1,8,0:0:0:0:
256,192,21476,1,0,0:0:0:0:
256,192,21662,1,8,0:0:0:0:
256,192,21848,1,0,0:0:0:0:
256,192,21942,1,0,0:0:0:0:
256,192,22035,1,0,0:0:0:0:
256,192,22221,1,8,0:0:0:0:
256,192,22345,1,8,0:0:0:0:
256,192,22470,1,0,0:0:0:0:
256,192,22594,1,0,0:0:0:0:
256,192,22780,1,8,0:0:0:0:
256,192,22966,1,0,0:0:0:0:
256,192,23091,1,8,0:0:0:0:
256,192,23215,1,8,0:0:0:0:
256,192,23339,1,0,0:0:0:0:
256,192,23525,1,0,0:0:0:0:
256,192,23712,1,8,0:0:0:0:
256,192,23898,1,8,0:0:0:0:
256,192,24084,1,0,0:0:0:0:
256,192,24147,1,0,0:0:0:0:
256,192,24209,1,0,0:0:0:0:
256,192,24271,1,0,0:0:0:0:
256,192,24643,1,8,0:0:0:0:
256,192,24737,1,0,0:0:0:0:
256,192,24830,1,8,0:0:0:0:
256,192,24923,1,0,0:0:0:0:
256,192,25109,1,0,0:0:0:0:
256,192,25202,1,8,0:0:0:0:
256,192,25296,1,8,0:0:0:0:
256,192,25389,1,0,0:0:0:0:
256,192,25575,1,8,0:0:0:0:
256,192,25761,1,0,0:0:0:0:
256,192,25855,1,8,0:0:0:0:
256,192,25948,1,0,0:0:0:0:
256,192,26134,1,8,0:0:0:0:
256,192,26320,1,0,0:0:0:0:
256,192,26445,1,0,0:0:0:0:
256,192,26569,1,0,0:0:0:0:
256,192,26693,1,8,0:0:0:0:
256,192,26879,1,8,0:0:0:0:
256,192,27066,1,0,0:0:0:0:
256,192,27252,1,8,0:0:0:0:
256,192,27345,1,8,0:0:0:0:
256,192,27438,1,0,0:0:0:0:
256,192,27625,1,8,0:0:0:0:
256,192,27811,1,0,0:0:0:0:
256,192,27904,1,8,0:0:0:0:
256,192,28091,1,8,0:0:0:0:
256,192,28184,1,0,0:0:0:0:
256,192,28277,1,0,0:0:0:0:
256,192,28370,1,8,0:0:0:0:
256,192,28556,1,0,0:0:0:0:
256,192,28743,1,8,0:0:0:0:
256,192,28836,1,0,0:0:0:0:
256,192,28929,1,8,0:0:0:0:
256,192,29022,1,8,0:0:0:0:
256,192,29115,1,0,0:0:0:0:
256,192,29302,1,8,0:0:0:0:
256,192,29488,1,0,0:0:0:0:
256,192,29581,1,0,0:0:0:0:
256,192,29674,1,8,0:0:0:0:
256,192,29861,1,8,0:0:0:0:
256,192,30047,1,0,0:0:0:0:
256,192,30140,1,8,0:0:0:0:
256,192,30327,1,8,0:0:0:0:
256,192,30420,1,0,0:0:0:0:
256,192,30606,1,0,0:0:0:0:
256,192,30699,1,0,0:0:0:0:
256,192,30793,1,8,0:0:0:0:
256,192,30886,1,0,0:0:0:0:
256,192,31072,1,0,0:0:0:0:
256,192,31165,1,8,0:0:0:0:
256,192,31258,1,8,0:0:0:0:
256,192,31352,1,0,0:0:0:0:
256,192,31445,1,0,0:0:0:0:
256,192,31538,1,8,0:0:0:0:
256,192,31724,1,0,0:0:0:0:
256,192,31817,1,8,0:0:0:0:
256,192,31911,1,0,0:0:0:0:
256,192,32097,1,8,0:0:0:0:
256,192,32283,1,0,0:0:0:0:
256,192,32407,1,0,0:0:0:0:
256,192,32532,1,0,0:0:0:0:
256,192,32656,1,8,0:0:0:0:
256,192,32842,1,8,0:0:0:0:
256,192,33029,1,0,0:0:0:0:
256,192,33215,1,8,0:0:0:0:
256,192,33308,1,8,0:0:0:0:
256,192,33401,1,0,0:0:0:0:
256,192,33494,1,0,0:0:0:0:
256,192,33588,1,8,0:0:0:0:
256,192,33774,1,0,0:0:0:0:
256,192,33867,1,8,0:0:0:0:
256,192,34053,1,8,0:0:0:0:
256,192,34147,1,0,0:0:0:0:
256,192,34240,1,0,0:0:0:0:
256,192,34333,1,8,0:0:0:0:
256,192,34519,1,0,0:0:0:0:
256,192,34612,1,0,0:0:0:0:
256,192,34706,1,8,0:0:0:0:
256,192,34799,1,0,0:0:0:0:
256,192,34892,1,8,0:0:0:0:
256,192,34985,1,8,0:0:0:0:
256,192,35078,1,0,0:0:0:0:
256,192,35265,1,8,0:0:0:0:
256,192,35451,1,0,0:0:0:0:
256,192,35544,1,0,0:0:0:0:
256,192,35637,1,8,0:0:0:0:
256,192,35824,1,8,0:0:0:0:
256,192,36010,1,4,0:0:0:0:
256,192,36383,1,8,0:0:0:0:
256,192,36476,1,8,0:0:0:0:
256,192,36569,1,0,0:0:0:0:
256,192,36755,1,8,0:0:0:0:
256,192,36848,1,0,0:0:0:0:
256,192,36942,1,8,0:0:0:0:
256,192,37128,1,8,0:0:0:0:
256,192,37221,1,8,0:0:0:0:
256,192,37314,1,0,0:0:0:0:
256,192,37501,1,8,0:0:0:0:
256,192,37594,1,8,0:0:0:0:
256,192,37687,1,8,0:0:0:0:
256,192,37873,1,0,0:0:0:0:
256,192,37966,1,0,0:0:0:0:
256,192,38060,1,8,0:0:0:0:
256,192,38246,1,0,0:0:0:0:
256,192,38339,1,8,0:0:0:0:
256,192,38432,1,0,0:0:0:0:
256,192,38619,1,0,0:0:0:0:
256,192,38712,1,0,0:0:0:0:
256,192,38805,1,8,0:0:0:0:
256,192,38991,1,8,0:0:0:0:
256,192,39084,1,8,0:0:0:0:
256,192,39178,1,0,0:0:0:0:
256,192,39364,1,8,0:0:0:0:
256,192,39457,1,0,0:0:0:0:
256,192,39550,1,0,0:0:0:0:
256,192,39737,1,8,0:0:0:0:
256,192,39830,1,8,0:0:0:0:
256,192,39923,1,0,0:0:0:0:
256,192,40109,1,8,0:0:0:0:
256,192,40202,1,8,0:0:0:0:
256,192,40296,1,8,0:0:0:0:
256,192,40482,1,0,0:0:0:0:
256,192,40575,1,0,0:0:0:0:
256,192,40668,1,8,0:0:0:0:
256,192,40855,1,8,0:0:0:0:
256,192,40948,1,8,0:0:0:0:
256,192,41041,1,0,0:0:0:0:
256,192,41227,1,8,0:0:0:0:
256,192,41320,1,0,0:0:0:0:
256,192,41414,1,8,0:0:0:0:
256,192,41600,1,0,0:0:0:0:
256,192,41693,1,0,0:0:0:0:
256,192,41786,1,8,0:0:0:0:
256,192,41879,1,8,0:0:0:0:
256,192,41973,1,0,0:0:0:0:
256,192,42718,1,8,0:0:0:0:
256,192,42904,1,0,0:0:0:0:
256,192,42997,1,8,0:0:0:0:
256,192,43091,1,0,0:0:0:0:
256,192,43277,1,8,0:0:0:0:
256,192,43463,1,0,0:0:0:0:
256,192,43556,1,8,0:0:0:0:
256,192,43743,1,8,0:0:0:0:
256,192,43836,1,0,0:0:0:0:
256,192,44022,1,8,0:0:0:0:
256,192,44209,1,0,0:0:0:0:
256,192,44302,1,0,0:0:0:0:
256,192,44395,1,0,0:0:0:0:
256,192,44488,1,0,0:0:0:0:
256,192,44581,1,8,0:0:0:0:
256,192,44768,1,0,0:0:0:0:
256,192,44954,1,8,0:0:0:0:
256,192,45047,1,0,0:0:0:0:
256,192,45233,1,0,0:0:0:0:
256,192,45327,1,8,0:0:0:0:
256,192,45513,1,0,0:0:0:0:
256,192,45699,1,8,0:0:0:0:
256,192,45793,1,8,0:0:0:0:
256,192,45886,1,0,0:0:0:0:
256,192,46072,1,8,0:0:0:0:
256,192,46165,1,0,0:0:0:0:
256,192,46258,1,8,0:0:0:0:
256,192,46352,1,8,0:0:0:0:
256,192,46445,1,0,0:0:0:0:
256,192,46631,1,8,0:0:0:0:
256,192,46817,1,8,0:0:0:0:
256,192,47004,1,0,0:0:0:0:
256,192,47190,1,8,0:0:0:0:
256,192,47283,1,8,0:0:0:0:
256,192,47376,1,8,0:0:0:0:
256,192,47563,1,0,0:0:0:0:
256,192,47749,1,8,0:0:0:0:
256,192,47935,1,0,0:0:0:0:
256,192,48215,1,0,0:0:0:0:
256,192,48494,1,0,0:0:0:0:
256,192,48681,1,8,0:0:0:0:
256,192,49053,1,4,0:0:0:0:
256,192,49240,1,4,0:0:0:0:
256,192,49426,1,4,0:0:0:0:
256,192,49612,1,8,0:0:0:0:
256,192,49706,1,0,0:0:0:0:
256,192,49892,1,8,0:0:0:0:
256,192,49985,1,0,0:0:0:0:
256,192,50171,1,8,0:0:0:0:
256,192,50358,1,0,0:0:0:0:
256,192,50451,1,0,0:0:0:0:
256,192,50544,1,8,0:0:0:0:
256,192,50730,1,8,0:0:0:0:
256,192,50917,1,0,0:0:0:0:
256,192,52594,1,8,0:0:0:0:
256,192,52687,1,0,0:0:0:0:
256,192,52780,1,8,0:0:0:0:
256,192,52966,1,0,0:0:0:0:
256,192,53060,1,0,0:0:0:0:
256,192,53153,1,8,0:0:0:0:
256,192,53246,1,8,0:0:0:0:
256,192,53339,1,0,0:0:0:0:
256,192,53525,1,8,0:0:0:0:
256,192,53619,1,8,0:0:0:0:
256,192,53712,1,8,0:0:0:0:
256,192,53898,1,0,0:0:0:0:
256,192,54084,1,8,0:0:0:0:
256,192,54178,1,0,0:0:0:0:
256,192,54364,1,8,0:0:0:0:
256,192,54457,1,0,0:0:0:0:
256,192,54643,1,8,0:0:0:0:
256,192,54830,1,0,0:0:0:0:
256,192,54923,1,0,0:0:0:0:
256,192,55016,1,8,0:0:0:0:
256,192,55202,1,0,0:0:0:0:
256,192,55389,1,8,0:0:0:0:
256,192,55482,1,0,0:0:0:0:
256,192,55668,1,0,0:0:0:0:
256,192,55761,1,8,0:0:0:0:
256,192,55948,1,0,0:0:0:0:
256,192,56134,1,8,0:0:0:0:
256,192,56227,1,0,0:0:0:0:
256,192,56320,1,8,0:0:0:0:
256,192,56414,1,8,0:0:0:0:
256,192,56507,1,0,0:0:0:0:
256,192,56693,1,8,0:0:0:0:
256,192,56879,1,0,0:0:0:0:
256,192,57004,1,0,0:0:0:0:
256,192,57128,1,0,0:0:0:0:
256,192,57252,1,8,0:0:0:0:
256,192,57438,1,0,0:0:0:0:
256,192,57625,1,8,0:0:0:0:
256,192,57718,1,0,0:0:0:0:
256,192,57904,1,0,0:0:0:0:
256,192,57997,1,8,0:0:0:0:
256,192,58091,1,8,0:0:0:0:
256,192,58184,1,0,0:0:0:0:
256,192,58370,1,0,0:0:0:0:
256,192,58463,1,8,0:0:0:0:
256,192,58650,1,8,0:0:0:0:
256,192,58743,1,0,0:0:0:0:
256,192,58836,1,0,0:0:0:0:
256,192,58929,1,8,0:0:0:0:
256,192,59115,1,0,0:0:0:0:
256,192,59209,1,8,0:0:0:0:
256,192,59302,1,0,0:0:0:0:
256,192,59395,1,0,0:0:0:0:
256,192,59488,1,8,0:0:0:0:
256,192,59581,1,0,0:0:0:0:
256,192,59674,1,8,0:0:0:0:
256,192,59768,1,8,0:0:0:0:
256,192,59861,1,0,0:0:0:0:
256,192,62842,5,0,0:0:0:0:
256,192,62935,1,8,0:0:0:0:
256,192,63122,1,8,0:0:0:0:
256,192,63215,1,0,0:0:0:0:
256,192,63401,1,8,0:0:0:0:
256,192,63588,1,0,0:0:0:0:
256,192,63681,1,0,0:0:0:0:
256,192,63774,1,0,0:0:0:0:
256,192,63960,1,8,0:0:0:0:
256,192,64084,1,0,0:0:0:0:
256,192,64209,1,0,0:0:0:0:
256,192,64333,1,8,0:0:0:0:
256,192,64519,1,0,0:0:0:0:
256,192,64706,1,8,0:0:0:0:
256,192,64830,1,8,0:0:0:0:
256,192,64954,1,8,0:0:0:0:
256,192,65078,1,0,0:0:0:0:
256,192,65265,1,0,0:0:0:0:
256,192,65451,1,8,0:0:0:0:
256,192,65637,1,8,0:0:0:0:
256,192,65824,1,0,0:0:0:0:
256,192,66103,1,8,0:0:0:0:
256,192,66196,1,0,0:0:0:0:
256,192,66383,1,8,0:0:0:0:
256,192,66569,1,0,0:0:0:0:
256,192,66662,1,0,0:0:0:0:
256,192,66755,1,8,0:0:0:0:
256,192,66848,1,8,0:0:0:0:
256,192,66942,1,0,0:0:0:0:
256,192,67128,1,8,0:0:0:0:
256,192,67221,1,0,0:0:0:0:
256,192,67314,1,8,0:0:0:0:
256,192,67501,1,0,0:0:0:0:
256,192,67687,1,8,0:0:0:0:
256,192,67811,1,0,0:0:0:0:
256,192,67935,1,0,0:0:0:0:
256,192,68060,1,8,0:0:0:0:
256,192,68184,1,8,0:0:0:0:
256,192,68308,1,8,0:0:0:0:
256,192,68432,1,0,0:0:0:0:
256,192,68619,1,8,0:0:0:0:
256,192,68805,1,0,0:0:0:0:
256,192,68898,1,8,0:0:0:0:
256,192,69084,1,8,0:0:0:0:
256,192,69178,1,0,0:0:0:0:
256,192,69364,1,8,0:0:0:0:
256,192,69550,1,0,0:0:0:0:
256,192,69643,1,0,0:0:0:0:
256,192,69737,1,0,0:0:0:0:
256,192,69923,1,8,0:0:0:0:
256,192,70047,1,8,0:0:0:0:
256,192,70171,1,0,0:0:0:0:
256,192,70296,1,0,0:0:0:0:
256,192,70482,1,8,0:0:0:0:
256,192,70668,1,0,0:0:0:0:
256,192,70793,1,8,0:0:0:0:
256,192,70917,1,8,0:0:0:0:
256,192,71041,1,0,0:0:0:0:
256,192,71227,1,0,0:0:0:0:
256,192,71414,1,8,0:0:0:0:
256,192,71600,1,8,0:0:0:0:
256,192,71786,1,0,0:0:0:0:
256,192,71848,1,0,0:0:0:0:
256,192,71911,1,0,0:0:0:0:
256,192,71973,1,0,0:0:0:0:
256,192,72345,1,8,0:0:0:0:
256,192,72438,1,0,0:0:0:0:
256,192,72532,1,8,0:0:0:0:
256,192,72625,1,0,0:0:0:0:
256,192,72811,1,0,0:0:0:0:
256,192,72904,1,8,0:0:0:0:
256,192,72997,1,8,0:0:0:0:
256,192,73091,1,0,0:0:0:0:
256,192,73277,1,8,0:0:0:0:
256,192,73463,1,0,0:0:0:0:
256,192,73556,1,8,0:0:0:0:
256,192,73650,1,0,0:0:0:0:
256,192,73836,1,8,0:0:0:0:
256,192,74022,1,0,0:0:0:0:
256,192,74147,1,0,0:0:0:0:
256,192,74271,1,0,0:0:0:0:
256,192,74395,1,8,0:0:0:0:
256,192,74581,1,8,0:0:0:0:
256,192,74768,1,0,0:0:0:0:
256,192,74954,1,8,0:0:0:0:
256,192,75047,1,8,0:0:0:0:
256,192,75140,1,0,0:0:0:0:
256,192,75327,1,8,0:0:0:0:
256,192,75513,1,0,0:0:0:0:
256,192,75606,1,8,0:0:0:0:
256,192,75793,1,8,0:0:0:0:
256,192,75886,1,0,0:0:0:0:
256,192,75979,1,0,0:0:0:0:
256,192,76072,1,8,0:0:0:0:
256,192,76258,1,0,0:0:0:0:
256,192,76445,1,8,0:0:0:0:
256,192,76538,1,0,0:0:0:0:
256,192,76631,1,8,0:0:0:0:
256,192,76724,1,8,0:0:0:0:
256,192,76817,1,0,0:0:0:0:
256,192,77004,1,8,0:0:0:0:
256,192,77190,1,0,0:0:0:0:
256,192,77283,1,0,0:0:0:0:
256,192,77376,1,8,0:0:0:0:
256,192,77563,1,8,0:0:0:0:
256,192,77749,1,0,0:0:0:0:
256,192,77842,1,8,0:0:0:0:
256,192,78029,1,8,0:0:0:0:
256,192,78122,1,0,0:0:0:0:
256,192,78308,1,0,0:0:0:0:
256,192,78401,1,0,0:0:0:0:
256,192,78494,1,8,0:0:0:0:
256,192,78588,1,0,0:0:0:0:
256,192,78774,1,0,0:0:0:0:
256,192,78867,1,8,0:0:0:0:
256,192,78960,1,8,0:0:0:0:
256,192,79053,1,0,0:0:0:0:
256,192,79147,1,0,0:0:0:0:
256,192,79240,1,8,0:0:0:0:
256,192,79426,1,0,0:0:0:0:
256,192,79519,1,8,0:0:0:0:
256,192,79612,1,0,0:0:0:0:
256,192,79799,1,8,0:0:0:0:
256,192,79985,1,0,0:0:0:0:
256,192,80109,1,0,0:0:0:0:
256,192,80233,1,0,0:0:0:0:
256,192,80358,1,8,0:0:0:0:
256,192,80544,1,8,0:0:0:0:
256,192,80730,1,0,0:0:0:0:
256,192,80917,1,8,0:0:0:0:
256,192,81010,1,8,0:0:0:0:
256,192,81103,1,0,0:0:0:0:
256,192,81196,1,0,0:0:0:0:
256,192,81289,1,8,0:0:0:0:
256,192,81476,1,0,0:0:0:0:
256,192,81569,1,8,0:0:0:0:
256,192,81755,1,8,0:0:0:0:
256,192,81848,1,0,0:0:0:0:
256,192,81942,1,0,0:0:0:0:
256,192,82035,1,8,0:0:0:0:
256,192,82221,1,0,0:0:0:0:
256,192,82314,1,0,0:0:0:0:
256,192,82407,1,8,0:0:0:0:
256,192,82501,1,0,0:0:0:0:
256,192,82594,1,8,0:0:0:0:
256,192,82687,1,8,0:0:0:0:
256,192,82780,1,0,0:0:0:0:
256,192,82966,1,8,0:0:0:0:
256,192,83153,1,0,0:0:0:0:
256,192,83246,1,0,0:0:0:0:
256,192,83339,1,8,0:0:0:0:
256,192,83525,1,8,0:0:0:0:
256,192,83712,1,4,0:0:0:0:
256,192,83991,1,8,0:0:0:0:
256,192,84084,1,0,0:0:0:0:
256,192,84271,1,8,0:0:0:0:
256,192,84457,1,0,0:0:0:0:
256,192,84550,1,8,0:0:0:0:
256,192,84737,1,8,0:0:0:0:
256,192,84830,1,0,0:0:0:0:
256,192,84923,1,0,0:0:0:0:
256,192,85016,1,8,0:0:0:0:
256,192,85202,1,0,0:0:0:0:
256,192,85389,1,8,0:0:0:0:
256,192,85482,1,8,0:0:0:0:
256,192,85575,1,0,0:0:0:0:
256,192,85761,1,8,0:0:0:0:
256,192,85948,1,0,0:0:0:0:
256,192,86041,1,8,0:0:0:0:
256,192,86134,1,0,0:0:0:0:
256,192,86227,1,0,0:0:0:0:
256,192,86320,1,8,0:0:0:0:
256,192,86507,1,8,0:0:0:0:
256,192,86693,1,0,0:0:0:0:
256,192,86973,1,8,0:0:0:0:
256,192,87066,1,0,0:0:0:0:
256,192,87252,1,8,0:0:0:0:
256,192,87438,1,0,0:0:0:0:
256,192,87532,1,8,0:0:0:0:
256,192,87718,1,0,0:0:0:0:
256,192,87811,1,0,0:0:0:0:
256,192,87904,1,8,0:0:0:0:
256,192,87997,1,8,0:0:0:0:
256,192,88184,1,0,0:0:0:0:
256,192,88370,1,8,0:0:0:0:
256,192,88463,1,0,0:0:0:0:
256,192,88556,1,8,0:0:0:0:
256,192,88743,1,0,0:0:0:0:
256,192,88836,1,8,0:0:0:0:
256,192,88929,1,8,0:0:0:0:
256,192,89022,1,8,0:0:0:0:
256,192,89115,1,0,0:0:0:0:
256,192,89209,1,0,0:0:0:0:
256,192,89302,1,8,0:0:0:0:
256,192,89488,1,8,0:0:0:0:
256,192,89674,1,0,0:0:0:0:
256,192,89954,1,8,0:0:0:0:
256,192,90047,1,0,0:0:0:0:
256,192,90233,1,0,0:0:0:0:
256,192,90420,1,8,0:0:0:0:
256,192,90699,1,8,0:0:0:0:
256,192,90979,1,8,0:0:0:0:
256,192,91165,1,0,0:0:0:0:
256,192,91445,1,8,0:0:0:0:
256,192,91538,1,0,0:0:0:0:
256,192,91724,1,8,0:0:0:0:
256,192,91911,1,0,0:0:0:0:
256,192,92190,1,8,0:0:0:0:
256,192,92470,1,8,0:0:0:0:
256,192,92656,1,0,0:0:0:0:
256,192,92935,1,8,0:0:0:0:
256,192,93029,1,0,0:0:0:0:
256,192,93215,1,0,0:0:0:0:
256,192,93401,1,8,0:0:0:0:
256,192,93681,1,8,0:0:0:0:
256,192,93960,1,8,0:0:0:0:
256,192,94147,1,0,0:0:0:0:
256,192,94519,1,0,0:0:0:0:
256,192,94892,1,0,0:0:0:0:
256,192,95078,1,0,0:0:0:0:
256,192,95265,1,0,0:0:0:0:
256,192,95451,1,0,0:0:0:0:
256,192,95637,1,4,0:0:0:0:
256,192,95824,1,8,0:0:0:0:
256,192,95917,1,8,0:0:0:0:
256,192,96010,1,0,0:0:0:0:
256,192,96103,1,0,0:0:0:0:
256,192,96196,1,8,0:0:0:0:
256,192,96383,1,0,0:0:0:0:
256,192,96476,1,8,0:0:0:0:
256,192,96569,1,0,0:0:0:0:
256,192,96662,1,0,0:0:0:0:
256,192,96755,1,8,0:0:0:0:
256,192,96942,1,8,0:0:0:0:
256,192,97128,1,0,0:0:0:0:
256,192,97221,1,0,0:0:0:0:
256,192,97314,1,8,0:0:0:0:
256,192,97501,1,8,0:0:0:0:
256,192,97594,1,8,0:0:0:0:
256,192,97687,1,0,0:0:0:0:
256,192,97873,1,8,0:0:0:0:
256,192,97966,1,0,0:0:0:0:
256,192,98060,1,0,0:0:0:0:
256,192,98153,1,8,0:0:0:0:
256,192,98246,1,0,0:0:0:0:
256,192,98339,1,0,0:0:0:0:
256,192,98432,1,8,0:0:0:0:
256,192,98525,1,8,0:0:0:0:
256,192,98619,1,0,0:0:0:0:
256,192,98805,1,8,0:0:0:0:
256,192,98898,1,0,0:0:0:0:
256,192,98991,1,0,0:0:0:0:
256,192,99084,1,0,0:0:0:0:
256,192,99178,1,8,0:0:0:0:
256,192,99364,1,0,0:0:0:0:
256,192,99488,1,8,0:0:0:0:
256,192,99612,1,8,0:0:0:0:
256,192,99737,1,0,0:0:0:0:
256,192,99923,1,8,0:0:0:0:
256,192,100109,1,0,0:0:0:0:
256,192,100202,1,0,0:0:0:0:
256,192,100296,1,0,0:0:0:0:
256,192,100482,1,8,0:0:0:0:
256,192,100575,1,0,0:0:0:0:
256,192,100668,1,8,0:0:0:0:
256,192,100855,1,8,0:0:0:0:
256,192,100948,1,8,0:0:0:0:
256,192,101041,1,8,0:0:0:0:
256,192,101134,1,8,0:0:0:0:
256,192,101227,1,0,0:0:0:0:
256,192,101414,1,8,0:0:0:0:
256,192,101600,1,4,0:0:0:0:
256,192,101879,1,8,0:0:0:0:
256,192,101973,1,0,0:0:0:0:
256,192,102159,1,8,0:0:0:0:
256,192,102345,1,0,0:0:0:0:
256,192,102438,1,8,0:0:0:0:
256,192,102625,1,8,0:0:0:0:
256,192,102718,1,0,0:0:0:0:
256,192,102811,1,0,0:0:0:0:
256,192,102904,1,8,0:0:0:0:
256,192,103091,1,0,0:0:0:0:
256,192,103277,1,8,0:0:0:0:
256,192,103370,1,8,0:0:0:0:
256,192,103463,1,0,0:0:0:0:
256,192,103650,1,8,0:0:0:0:
256,192,103836,1,0,0:0:0:0:
256,192,103929,1,8,0:0:0:0:
256,192,104022,1,0,0:0:0:0:
256,192,104115,1,0,0:0:0:0:
256,192,104209,1,8,0:0:0:0:
256,192,104395,1,8,0:0:0:0:
256,192,104581,1,0,0:0:0:0:
256,192,104674,1,8,0:0:0:0:
256,192,104861,1,8,0:0:0:0:
256,192,104954,1,0,0:0:0:0:
256,192,105140,1,8,0:0:0:0:
256,192,105327,1,0,0:0:0:0:
256,192,105420,1,8,0:0:0:0:
256,192,105606,1,0,0:0:0:0:
256,192,105699,1,0,0:0:0:0:
256,192,105793,1,8,0:0:0:0:
256,192,105886,1,8,0:0:0:0:
256,192,106072,1,0,0:0:0:0:
256,192,106258,1,8,0:0:0:0:
256,192,106352,1,0,0:0:0:0:
256,192,106445,1,8,0:0:0:0:
256,192,106631,1,8,0:0:0:0:
256,192,106724,1,8,0:0:0:0:
256,192,106817,1,0,0:0:0:0:
256,192,106911,1,8,0:0:0:0:
256,192,107004,1,0,0:0:0:0:
256,192,107097,1,0,0:0:0:0:
256,192,107190,1,8,0:0:0:0:
256,192,107376,1,8,0:0:0:0:
256,192,107563,1,0,0:0:0:0:
256,192,107842,1,8,0:0:0:0:
256,192,107935,1,0,0:0:0:0:
256,192,108122,1,8,0:0:0:0:
256,192,108308,1,0,0:0:0:0:
256,192,108401,1,8,0:0:0:0:
256,192,108588,1,8,0:0:0:0:
256,192,108681,1,0,0:0:0:0:
256,192,108774,1,0,0:0:0:0:
256,192,108867,1,8,0:0:0:0:
256,192,109053,1,0,0:0:0:0:
256,192,109240,1,8,0:0:0:0:
256,192,109333,1,8,0:0:0:0:
256,192,109426,1,0,0:0:0:0:
256,192,109612,1,8,0:0:0:0:
256,192,109799,1,0,0:0:0:0:
256,192,109892,1,8,0:0:0:0:
256,192,109985,1,0,0:0:0:0:
256,192,110078,1,0,0:0:0:0:
256,192,110171,1,8,0:0:0:0:
256,192,110358,1,8,0:0:0:0:
256,192,110544,1,0,0:0:0:0:
256,192,110637,1,8,0:0:0:0:
256,192,110824,1,8,0:0:0:0:
256,192,110917,1,0,0:0:0:0:
256,192,111103,1,8,0:0:0:0:
256,192,111289,1,0,0:0:0:0:
256,192,111383,1,8,0:0:0:0:
256,192,111569,1,0,0:0:0:0:
256,192,111662,1,0,0:0:0:0:
256,192,111755,1,8,0:0:0:0:
256,192,111848,1,8,0:0:0:0:
256,192,112035,1,0,0:0:0:0:
256,192,112221,1,8,0:0:0:0:
256,192,112314,1,0,0:0:0:0:
256,192,112407,1,8,0:0:0:0:
256,192,112594,1,0,0:0:0:0:
256,192,112780,1,8,0:0:0:0:
256,192,112873,1,8,0:0:0:0:
256,192,112966,1,0,0:0:0:0:
256,192,113060,1,0,0:0:0:0:
256,192,113153,1,8,0:0:0:0:
256,192,113246,1,8,0:0:0:0:
256,192,113339,1,8,0:0:0:0:
256,192,113432,1,8,0:0:0:0:
256,192,113525,1,0,0:0:0:0:
256,192,116507,5,0,0:0:0:0:
256,192,116600,1,8,0:0:0:0:
256,192,116786,1,8,0:0:0:0:
256,192,116879,1,0,0:0:0:0:
256,192,117066,1,8,0:0:0:0:
256,192,117252,1,0,0:0:0:0:
256,192,117345,1,0,0:0:0:0:
256,192,117438,1,0,0:0:0:0:
256,192,117625,1,8,0:0:0:0:
256,192,117749,1,0,0:0:0:0:
256,192,117873,1,0,0:0:0:0:
256,192,117997,1,8,0:0:0:0:
256,192,118184,1,0,0:0:0:0:
256,192,118370,1,8,0:0:0:0:
256,192,118494,1,8,0:0:0:0:
256,192,118619,1,8,0:0:0:0:
256,192,118743,1,0,0:0:0:0:
256,192,118929,1,0,0:0:0:0:
256,192,119115,1,8,0:0:0:0:
256,192,119302,1,8,0:0:0:0:
256,192,119488,1,0,0:0:0:0:
256,192,119768,1,8,0:0:0:0:
256,192,119861,1,0,0:0:0:0:
256,192,120047,1,8,0:0:0:0:
256,192,120233,1,0,0:0:0:0:
256,192,120327,1,0,0:0:0:0:
256,192,120420,1,8,0:0:0:0:
256,192,120513,1,8,0:0:0:0:
256,192,120606,1,0,0:0:0:0:
256,192,120793,1,8,0:0:0:0:
256,192,120886,1,0,0:0:0:0:
256,192,120979,1,8,0:0:0:0:
256,192,121165,1,0,0:0:0:0:
256,192,121352,1,8,0:0:0:0:
256,192,121476,1,0,0:0:0:0:
256,192,121600,1,0,0:0:0:0:
256,192,121724,1,8,0:0:0:0:
256,192,121848,1,8,0:0:0:0:
256,192,121973,1,8,0:0:0:0:
256,192,122097,1,0,0:0:0:0:
256,192,122283,1,8,0:0:0:0:
256,192,122470,1,0,0:0:0:0:
256,192,122563,1,8,0:0:0:0:
256,192,122749,1,8,0:0:0:0:
256,192,122842,1,0,0:0:0:0:
256,192,123029,1,8,0:0:0:0:
256,192,123215,1,0,0:0:0:0:
256,192,123308,1,0,0:0:0:0:
256,192,123401,1,0,0:0:0:0:
256,192,123588,1,8,0:0:0:0:
256,192,123712,1,8,0:0:0:0:
256,192,123836,1,0,0:0:0:0:
256,192,123960,1,0,0:0:0:0:
256,192,124147,1,8,0:0:0:0:
256,192,124333,1,0,0:0:0:0:
256,192,124457,1,8,0:0:0:0:
256,192,124581,1,8,0:0:0:0:
256,192,124706,1,0,0:0:0:0:
256,192,124892,1,0,0:0:0:0:
256,192,125078,1,8,0:0:0:0:
256,192,125265,1,8,0:0:0:0:
256,192,125451,1,0,0:0:0:0:
256,192,125513,1,0,0:0:0:0:
256,192,125575,1,0,0:0:0:0:
256,192,125637,1,0,0:0:0:0:
256,192,126010,1,8,0:0:0:0:
256,192,126103,1,0,0:0:0:0:
256,192,126196,1,8,0:0:0:0:
256,192,126289,1,0,0:0:0:0:
256,192,126476,1,0,0:0:0:0:
256,192,126569,1,8,0:0:0:0:
256,192,126662,1,8,0:0:0:0:
256,192,126755,1,0,0:0:0:0:
256,192,126942,1,8,0:0:0:0:
256,192,127128,1,0,0:0:0:0:
256,192,127221,1,8,0:0:0:0:
256,192,127314,1,0,0:0:0:0:
256,192,127501,1,8,0:0:0:0:
256,192,127687,1,0,0:0:0:0:
256,192,127811,1,0,0:0:0:0:
256,192,127935,1,0,0:0:0:0:
256,192,128060,1,8,0:0:0:0:
256,192,128246,1,8,0:0:0:0:
256,192,128432,1,0,0:0:0:0:
256,192,128619,1,8,0:0:0:0:
256,192,128712,1,8,0:0:0:0:
256,192,128805,1,0,0:0:0:0:
256,192,128991,1,8,0:0:0:0:
256,192,129178,1,0,0:0:0:0:
256,192,129271,1,8,0:0:0:0:
256,192,129457,1,8,0:0:0:0:
256,192,129550,1,0,0:0:0:0:
256,192,129643,1,0,0:0:0:0:
256,192,129737,1,8,0:0:0:0:
256,192,129923,1,0,0:0:0:0:
256,192,130109,1,8,0:0:0:0:
256,192,130202,1,0,0:0:0:0:
256,192,130296,1,8,0:0:0:0:
256,192,130389,1,8,0:0:0:0:
256,192,130482,1,0,0:0:0:0:
256,192,130668,1,8,0:0:0:0:
256,192,130855,1,0,0:0:0:0:
256,192,130948,1,0,0:0:0:0:
256,192,131041,1,8,0:0:0:0:
256,192,131227,1,8,0:0:0:0:
256,192,131414,1,0,0:0:0:0:
256,192,131507,1,8,0:0:0:0:
256,192,131693,1,8,0:0:0:0:
256,192,131786,1,0,0:0:0:0:
256,192,131973,1,0,0:0:0:0:
256,192,132066,1,0,0:0:0:0:
256,192,132159,1,8,0:0:0:0:
256,192,132252,1,0,0:0:0:0:
256,192,132438,1,0,0:0:0:0:
256,192,132532,1,8,0:0:0:0:
256,192,132625,1,8,0:0:0:0:
256,192,132718,1,0,0:0:0:0:
256,192,132811,1,0,0:0:0:0:
256,192,132904,1,8,0:0:0:0:
256,192,133091,1,0,0:0:0:0:
256,192,133184,1,8,0:0:0:0:
256,192,133277,1,0,0:0:0:0:
256,192,133463,1,8,0:0:0:0:
256,192,133650,1,0,0:0:0:0:
256,192,133774,1,0,0:0:0:0:
256,192,133898,1,0,0:0:0:0:
256,192,134022,1,8,0:0:0:0:
256,192,134209,1,8,0:0:0:0:
256,192,134395,1,0,0:0:0:0:
256,192,134581,1,8,0:0:0:0:
256,192,134674,1,8,0:0:0:0:
256,192,134768,1,0,0:0:0:0:
256,192,134861,1,0,0:0:0:0:
256,192,134954,1,8,0:0:0:0:
256,192,135140,1,0,0:0:0:0:
256,192,135233,1,8,0:0:0:0:
256,192,135420,1,8,0:0:0:0:
256,192,135513,1,0,0:0:0:0:
256,192,135606,1,0,0:0:0:0:
256,192,135699,1,8,0:0:0:0:
256,192,135886,1,0,0:0:0:0:
256,192,135979,1,0,0:0:0:0:
256,192,136072,1,8,0:0:0:0:
256,192,136165,1,0,0:0:0:0:
256,192,136258,1,8,0:0:0:0:
256,192,136352,1,8,0:0:0:0:
256,192,136445,1,0,0:0:0:0:
256,192,136631,1,8,0:0:0:0:
256,192,136817,1,0,0:0:0:0:
256,192,136911,1,0,0:0:0:0:
256,192,137004,1,8,0:0:0:0:
256,192,137190,1,8,0:0:0:0:
256,192,137376,1,4,0:0:0:0:
