osu file format v14

[General]
AudioFilename: audio.mp3
AudioLeadIn: 0
PreviewTime: 60575
Countdown: 0
SampleSet: Normal
StackLeniency: 0
Mode: 1
LetterboxInBreaks: 0
WidescreenStoryboard: 0

[Editor]
Bookmarks: 12159,36010,59861,83712,113525,137376
DistanceSpacing: 1.1
BeatDivisor: 2
GridSize: 32
TimelineZoom: 2.15

[Metadata]
Title:2 Germans
TitleUnicode:2 Germans
Artist:Luciano, Gzuz
ArtistUnicode:Luciano, Gzuz
Creator:Genjuro
Version:Futsuu
Source:
Tags:german deutsch hip hop hiphop hip-hop rap deutschrap liku the law the_law greenshell homielove locosquad madein2k
BeatmapID:4454785
BeatmapSetID:2085698

[Difficulty]
HPDrainRate:7
CircleSize:2
OverallDifficulty:4
ApproachRate:10
SliderMultiplier:1.4
SliderTickRate:1

[Events]
//Background and Video events
0,0,"bg.jpg",0,60
//Break Periods
//Storyboard Layer 0 (Background)
//Storyboard Layer 1 (Fail)
//Storyboard Layer 2 (Pass)
//Storyboard Layer 3 (Foreground)
//Storyboard Layer 4 (Overlay)
//Storyboard Sound Samples

[TimingPoints]
234,372.670807453416,4,1,0,50,1,0
234,-100,4,1,0,50,0,0
12066,-100,4,1,0,88,0,0
24084,-100,4,1,0,88,0,1
36010,-100,4,1,0,88,0,0
71786,-100,4,1,0,88,0,1
83712,-100,4,1,0,88,0,0
125451,-100,4,1,0,88,0,1
137376,-100,4,1,0,88,0,0

[HitObjects]
256,192,12159,5,0,0:0:0:0:
256,192,12904,1,8,0:0:0:0:
256,192,13091,1,8,0:0:0:0:
256,192,13277,1,0,0:0:0:0:
256,192,13650,1,8,0:0:0:0:
256,192,14022,1,0,0:0:0:0:
256,192,14209,1,8,0:0:0:0:
256,192,14395,1,0,0:0:0:0:
256,192,14581,1,0,0:0:0:0:
256,192,14768,1,8,0:0:0:0:
256,192,15140,1,0,0:0:0:0:
256,192,15513,1,0,0:0:0:0:
256,192,15886,1,8,0:0:0:0:
256,192,16072,1,0,0:0:0:0:
256,192,16445,1,0,0:0:0:0:
256,192,16631,1,8,0:0:0:0:
256,192,17004,1,0,0:0:0:0:
256,192,17376,1,8,0:0:0:0:
256,192,17563,1,8,0:0:0:0:
256,192,17749,1,8,0:0:0:0:
256,192,18122,1,0,0:0:0:0:
256,192,18494,1,0,0:0:0:0:
256,192,18867,1,8,0:0:0:0:
256,192,19053,1,8,0:0:0:0:
256,192,19240,1,0,0:0:0:0:
256,192,19612,1,8,0:0:0:0:
256,192,19985,1,0,0:0:0:0:
256,192,20171,1,8,0:0:0:0:
256,192,20358,1,0,0:0:0:0:
256,192,20544,1,0,0:0:0:0:
256,192,20730,1,8,0:0:0:0:
256,192,21103,1,0,0:0:0:0:
256,192,21848,1,8,0:0:0:0:
256,192,22035,1,0,0:0:0:0:
256,192,22407,1,0,0:0:0:0:
256,192,22594,1,8,0:0:0:0:
256,192,22966,1,0,0:0:0:0:
256,192,23339,1,8,0:0:0:0:
256,192,23525,1,8,0:0:0:0:
256,192,23712,1,8,0:0:0:0:
256,192,24084,1,4,0:0:0:0:
256,192,24643,1,8,0:0:0:0:
256,192,24830,1,0,0:0:0:0:
256,192,25016,1,0,0:0:0:0:
256,192,25202,1,8,0:0:0:0:
256,192,25575,1,0,0:0:0:0:
256,192,26320,1,0,0:0:0:0:
256,192,26507,1,0,0:0:0:0:
256,192,26693,1,8,0:0:0:0:
256,192,27066,1,0,0:0:0:0:
256,192,27625,1,8,0:0:0:0:
256,192,27811,1,0,0:0:0:0:
256,192,27997,1,0,0:0:0:0:
256,192,28184,1,8,0:0:0:0:
256,192,28556,1,0,0:0:0:0:
256,192,28929,1,8,0:0:0:0:
256,192,29115,1,8,0:0:0:0:
256,192,29302,1,0,0:0:0:0:
256,192,29488,1,0,0:0:0:0:
256,192,29674,1,8,0:0:0:0:
256,192,30047,1,0,0:0:0:0:
256,192,30606,1,8,0:0:0:0:
256,192,30793,1,0,0:0:0:0:
256,192,30979,1,0,0:0:0:0:
256,192,31165,1,8,0:0:0:0:
256,192,31538,1,0,0:0:0:0:
256,192,32283,1,0,0:0:0:0:
256,192,32470,1,0,0:0:0:0:
256,192,32656,1,8,0:0:0:0:
256,192,33029,1,0,0:0:0:0:
256,192,33588,1,8,0:0:0:0:
256,192,33774,1,0,0:0:0:0:
256,192,33960,1,0,0:0:0:0:
256,192,34147,1,8,0:0:0:0:
256,192,34519,1,0,0:0:0:0:
256,192,34892,1,8,0:0:0:0:
256,192,35078,1,8,0:0:0:0:
256,192,35265,1,0,0:0:0:0:
256,192,35451,1,0,0:0:0:0:
256,192,35637,1,8,0:0:0:0:
256,192,36010,1,4,0:0:0:0:
256,192,36755,1,8,0:0:0:0:
256,192,37128,1,0,0:0:0:0:
256,192,37501,1,8,0:0:0:0:
256,192,37687,1,0,0:0:0:0:
256,192,37873,1,8,0:0:0:0:
256,192,38246,1,0,0:0:0:0:
256,192,38619,1,8,0:0:0:0:
256,192,38805,1,0,0:0:0:0:
256,192,38991,1,8,0:0:0:0:
256,192,39178,1,8,0:0:0:0:
256,192,39364,1,0,0:0:0:0:
256,192,39737,1,8,0:0:0:0:
256,192,40109,1,0,0:0:0:0:
256,192,40296,1,8,0:0:0:0:
256,192,40668,1,8,0:0:0:0:
256,192,40855,1,8,0:0:0:0:
256,192,41041,1,0,0:0:0:0:
256,192,41227,1,0,0:0:0:0:
256,192,41600,1,8,0:0:0:0:
256,192,41973,1,0,0:0:0:0:
256,192,42718,1,8,0:0:0:0:
256,192,43463,1,0,0:0:0:0:
256,192,43650,1,0,0:0:0:0:
256,192,43836,1,8,0:0:0:0:
256,192,44209,1,0,0:0:0:0:
256,192,44581,1,8,0:0:0:0:
256,192,44768,1,0,0:0:0:0:
256,192,44954,1,8,0:0:0:0:
256,192,45140,1,8,0:0:0:0:
256,192,45327,1,0,0:0:0:0:
256,192,45699,1,8,0:0:0:0:
256,192,46072,1,0,0:0:0:0:
256,192,46258,1,8,0:0:0:0:
256,192,46631,1,8,0:0:0:0:
256,192,46817,1,8,0:0:0:0:
256,192,47004,1,0,0:0:0:0:
256,192,47190,1,0,0:0:0:0:
256,192,47563,1,8,0:0:0:0:
256,192,47935,1,0,0:0:0:0:
256,192,49053,1,4,0:0:0:0:
256,192,49240,1,4,0:0:0:0:
256,192,49426,1,4,0:0:0:0:
256,192,50171,1,0,0:0:0:0:
256,192,50544,1,8,0:0:0:0:
256,192,50917,1,0,0:0:0:0:
256,192,52594,1,8,0:0:0:0:
256,192,52780,1,8,0:0:0:0:
256,192,52966,1,0,0:0:0:0:
256,192,53153,1,0,0:0:0:0:
256,192,53525,1,8,0:0:0:0:
256,192,53898,1,0,0:0:0:0:
256,192,54643,1,8,0:0:0:0:
256,192,55389,1,0,0:0:0:0:
256,192,55575,1,0,0:0:0:0:
256,192,55761,1,8,0:0:0:0:
256,192,56134,1,0,0:0:0:0:
256,192,56507,1,8,0:0:0:0:
256,192,56693,1,8,0:0:0:0:
256,192,56879,1,0,0:0:0:0:
256,192,57252,1,0,0:0:0:0:
256,192,57625,1,8,0:0:0:0:
256,192,57997,1,0,0:0:0:0:
256,192,58184,1,8,0:0:0:0:
256,192,58556,1,8,0:0:0:0:
256,192,58743,1,8,0:0:0:0:
256,192,58929,1,0,0:0:0:0:
256,192,59115,1,0,0:0:0:0:
256,192,59488,1,8,0:0:0:0:
256,192,59861,1,0,0:0:0:0:
256,192,62842,5,0,0:0:0:0:
256,192,63215,1,0,0:0:0:0:
256,192,63588,1,8,0:0:0:0:
256,192,63774,1,0,0:0:0:0:
256,192,64147,1,0,0:0:0:0:
256,192,64333,1,8,0:0:0:0:
256,192,64706,1,0,0:0:0:0:
256,192,65078,1,8,0:0:0:0:
256,192,65265,1,8,0:0:0:0:
256,192,65451,1,8,0:0:0:0:
256,192,65824,1,0,0:0:0:0:
256,192,66196,1,0,0:0:0:0:
256,192,66569,1,8,0:0:0:0:
256,192,66755,1,8,0:0:0:0:
256,192,66942,1,0,0:0:0:0:
256,192,67314,1,8,0:0:0:0:
256,192,67687,1,0,0:0:0:0:
256,192,67873,1,8,0:0:0:0:
256,192,68060,1,0,0:0:0:0:
256,192,68246,1,0,0:0:0:0:
256,192,68432,1,8,0:0:0:0:
256,192,68805,1,0,0:0:0:0:
256,192,69550,1,8,0:0:0:0:
256,192,69737,1,0,0:0:0:0:
256,192,70109,1,0,0:0:0:0:
256,192,70296,1,8,0:0:0:0:
256,192,70668,1,0,0:0:0:0:
256,192,71041,1,8,0:0:0:0:
256,192,71227,1,8,0:0:0:0:
256,192,71414,1,8,0:0:0:0:
256,192,71786,1,4,0:0:0:0:
256,192,72345,1,8,0:0:0:0:
256,192,72532,1,0,0:0:0:0:
256,192,72718,1,0,0:0:0:0:
256,192,72904,1,8,0:0:0:0:
256,192,73277,1,0,0:0:0:0:
256,192,74022,1,0,0:0:0:0:
256,192,74209,1,0,0:0:0:0:
256,192,74395,1,8,0:0:0:0:
256,192,74768,1,0,0:0:0:0:
256,192,75327,1,8,0:0:0:0:
256,192,75513,1,0,0:0:0:0:
256,192,75699,1,0,0:0:0:0:
256,192,75886,1,8,0:0:0:0:
256,192,76258,1,0,0:0:0:0:
256,192,76631,1,8,0:0:0:0:
256,192,76817,1,8,0:0:0:0:
256,192,77004,1,0,0:0:0:0:
256,192,77190,1,0,0:0:0:0:
256,192,77376,1,8,0:0:0:0:
256,192,77749,1,0,0:0:0:0:
256,192,78308,1,8,0:0:0:0:
256,192,78494,1,0,0:0:0:0:
256,192,78681,1,0,0:0:0:0:
256,192,78867,1,8,0:0:0:0:
256,192,79240,1,0,0:0:0:0:
256,192,79985,1,0,0:0:0:0:
256,192,80171,1,0,0:0:0:0:
256,192,80358,1,8,0:0:0:0:
256,192,80730,1,0,0:0:0:0:
256,192,81289,1,8,0:0:0:0:
256,192,81476,1,0,0:0:0:0:
256,192,81662,1,0,0:0:0:0:
256,192,81848,1,8,0:0:0:0:
256,192,82221,1,0,0:0:0:0:
256,192,82594,1,8,0:0:0:0:
256,192,82780,1,8,0:0:0:0:
256,192,82966,1,0,0:0:0:0:
256,192,83153,1,0,0:0:0:0:
256,192,83339,1,8,0:0:0:0:
256,192,83712,1,4,0:0:0:0:
256,192,84457,1,8,0:0:0:0:
256,192,84830,1,0,0:0:0:0:
256,192,85016,1,8,0:0:0:0:
256,192,85202,1,0,0:0:0:0:
256,192,85575,1,8,0:0:0:0:
256,192,85761,1,0,0:0:0:0:
256,192,85948,1,0,0:0:0:0:
256,192,86134,1,0,0:0:0:0:
256,192,86320,1,8,0:0:0:0:
256,192,86693,1,0,0:0:0:0:
256,192,87066,1,0,0:0:0:0:
256,192,87252,1,0,0:0:0:0:
256,192,87438,1,8,0:0:0:0:
256,192,87811,1,0,0:0:0:0:
256,192,87997,1,8,0:0:0:0:
256,192,88184,1,0,0:0:0:0:
256,192,88370,1,8,0:0:0:0:
256,192,88556,1,0,0:0:0:0:
256,192,88929,1,8,0:0:0:0:
256,192,89674,1,0,0:0:0:0:
256,192,90047,1,0,0:0:0:0:
256,192,90420,1,0,0:0:0:0:
256,192,90979,1,0,0:0:0:0:
256,192,91165,1,0,0:0:0:0:
256,192,91538,1,0,0:0:0:0:
256,192,91911,1,0,0:0:0:0:
256,192,92470,1,0,0:0:0:0:
256,192,92656,1,0,0:0:0:0:
256,192,93029,1,0,0:0:0:0:
256,192,93401,1,0,0:0:0:0:
256,192,93960,1,0,0:0:0:0:
256,192,94147,1,0,0:0:0:0:
256,192,94519,1,0,0:0:0:0:
256,192,94892,1,0,0:0:0:0:
256,192,95078,1,0,0:0:0:0:
256,192,95265,1,0,0:0:0:0:
256,192,95637,1,4,0:0:0:0:
256,192,96383,1,8,0:0:0:0:
256,192,96569,1,0,0:0:0:0:
256,192,96755,1,8,0:0:0:0:
256,192,96942,1,8,0:0:0:0:
256,192,97128,1,0,0:0:0:0:
256,192,97501,1,8,0:0:0:0:
256,192,97873,1,0,0:0:0:0:
256,192,98060,1,0,0:0:0:0:
256,192,98246,1,8,0:0:0:0:
256,192,98432,1,8,0:0:0:0:
256,192,98619,1,0,0:0:0:0:
256,192,98991,1,8,0:0:0:0:
256,192,99364,1,0,0:0:0:0:
256,192,99550,1,0,0:0:0:0:
256,192,99737,1,8,0:0:0:0:
256,192,100109,1,0,0:0:0:0:
256,192,100482,1,8,0:0:0:0:
256,192,100668,1,0,0:0:0:0:
256,192,101041,1,0,0:0:0:0:
256,192,101227,1,8,0:0:0:0:
256,192,101600,1,0,0:0:0:0:
256,192,102345,1,8,0:0:0:0:
256,192,102718,1,0,0:0:0:0:
256,192,102904,1,0,0:0:0:0:
256,192,103091,1,0,0:0:0:0:
256,192,103463,1,8,0:0:0:0:
256,192,103836,1,0,0:0:0:0:
256,192,104022,1,0,0:0:0:0:
256,192,104209,1,8,0:0:0:0:
256,192,104395,1,8,0:0:0:0:
256,192,104581,1,0,0:0:0:0:
256,192,104954,1,0,0:0:0:0:
256,192,105327,1,8,0:0:0:0:
256,192,105699,1,0,0:0:0:0:
256,192,105886,1,8,0:0:0:0:
256,192,106258,1,8,0:0:0:0:
256,192,106445,1,8,0:0:0:0:
256,192,106631,1,0,0:0:0:0:
256,192,106817,1,0,0:0:0:0:
256,192,107190,1,8,0:0:0:0:
256,192,107563,1,0,0:0:0:0:
256,192,108308,1,8,0:0:0:0:
256,192,109053,1,0,0:0:0:0:
256,192,109240,1,0,0:0:0:0:
256,192,109426,1,8,0:0:0:0:
256,192,109799,1,0,0:0:0:0:
256,192,110171,1,8,0:0:0:0:
256,192,110358,1,8,0:0:0:0:
256,192,110544,1,0,0:0:0:0:
256,192,110917,1,0,0:0:0:0:
256,192,111289,1,8,0:0:0:0:
256,192,111662,1,0,0:0:0:0:
256,192,111848,1,8,0:0:0:0:
256,192,112221,1,8,0:0:0:0:
256,192,112407,1,8,0:0:0:0:
256,192,112594,1,0,0:0:0:0:
256,192,112780,1,0,0:0:0:0:
256,192,113153,1,8,0:0:0:0:
256,192,113525,1,0,0:0:0:0:
256,192,116507,5,0,0:0:0:0:
256,192,116879,1,0,0:0:0:0:
256,192,117252,1,8,0:0:0:0:
256,192,117438,1,0,0:0:0:0:
256,192,117811,1,0,0:0:0:0:
256,192,117997,1,8,0:0:0:0:
256,192,118370,1,0,0:0:0:0:
256,192,118743,1,8,0:0:0:0:
256,192,118929,1,8,0:0:0:0:
256,192,119115,1,8,0:0:0:0:
256,192,119488,1,0,0:0:0:0:
256,192,119861,1,0,0:0:0:0:
256,192,120233,1,8,0:0:0:0:
256,192,120420,1,8,0:0:0:0:
256,192,120606,1,0,0:0:0:0:
256,192,120979,1,8,0:0:0:0:
256,192,121352,1,0,0:0:0:0:
256,192,121538,1,8,0:0:0:0:
256,192,121724,1,0,0:0:0:0:
256,192,121911,1,0,0:0:0:0:
256,192,122097,1,8,0:0:0:0:
256,192,122470,1,0,0:0:0:0:
256,192,123215,1,8,0:0:0:0:
256,192,123401,1,0,0:0:0:0:
256,192,123774,1,0,0:0:0:0:
256,192,123960,1,8,0:0:0:0:
256,192,124333,1,0,0:0:0:0:
256,192,124706,1,8,0:0:0:0:
256,192,124892,1,8,0:0:0:0:
256,192,125078,1,8,0:0:0:0:
256,192,125451,1,4,0:0:0:0:
256,192,126010,1,8,0:0:0:0:
256,192,126196,1,0,0:0:0:0:
256,192,126383,1,0,0:0:0:0:
256,192,126569,1,8,0:0:0:0:
256,192,126942,1,0,0:0:0:0:
256,192,127687,1,0,0:0:0:0:
256,192,127873,1,0,0:0:0:0:
256,192,128060,1,8,0:0:0:0:
256,192,128432,1,0,0:0:0:0:
256,192,128991,1,8,0:0:0:0:
256,192,129178,1,0,0:0:0:0:
256,192,129364,1,0,0:0:0:0:
256,192,129550,1,8,0:0:0:0:
256,192,129923,1,0,0:0:0:0:
256,192,130296,1,8,0:0:0:0:
256,192,130482,1,8,0:0:0:0:
256,192,130668,1,0,0:0:0:0:
256,192,130855,1,0,0:0:0:0:
256,192,131041,1,8,0:0:0:0:
256,192,131414,1,0,0:0:0:0:
256,192,131973,1,8,0:0:0:0:
256,192,132159,1,0,0:0:0:0:
256,192,132345,1,0,0:0:0:0:
256,192,132532,1,8,0:0:0:0:
256,192,132904,1,0,0:0:0:0:
256,192,133650,1,0,0:0:0:0:
256,192,133836,1,0,0:0:0:0:
256,192,134022,1,8,0:0:0:0:
256,192,134395,1,0,0:0:0:0:
256,192,134954,1,8,0:0:0:0:
256,192,135140,1,0,0:0:0:0:
256,192,135327,1,0,0:0:0:0:
256,192,135513,1,8,0:0:0:0:
256,192,135886,1,0,0:0:0:0:
256,192,136258,1,8,0:0:0:0:
256,192,136445,1,8,0:0:0:0:
256,192,136631,1,0,0:0:0:0:
256,192,136817,1,0,0:0:0:0:
256,192,137004,1,8,0:0:0:0:
256,192,137376,1,4,0:0:0:0:
