osu file format v14

[General]
AudioFilename: audio.mp3
AudioLeadIn: 0
PreviewTime: 112701
Countdown: 1
SampleSet: Soft
StackLeniency: 0.7
Mode: 0
LetterboxInBreaks: 0
WidescreenStoryboard: 0

[Editor]
DistanceSpacing: 0.8
BeatDivisor: 4
GridSize: 32
TimelineZoom: 1

[Metadata]
Title:TRAUBE MINZE
TitleUnicode:TRAUBE MINZE
Artist:LUCIANO
ArtistUnicode:LUCIANO
Creator:Tomadoi
Version:Insane
Source:
Tags:loco l.o.c.o. german rap hip hop shiinoha kotone
BeatmapID:1953942
BeatmapSetID:935219

[Difficulty]
HPDrainRate:5.8
CircleSize:4
OverallDifficulty:7.2
ApproachRate:8.3
SliderMultiplier:2.4
SliderTickRate:1

[Events]
//Background and Video events
0,0,"bg.jpg",0,0
//Break Periods
//Storyboard Layer 0 (Background)
//Storyboard Layer 1 (Fail)
//Storyboard Layer 2 (Pass)
//Storyboard Layer 3 (Foreground)
//Storyboard Sound Samples

[TimingPoints]
394,769.230769230769,4,2,1,36,1,0
394,-250,4,2,1,36,0,0
12701,-83.3333333333333,4,2,1,69,0,0
37317,-100,4,2,1,52,0,0
61932,-100,4,2,3,32,0,0
64240,-71.4285714285714,4,2,1,80,0,0
64624,-71.4285714285714,4,2,1,69,0,0
65009,-83.3333333333333,4,2,1,69,0,1
74240,-125,4,2,1,42,0,0
75778,-166.666666666667,4,2,1,42,0,0
86547,-100,4,2,1,52,0,0
88086,-100,4,2,3,32,0,0
89624,-100,4,2,1,52,0,0
105009,-166.666666666667,4,2,1,42,0,0
111163,-166.666666666667,4,2,3,32,0,0
113470,-71.4285714285715,4,2,1,80,0,0
113855,-71.4285714285715,4,2,1,69,0,0
114240,-83.3333333333333,4,2,1,69,0,1
135778,-100,4,2,1,69,0,0
138855,-83.3333333333333,4,2,1,62,0,0
149240,-83.3333333333333,4,2,3,32,0,0
151163,-83.3333333333333,4,2,1,62,0,0
159624,-83.3333333333333,4,2,1,42,0,0
160393,-83.3333333333333,4,2,1,62,0,0
161163,-100,4,2,1,52,0,0
166547,-100,4,2,1,36,0,0
167124,-250,4,2,1,36,0,0

[Colours]
Combo1 : 140,140,0
Combo2 : 180,180,180
Combo3 : 179,179,100
Combo4 : 110,110,110

[HitObjects]
95,63,394,6,0,P|129:62|169:56,2,72,2|2|2,0:0|0:0|0:0,0:0:0:0:
203,277,3470,2,0,P|167:271|131:270,1,72,2|2,0:0|0:0,0:0:0:0:
103,297,4240,1,2,0:0:0:0:
14,349,4624,2,0,P|26:294|28:249,1,96,2|0,0:0|0:0,0:0:0:0:
72,191,5778,1,2,0:0:0:0:
313,38,6547,22,0,P|279:37|239:31,2,72,2|2|2,0:0|0:0|0:0,0:0:0:0:
313,38,8855,1,2,0:0:0:0:
231,235,9624,2,0,P|266:229|302:228,1,72,2|2,0:0|0:0,0:0:0:0:
334,249,10393,1,2,0:0:0:0:
427,300,10778,2,0,P|417:243|415:195,1,96,2|0,0:0|0:0,0:0:0:0:
452,137,11932,1,2,0:0:0:0:
452,137,12317,2,0,L|456:96,1,24
323,21,12701,6,0,P|332:57|333:108,1,71.9999978027344,0|0,3:0|0:0,0:0:0:0:
475,101,13086,2,0,P|477:65|486:30,1,71.9999978027344
368,174,13470,2,0,B|288:182|321:222|225:246,1,143.999995605469,8|0,0:0|3:0,0:0:0:0:
194,179,14047,1,2,2:3:0:0:
110,303,14240,22,0,P|144:305|185:315,1,71.9999978027344,0|2,0:0|2:3,0:0:0:0:
375,346,14624,2,0,P|308:352|229:371,1,143.999995605469,0|8,0:0|0:0,0:0:0:0:
396,266,15201,1,0,0:0:0:0:
465,370,15393,2,0,P|466:332|472:291,1,71.9999978027344,0|2,0:0|2:3,0:0:0:0:
303,130,15778,22,0,P|311:201|315:280,2,143.999995605469,0|0|8,3:0|0:0|0:0,0:0:0:0:
303,130,16932,2,0,P|306:93|313:59,1,71.9999978027344,0|2,3:0|2:3,0:0:0:0:
206,185,17317,22,0,P|209:220|217:256,1,71.9999978027344
99,130,17701,2,0,P|96:95|88:59,1,71.9999978027344
276,133,18086,1,8,0:0:0:0:
276,133,18278,1,0,3:0:0:0:
132,282,18470,2,0,P|168:277|211:274,1,71.9999978027344
353,336,18855,21,0,3:0:0:0:
353,336,19047,1,0,3:0:0:0:
487,269,19240,2,0,P|451:274|408:277,1,71.9999978027344
273,370,19624,2,0,P|210:358|123:354,1,143.999995605469,8|0,0:0|3:0,0:0:0:0:
345,301,20201,1,2,2:3:0:0:
423,370,20393,21,2,0:0:0:0:
494,103,20778,1,2,0:0:0:0:
355,48,21163,22,0,P|386:57|425:63,1,71.9999978027344,8|0,0:0|0:0,0:0:0:0:
500,183,21547,2,0,P|464:187|429:198,1,71.9999978027344,0|2,0:0|2:3,0:0:0:0:
286,306,21932,22,0,B|370:301|341:348|421:350,2,143.999995605469,0|0|8,3:0|0:0|0:0,0:0:0:0:
157,367,22893,1,0,0:0:0:0:
157,367,23086,2,0,P|163:331|165:293,1,71.9999978027344,0|2,3:0|2:3,0:0:0:0:
73,155,23470,22,0,P|70:190|64:226,1,71.9999978027344
226,138,23855,2,0,P|216:102|212:61,1,71.9999978027344
155,214,24240,1,8,0:0:0:0:
155,214,24432,1,0,0:0:0:0:
275,284,24624,1,0,3:0:0:0:
431,201,24817,1,0,0:0:0:0:
444,197,25009,22,0,P|435:106|433:54,1,143.999995605469,0|2,0:0|0:0,0:0:0:0:
444,197,25778,1,2,0:0:0:0:
53,341,28086,21,0,3:0:0:0:
155,267,28278,1,0,0:0:0:0:
155,267,28470,2,0,P|149:300|146:343,1,71.9999978027344
4,209,28855,2,0,P|75:223|122:167,1,143.999995605469,8|0,0:0|3:0,0:0:0:0:
67,102,29432,1,2,2:3:0:0:
162,0,29624,22,0,P|156:34|153:77,1,71.9999978027344
258,199,30009,2,0,P|252:164|249:122,1,71.9999978027344
176,251,30393,1,8,0:0:0:0:
176,251,30586,1,0,3:0:0:0:
266,348,30778,2,0,P|303:349|339:356,1,71.9999978027344
160,336,31163,22,0,P|93:350|16:359,2,143.999995605469,0|0|8,3:0|0:0|0:0,0:0:0:0:
342,241,32124,1,0,0:0:0:0:
396,295,32317,2,0,P|429:299|468:308,1,71.9999978027344,0|2,3:0|2:3,0:0:0:0:
246,372,32701,21,2,0:0:0:0:
289,65,33086,1,2,0:0:0:0:
424,131,33470,22,0,P|425:93|431:59,1,71.9999978027344,8|0,0:0|0:0,0:0:0:0:
286,170,33855,2,0,P|292:205|292:241,1,71.9999978027344,0|2,0:0|2:3,0:0:0:0:
175,110,34240,1,0,0:0:0:0:
50,347,37317,6,0,P|47:313|40:276,1,60,0|0,3:0|0:0,0:0:0:0:
260,351,37701,2,0,P|197:355|135:365,1,120,0|8,0:0|0:0,0:0:0:0:
260,351,38470,1,0,3:0:0:0:
260,351,38663,1,2,2:3:0:0:
365,294,38855,22,0,P|360:325|357:361,1,60,2|0,0:0|0:0,0:0:0:0:
253,239,39240,2,0,P|250:209|245:179,1,60,2|0,0:0|0:0,0:0:0:0:
352,84,39624,1,2,0:0:0:0:
352,84,39817,1,2,0:0:0:0:
472,209,40009,2,0,P|441:201|410:199,1,60,2|0,0:0|0:0,0:0:0:0:
246,88,40393,22,0,P|188:100|127:109,2,120,0|0|8,3:0|0:0|0:0,0:0:0:0:
328,176,41355,1,0,0:0:0:0:
230,299,41547,2,0,P|236:269|239:234,1,60,0|2,3:0|2:3,0:0:0:0:
430,335,41932,2,0,P|372:342|307:356,1,120
404,108,42509,21,0,0:0:0:0:
484,182,42701,2,0,P|477:211|472:249,1,60,8|0,0:0|3:0,0:0:0:0:
311,354,43086,2,0,P|315:324|322:295,1,60
402,334,43470,1,0,3:0:0:0:
251,236,43663,21,0,3:0:0:0:
251,236,43855,2,0,P|221:243|191:248,1,60
58,350,44240,2,0,P|116:352|183:362,1,120,8|0,0:0|3:0,0:0:0:0:
36,220,44817,1,2,2:3:0:0:
136,114,45009,2,0,P|129:146|125:183,1,60
28,40,45393,2,0,P|32:70|39:100,1,60
115,264,45778,2,0,L|249:250,1,120,8|0,0:0|0:0,0:0:0:0:
406,328,46355,1,2,2:3:0:0:
406,328,46547,22,0,P|373:333|346:344,1,60,0|0,3:0|0:0,0:0:0:0:
410,174,46932,2,0,P|438:184|467:188,1,60
290,50,47317,2,0,P|302:108|308:175,1,120,8|0,0:0|3:0,0:0:0:0:
53,143,47893,21,2,2:3:0:0:
68,69,48086,2,0,B|143:74|111:104|192:114,1,120
28,347,48855,22,0,P|34:314|34:288,2,60,2|2|2,0:0|0:0|0:0,0:0:0:0:
215,198,49624,22,0,P|214:256|220:323,1,120,0|0,3:0|0:0,0:0:0:0:
288,360,50201,1,0,0:0:0:0:
444,304,50393,2,0,P|408:309|379:307,1,60,8|0,0:0|0:0,0:0:0:0:
423,104,50778,2,0,P|415:161|414:233,1,120,0|0,3:0|0:0,0:0:0:0:
300,15,51547,21,0,0:0:0:0:
300,15,51740,1,0,0:0:0:0:
164,115,51932,2,0,P|193:118|222:125,1,60,8|0,0:0|3:0,0:0:0:0:
58,37,52317,2,0,P|65:92|68:167,1,120,0|0,0:0|3:0,0:0:0:0:
226,336,53086,21,0,0:0:0:0:
226,336,53278,1,0,0:0:0:0:
91,285,53470,2,0,P|96:320|100:358,1,60,8|0,0:0|0:0,0:0:0:0:
294,253,53855,2,0,P|230:249|167:241,1,120,0|0,3:0|0:0,0:0:0:0:
380,359,54624,21,0,0:0:0:0:
380,359,54816,1,0,0:0:0:0:
294,253,55009,2,0,P|323:259|353:261,1,60,8|0,0:0|3:0,0:0:0:0:
452,128,55393,2,0,P|447:161|439:257,1,120
198,51,56163,21,2,0:0:0:0:
198,51,56355,1,2,0:0:0:0:
198,51,56547,2,0,P|204:80|206:113,1,60,2|0,0:0|0:0,0:0:0:0:
93,225,56932,2,0,P|91:164|82:104,1,120,2|2,0:0|0:0,0:0:0:0:
93,225,57701,22,0,P|123:216|154:213,1,60,2|0,0:0|0:0,0:0:0:0:
216,268,58086,1,2,0:0:0:0:
216,268,58278,1,2,0:0:0:0:
300,190,58470,2,0,P|301:249|308:327,1,120,2|2,0:0|0:0,0:0:0:0:
434,110,59240,22,0,P|432:77|435:47,1,60,2|0,0:0|0:0,0:0:0:0:
491,193,59624,2,0,P|458:197|427:205,1,60,2|0,0:0|0:0,0:0:0:0:
347,121,60009,2,0,P|289:120|215:110,1,120,2|2,0:0|0:0,0:0:0:0:
41,18,60778,22,0,P|51:47|54:82,1,60,2|0,0:0|0:0,0:0:0:0:
124,167,61163,2,0,P|133:138|137:109,1,60,2|0,0:0|0:0,0:0:0:0:
43,206,61547,1,2,0:0:0:0:
43,353,61932,5,2,3:2:0:0:
36,342,62124,1,2,0:0:0:0:
46,336,62317,1,2,0:0:0:0:
52,345,62509,1,2,0:0:0:0:
46,336,64240,22,0,L|228:359,1,167.999994873047,8|2,3:2|2:3,0:0:0:0:
140,264,64817,1,0,0:0:0:0:
227,116,65009,22,0,P|221:151|217:202,1,71.9999978027344,0|0,3:0|0:0,0:0:0:0:
48,211,65393,2,0,P|44:175|38:139,1,71.9999978027344
156,282,65778,2,0,P|223:286|301:299,1,143.999995605469,8|0,0:0|3:0,0:0:0:0:
403,202,66355,1,2,2:3:0:0:
501,327,66547,22,0,P|463:332|427:341,1,71.9999978027344
309,210,66932,2,0,P|343:218|379:222,1,71.9999978027344
228,312,67317,1,8,0:0:0:0:
228,312,67509,1,0,3:0:0:0:
172,110,67701,2,0,P|177:144|178:181,1,71.9999978027344
315,33,68086,21,0,3:0:0:0:
315,33,68278,1,0,3:0:0:0:
440,157,68470,2,0,P|402:164|368:177,1,71.9999978027344
230,285,68855,2,0,P|300:290|375:309,1,143.999995605469,8|0,0:0|3:0,0:0:0:0:
175,221,69432,1,2,2:3:0:0:
63,345,69624,21,2,0:0:0:0:
103,82,70009,1,2,0:0:0:0:
26,228,70393,22,0,P|61:231|98:243,1,71.9999978027344,8|0,0:0|0:0,0:0:0:0:
174,69,70778,2,0,P|139:79|103:83,1,71.9999978027344,0|2,0:0|2:3,0:0:0:0:
289,204,71163,2,0,P|278:121|275:55,2,143.999995605469,0|0|8,3:0|0:0|0:0,0:0:0:0:
389,279,72124,1,0,0:0:0:0:
262,371,72317,2,0,P|298:372|337:381,1,71.9999978027344,0|2,3:0|2:3,0:0:0:0:
203,272,72701,1,0,0:0:0:0:
203,272,72893,1,0,0:0:0:0:
111,376,73086,2,0,P|74:377|36:386,1,71.9999978027344
158,197,73470,21,8,0:0:0:0:
158,197,73663,1,0,0:0:0:0:
189,350,73855,1,0,3:0:0:0:
38,264,74047,1,0,0:0:0:0:
69,117,74240,1,0,0:0:0:0:
69,117,74624,6,0,P|68:88|64:59,1,48,2|0,0:0|0:0,0:0:0:0:
141,22,75009,2,0,P|142:68|150:123,1,96,2|0,0:0|0:0,0:0:0:0:
257,273,75778,22,0,P|235:268|211:265,1,35.9999989013672,2|0,0:0|0:0,0:0:0:0:
157,308,76163,1,2,0:0:0:0:
292,351,76547,22,0,P|309:346|327:343,1,35.9999989013672,2|0,0:0|0:0,0:0:0:0:
368,282,76932,2,0,P|385:284|403:289,1,35.9999989013672,2|0,0:0|0:0,0:0:0:0:
466,342,77317,1,2,0:0:0:0:
466,342,77509,2,0,P|461:357|456:385,3,35.9999989013672,0|0|0|2,0:0|0:0|0:0|0:0,0:0:0:0:
147,56,78855,22,0,P|141:77|140:104,1,35.9999989013672,2|0,0:0|0:0,0:0:0:0:
278,113,79240,2,0,P|283:91|285:65,1,35.9999989013672,2|0,0:0|0:0,0:0:0:0:
200,147,79624,22,0,L|204:188,1,35.9999989013672,2|0,0:0|0:0,0:0:0:0:
250,242,80009,2,0,L|246:283,1,35.9999989013672,2|0,0:0|0:0,0:0:0:0:
204,340,80393,1,2,0:0:0:0:
56,304,80778,22,0,L|20:309,1,35.9999989013672,0|2,0:0|0:0,0:0:0:0:
33,49,81932,6,0,L|119:60,1,71.9999978027344,2|2,0:0|0:0,0:0:0:0:
286,169,82701,6,0,L|346:159,1,35.9999989013672,2|0,0:0|0:0,0:0:0:0:
373,107,83086,2,0,L|433:117,1,35.9999989013672,2|0,0:0|0:0,0:0:0:0:
466,161,83470,1,2,0:0:0:0:
203,26,84624,22,0,P|207:43|211:76,1,35.9999989013672,2|0,0:0|0:0,0:0:0:0:
170,126,85009,1,2,0:0:0:0:
170,126,85201,1,0,0:0:0:0:
233,213,85393,2,0,P|235:195|239:177,1,35.9999989013672,2|0,0:0|0:0,0:0:0:0:
128,259,85778,2,0,P|132:276|134:294,1,35.9999989013672,2|0,0:0|0:0,0:0:0:0:
252,358,86163,2,0,P|254:340|258:322,1,35.9999989013672,2|0,0:0|0:0,0:0:0:0:
171,384,86547,1,0,3:0:0:0:
378,230,86932,22,0,P|405:237|452:246,1,60
298,278,87317,2,0,P|278:297|247:334,1,60,8|0,0:0|0:0,0:0:0:0:
296,184,87701,2,0,P|288:157|272:111,1,60,0|2,3:0|2:3,0:0:0:0:
68,195,88086,21,2,0:0:0:0:
64,201,88470,1,2,0:0:0:0:
74,200,88855,1,2,0:0:0:0:
65,194,89240,1,2,0:0:0:0:
227,9,89624,22,0,P|220:64|216:141,1,120,0|0,3:0|0:0,0:0:0:0:
103,199,90201,1,0,0:0:0:0:
40,55,90393,2,0,P|68:67|105:75,1,60,8|0,0:0|0:0,0:0:0:0:
178,217,90778,2,0,P|148:224|121:235,1,60,0|2,3:0|2:3,0:0:0:0:
290,88,91163,2,0,P|292:117|299:146,1,60
182,57,91547,1,0,0:0:0:0:
182,57,91740,1,0,0:0:0:0:
82,184,91932,2,0,P|138:190|206:205,1,120,8|0,0:0|0:0,0:0:0:0:
342,302,92701,21,0,3:0:0:0:
342,302,92893,1,0,3:0:0:0:
448,185,93086,2,0,P|443:216|442:256,1,60
314,148,93470,2,0,L|303:28,2,120,8|0|0,0:0|3:0|0:0,0:0:0:0:
245,305,94432,1,2,2:3:0:0:
156,204,94624,2,0,P|185:211|217:216,1,60
151,335,95009,2,0,P|88:346|29:364,1,120,8|0,0:0|0:0,0:0:0:0:
234,209,95586,21,2,2:3:0:0:
316,266,95778,2,0,L|440:281,1,120,0|0,3:0|0:0,0:0:0:0:
512,187,96355,1,0,0:0:0:0:
424,73,96547,2,0,L|431:133,1,60,8|0,0:0|0:0,0:0:0:0:
497,22,96932,1,0,3:0:0:0:
497,22,97124,1,2,2:3:0:0:
334,146,97317,22,0,P|361:150|393:160,1,60,2|0,0:0|0:0,0:0:0:0:
345,29,97701,2,0,P|316:38|286:42,1,60,2|0,0:0|0:0,0:0:0:0:
199,135,98086,2,0,P|257:129|315:167,1,120,2|2,0:0|0:0,0:0:0:0:
58,22,98855,22,0,P|69:76|78:142,1,120,0|0,3:0|0:0,0:0:0:0:
8,263,99432,1,0,0:0:0:0:
134,358,99624,2,0,P|98:362|65:370,1,60,8|0,0:0|0:0,0:0:0:0:
181,250,100009,1,0,3:0:0:0:
181,250,100201,1,2,2:3:0:0:
288,371,100393,2,0,P|291:335|299:309,1,60,0|2,0:0|2:3,0:0:0:0:
271,133,100778,2,0,P|263:162|261:191,1,60
478,89,101163,21,8,0:0:0:0:
359,29,101355,2,0,P|372:78|379:151,1,120,0|2,3:0|2:3,0:0:0:0:
341,212,101932,1,0,3:0:0:0:
174,112,102124,21,0,0:0:0:0:
174,112,102317,2,0,P|204:119|242:123,1,60
288,315,102701,2,0,P|224:320|165:330,1,120,8|0,0:0|3:0,0:0:0:0:
352,235,103278,21,2,2:3:0:0:
437,364,103470,2,0,P|407:360|378:353,1,60
412,166,103855,2,0,P|441:169|470:176,1,60
257,224,104240,21,8,0:0:0:0:
325,95,104432,2,0,P|263:107|200:115,1,120,0|0,3:0|0:0,0:0:0:0:
325,95,105009,22,0,P|361:103|404:109,1,71.9999978027344,2|0,0:0|0:0,0:0:0:0:
463,166,105586,1,0,0:0:0:0:
457,157,105778,2,0,P|420:149|378:143,1,71.9999978027344,2|0,0:0|0:0,0:0:0:0:
227,317,106547,22,0,P|263:309|306:303,1,71.9999978027344,2|0,0:0|0:0,0:0:0:0:
365,246,107124,1,0,0:0:0:0:
359,255,107316,2,0,P|322:263|280:269,1,71.9999978027344,2|0,0:0|0:0,0:0:0:0:
132,72,108086,22,0,L|141:151,1,71.9999978027344,2|0,0:0|0:0,0:0:0:0:
229,180,108663,1,0,0:0:0:0:
220,172,108855,2,0,L|212:97,1,71.9999978027344,2|0,0:0|0:0,0:0:0:0:
59,323,109624,22,0,P|95:315|138:309,1,71.9999978027344,2|0,0:0|0:0,0:0:0:0:
212,367,110201,1,0,0:0:0:0:
206,358,110393,2,0,P|169:350|127:344,1,71.9999978027344,2|2,0:0|0:0,0:0:0:0:
62,49,111163,5,2,3:2:0:0:
55,60,111355,1,2,0:0:0:0:
65,66,111548,1,2,0:0:0:0:
71,57,111740,1,2,0:0:0:0:
452,315,113470,22,0,L|276:333,1,167.999994873047,8|2,3:2|2:3,0:0:0:0:
157,274,114047,1,0,0:0:0:0:
28,356,114240,22,0,P|37:318|41:277,1,71.9999978027344,0|0,3:0|0:0,0:0:0:0:
187,197,114624,2,0,P|191:232|199:267,1,71.9999978027344
30,102,115009,2,0,P|100:112|180:118,1,143.999995605469,8|0,0:0|3:0,0:0:0:0:
291,43,115586,1,2,2:3:0:0:
417,150,115778,22,0,P|380:153|343:164,1,71.9999978027344
405,0,116163,2,0,P|439:9|475:12,1,71.9999978027344
331,76,116547,1,8,0:0:0:0:
331,76,116740,1,0,3:0:0:0:
181,19,116932,2,0,P|189:51|195:95,1,71.9999978027344
135,227,117317,21,0,3:0:0:0:
135,227,117509,1,0,3:0:0:0:
276,338,117701,2,0,P|238:339|201:346,1,71.9999978027344
244,188,118086,2,0,P|311:207|396:215,1,143.999995605469,8|0,0:0|3:0,0:0:0:0:
205,262,118663,1,2,2:3:0:0:
143,148,118855,21,2,0:0:0:0:
29,384,119240,1,2,0:0:0:0:
0,182,119624,22,0,P|37:194|81:194,1,71.9999978027344,8|0,0:0|0:0,0:0:0:0:
200,355,120009,2,0,P|164:356|130:368,1,71.9999978027344,0|2,0:0|2:3,0:0:0:0:
232,133,120393,2,0,P|226:204|226:280,2,143.999995605469,0|0|8,3:0|0:0|0:0,0:0:0:0:
154,18,121355,1,0,0:0:0:0:
34,141,121547,2,0,P|69:143|112:152,1,71.9999978027344,0|2,3:0|2:3,0:0:0:0:
259,49,121932,21,2,0:0:0:0:
259,49,122124,1,0,0:0:0:0:
378,197,122317,2,0,P|342:199|300:208,1,71.9999978027344
438,115,122701,21,2,0:0:0:0:
469,236,122893,1,0,0:0:0:0:
366,353,123086,1,2,0:0:0:0:
195,319,123278,1,0,0:0:0:0:
273,207,123470,22,0,P|276:269|278:361,2,143.999995605469,0|0|8,3:0|0:0|0:0,0:0:0:0:
403,26,124624,21,0,3:0:0:0:
403,26,124817,1,2,2:3:0:0:
494,161,125009,2,0,P|457:163|416:171,1,71.9999978027344
295,89,125393,2,0,P|293:52|285:11,1,71.9999978027344
341,162,125778,21,8,0:0:0:0:
341,162,125970,1,0,0:0:0:0:
236,276,126163,2,0,P|273:278|319:288,1,71.9999978027344,0|2,0:0|2:3,0:0:0:0:
100,216,126547,21,0,3:0:0:0:
182,343,126740,1,0,0:0:0:0:
182,343,126932,2,0,P|145:345|99:355,1,71.9999978027344
239,190,127317,2,0,P|244:259|309:284,1,143.999995605469,8|0,0:0|3:0,0:0:0:0:
369,201,127893,1,2,2:3:0:0:
472,359,128086,22,0,P|431:361|389:374,1,71.9999978027344
438,159,128470,2,0,P|472:167|508:168,1,71.9999978027344
389,288,128855,1,8,0:0:0:0:
389,288,129047,1,0,3:0:0:0:
289,167,129240,2,0,P|295:134|296:96,1,71.9999978027344
381,32,129624,21,0,3:0:0:0:
381,32,129817,1,0,3:0:0:0:
213,177,130009,2,0,P|249:181|287:190,1,71.9999978027344
112,75,130393,2,0,P|124:138|130:221,1,143.999995605469,8|0,0:0|3:0,0:0:0:0:
211,29,130970,1,2,2:3:0:0:
85,46,131163,21,2,0:0:0:0:
373,115,131547,1,2,0:0:0:0:
324,203,131932,22,0,P|360:215|404:214,1,71.9999978027344,8|0,0:0|0:0,0:0:0:0:
496,313,132317,2,0,P|460:314|426:325,1,71.9999978027344,0|2,0:0|2:3,0:0:0:0:
294,373,132701,2,0,B|279:292|330:321|314:234,2,143.999995605469,0|0|8,3:0|0:0|0:0,0:0:0:0:
177,108,133855,21,0,3:0:0:0:
177,108,134047,1,2,2:3:0:0:
239,264,134240,2,0,P|201:267|156:278,1,71.9999978027344
350,126,134624,2,0,P|312:123|267:112,1,71.9999978027344
407,242,135009,21,8,0:0:0:0:
453,89,135201,1,0,0:0:0:0:
385,43,135393,21,0,3:0:0:0:
492,224,135586,1,0,0:0:0:0:
417,336,135778,1,0,0:0:0:0:
405,340,138855,22,0,P|406:303|413:265,1,71.9999978027344,0|0,3:0|0:0,0:0:0:0:
248,218,139240,2,0,P|253:253|255:289,1,71.9999978027344
449,134,139624,2,0,P|374:146|296:145,1,143.999995605469,8|0,0:0|3:0,0:0:0:0:
182,51,140201,1,2,2:3:0:0:
80,172,140393,22,0,P|114:175|152:184,1,71.9999978027344
340,44,140778,2,0,P|305:52|269:55,1,71.9999978027344
242,228,141163,1,8,0:0:0:0:
242,228,141355,1,0,3:0:0:0:
398,339,141547,2,0,P|391:302|388:264,1,71.9999978027344
225,350,141932,22,0,P|262:352|308:360,1,71.9999978027344,0|0,3:0|0:0,0:0:0:0:
407,167,142317,2,0,P|371:172|335:174,1,71.9999978027344
474,379,142701,2,0,P|481:295|492:231,1,143.999995605469,8|0,0:0|3:0,0:0:0:0:
313,341,143278,1,2,2:3:0:0:
220,258,143470,21,2,0:0:0:0:
456,359,143855,1,2,0:0:0:0:
300,316,144240,22,0,P|301:279|309:246,1,71.9999978027344,8|0,0:0|0:0,0:0:0:0:
191,159,144624,2,0,P|199:193|200:229,1,71.9999978027344,0|2,0:0|2:3,0:0:0:0:
105,274,145009,1,0,0:0:0:0:
307,37,148086,22,0,P|301:73|300:118,1,71.9999978027344,0|0,3:0|0:0,0:0:0:0:
433,226,148470,2,0,P|434:190|439:154,1,71.9999978027344
273,306,148855,2,0,P|344:314|418:332,1,143.999995605469,8|2,0:0|3:2,0:0:0:0:
208,236,149432,21,2,0:0:0:0:
125,317,149624,1,2,0:0:0:0:
129,323,150009,1,2,0:0:0:0:
119,322,150393,1,2,0:0:0:0:
128,316,150778,1,2,0:0:0:0:
176,99,151163,21,0,3:0:0:0:
105,185,151355,1,0,0:0:0:0:
105,185,151547,2,0,P|69:188|34:196,1,71.9999978027344
134,32,151932,2,0,P|184:79|263:67,1,143.999995605469,8|0,0:0|3:0,0:0:0:0:
315,0,152509,1,2,2:3:0:0:
426,134,152701,22,0,P|389:125|353:123,1,71.9999978027344
246,245,153086,2,0,P|283:236|319:234,1,71.9999978027344
182,180,153470,1,8,0:0:0:0:
182,180,153663,1,0,3:0:0:0:
84,321,153855,2,0,P|82:281|74:246,1,71.9999978027344
235,337,154240,21,0,3:0:0:0:
235,337,154432,1,0,3:0:0:0:
403,254,154624,2,0,P|364:262|325:263,1,71.9999978027344
477,372,155009,2,0,P|481:286|487:222,1,143.999995605469,8|0,0:0|3:0,0:0:0:0:
350,42,155586,1,2,2:3:0:0:
270,155,155778,21,2,0:0:0:0:
512,73,156163,1,2,0:0:0:0:
270,155,156547,22,0,P|270:115|265:80,1,71.9999978027344,8|0,0:0|0:0,0:0:0:0:
146,212,156932,2,0,P|155:177|160:141,1,71.9999978027344,0|2,0:0|2:3,0:0:0:0:
308,281,157317,2,0,B|223:287|253:326|176:340,2,143.999995605469,0|0|8,3:0|0:0|0:0,0:0:0:0:
150,250,158278,21,0,0:0:0:0:
42,354,158470,2,0,P|51:314|52:278,1,71.9999978027344,0|2,3:0|2:3,0:0:0:0:
0,182,158855,1,0,0:0:0:0:
0,182,159047,1,0,0:0:0:0:
107,68,159240,2,0,P|70:77|35:81,1,71.9999978027344
124,177,159624,2,2,L|434:192,1,287.999991210938,2|0,0:0|3:0,0:0:0:0:
252,41,160778,5,0,0:0:0:0:
252,41,160970,1,0,0:0:0:0:
327,211,161163,2,0,P|331:152|345:83,1,120,8|0,0:0|3:0,0:0:0:0:
213,282,161740,2,0,P|272:286|331:297,2,120,2|2|0,2:3|2:3|0:0,0:0:0:0:
39,343,162701,21,8,0:0:0:0:
135,371,162893,2,0,P|126:312|123:247,1,120,0|2,3:0|2:3,0:0:0:0:
74,138,163470,22,0,P|42:146|8:149,1,60,0|0,3:0|0:0,0:0:0:0:
198,196,163855,2,0,P|227:198|256:207,1,60
355,130,164240,1,8,0:0:0:0:
355,130,164432,1,0,0:0:0:0:
285,43,164624,1,2,3:0:0:0:
341,233,164817,22,0,P|400:224|460:219,1,120,2|0,2:3|0:0,0:0:0:0:
302,318,165393,2,2,P|242:309|182:304,1,120,2|8,0:0|0:0,0:0:0:0:
53,371,165970,2,0,L|38:181,1,180,0|2,3:0|0:0,0:0:0:0:
38,191,167124,22,0,L|119:200,1,72,2|2,0:0|0:0,0:0:0:0:
360,89,169624,22,0,L|450:80,1,72,2|2,0:0|0:0,0:0:0:0:
360,89,170778,1,2,0:0:0:0:
156,57,171932,21,2,0:0:0:0:
230,25,172701,2,0,L|237:99,2,72,2|2|2,0:0|0:0|0:0,0:0:0:0:
108,313,175778,21,2,0:0:0:0:
108,313,176355,1,2,0:0:0:0:
108,313,176932,2,0,L|96:65,1,240,2|0,0:0|0:0,0:0:0:0:
