osu file format v14

[General]
AudioFilename: audio.mp3
AudioLeadIn: 0
PreviewTime: 112701
Countdown: 1
SampleSet: Soft
StackLeniency: 0.7
Mode: 0
LetterboxInBreaks: 0
WidescreenStoryboard: 1

[Editor]
DistanceSpacing: 1.6
BeatDivisor: 4
GridSize: 32
TimelineZoom: 1

[Metadata]
Title:TRAUBE MINZE
TitleUnicode:TRAUBE MINZE
Artist:LUCIANO
ArtistUnicode:LUCIANO
Creator:Tomadoi
Version:Hard
Source:
Tags:loco l.o.c.o. german rap hip hop shiinoha kotone
BeatmapID:1953941
BeatmapSetID:935219

[Difficulty]
HPDrainRate:5
CircleSize:3.6
OverallDifficulty:5.5
ApproachRate:7.5
SliderMultiplier:2
SliderTickRate:1

[Events]
//Background and Video events
0,0,"bg.jpg",0,0
//Break Periods
2,55977,61107
2,105209,109953
//Storyboard Layer 0 (Background)
//Storyboard Layer 1 (Fail)
//Storyboard Layer 2 (Pass)
//Storyboard Layer 3 (Foreground)
//Storyboard Sound Samples

[TimingPoints]
394,769.230769230769,4,2,1,36,1,0
394,-250,4,2,1,36,0,0
12701,-83.3333333333333,4,2,1,69,0,0
37317,-100,4,2,1,52,0,0
61932,-125,4,2,3,32,0,0
64240,-71.4285714285714,4,2,1,80,0,0
64624,-71.4285714285714,4,2,1,69,0,0
65009,-83.3333333333333,4,2,1,69,0,1
74240,-125,4,2,1,42,0,0
75778,-166.666666666667,4,2,1,42,0,0
86547,-100,4,2,1,52,0,0
88086,-100,4,2,3,32,0,0
89624,-100,4,2,1,52,0,0
105009,-166.666666666667,4,2,1,42,0,0
111163,-125,4,2,3,32,0,0
113470,-71.4285714285715,4,2,1,80,0,0
113855,-71.4285714285715,4,2,1,69,0,0
114240,-83.3333333333333,4,2,1,69,0,1
135778,-100,4,2,1,69,0,0
138855,-83.3333333333333,4,2,1,62,0,0
149240,-83.3333333333333,4,2,3,32,0,0
151163,-83.3333333333333,4,2,1,62,0,0
159624,-83.3333333333333,4,2,1,42,0,0
160393,-83.3333333333333,4,2,1,62,0,0
161163,-100,4,2,1,52,0,0
161740,-100,4,2,1,52,0,0
162701,-100,4,2,1,52,0,0
164624,-100,4,2,1,52,0,0
165393,-100,4,2,1,52,0,0
166547,-200,4,2,1,36,0,0

[Colours]
Combo1 : 140,140,0
Combo2 : 180,180,180
Combo3 : 179,179,100
Combo4 : 110,110,110

[HitObjects]
82,90,394,6,0,P|79:121|76:155,2,60,2|2|2,0:0|0:0|0:0,0:0:0:0:
177,255,3470,2,0,P|174:223|171:190,2,60,2|2|2,0:0|0:0|0:0,0:0:0:0:
141,368,5778,1,2,0:0:0:0:
333,324,6547,22,0,P|296:329|265:338,2,60,2|2|2,0:0|0:0|0:0,0:0:0:0:
171,195,9624,2,0,P|208:200|239:209,2,60,2|2|2,0:0|0:0|0:0,0:0:0:0:
59,235,11932,1,2,0:0:0:0:
59,235,12317,1,0,0:0:0:0:
59,235,12701,6,0,P|52:200|53:162,1,59.9999981689454,0|0,3:0|0:0,0:0:0:0:
151,126,13086,2,0,P|144:161|145:199,1,59.9999981689454,0|0,0:0|0:0,0:0:0:0:
222,226,13470,2,0,P|279:215|349:215,1,119.999996337891,8|0,0:0|3:0,0:0:0:0:
425,141,14047,1,2,2:3:0:0:
425,141,14240,2,0,P|418:109|415:77,1,59.9999981689454,0|2,0:0|2:3,0:0:0:0:
319,7,14624,2,0,P|330:65|337:136,1,119.999996337891,0|8,0:0|0:0,0:0:0:0:
294,198,15201,1,0,0:0:0:0:
294,198,15393,2,0,P|288:227|286:261,1,59.9999981689454,0|2,0:0|2:3,0:0:0:0:
350,360,15778,22,0,P|325:349|287:343,1,59.9999981689454,0|0,3:0|0:0,0:0:0:0:
211,292,16163,2,0,P|183:303|153:308,1,59.9999981689454,0|0,0:0|0:0,0:0:0:0:
85,259,16547,2,0,P|96:171|99:135,1,119.999996337891,8|0,0:0|3:0,0:0:0:0:
60,43,17124,1,2,2:3:0:0:
60,43,17317,2,0,P|89:52|125:57,1,59.9999981689454,0|0,0:0|0:0,0:0:0:0:
187,143,17701,2,0,P|157:147|128:156,1,59.9999981689454,0|0,0:0|0:0,0:0:0:0:
212,63,18086,2,0,P|241:72|277:77,1,59.9999981689454,8|0,0:0|3:0,0:0:0:0:
327,199,18470,2,0,P|297:203|268:212,1,59.9999981689454,0|0,0:0|0:0,0:0:0:0:
218,280,18855,22,0,P|224:310|228:348,2,59.9999981689454,0|0|0,3:0|3:0|0:0,0:0:0:0:
357,185,19624,2,0,P|349:242|346:309,1,119.999996337891,8|0,0:0|3:0,0:0:0:0:
449,350,20201,1,2,2:3:0:0:
449,350,20393,2,0,P|456:290|459:230,1,119.999996337891,2|2,0:0|0:0,0:0:0:0:
348,65,21163,22,0,P|318:74|287:77,1,59.9999981689454,8|0,0:0|0:0,0:0:0:0:
216,138,21547,2,0,P|186:129|155:126,1,59.9999981689454,0|2,0:0|2:3,0:0:0:0:
91,179,21932,2,0,P|100:232|107:304,1,119.999996337891,0|0,3:0|0:0,0:0:0:0:
178,342,22509,1,0,0:0:0:0:
178,342,22701,2,0,B|245:326|221:359|313:344,1,119.999996337891,8|0,0:0|3:0,0:0:0:0:
363,295,23278,1,2,2:3:0:0:
292,205,23470,22,0,P|291:239|286:272,1,59.9999981689454,0|0,0:0|0:0,0:0:0:0:
414,219,23855,2,0,P|410:189|409:159,1,59.9999981689454,0|0,0:0|0:0,0:0:0:0:
338,66,24240,2,0,P|337:100|332:133,1,59.9999981689454,8|0,0:0|0:0,0:0:0:0:
479,110,24624,2,0,P|475:80|474:50,1,59.9999981689454,0|0,3:0|0:0,0:0:0:0:
403,4,25009,1,0,0:0:0:0:
403,4,28086,22,0,P|369:10|338:12,1,59.9999981689454,0|0,3:0|0:0,0:0:0:0:
275,79,28470,2,0,P|241:73|210:71,1,59.9999981689454,0|0,0:0|0:0,0:0:0:0:
157,132,28855,2,0,L|31:151,1,119.999996337891,8|0,0:0|3:0,0:0:0:0:
9,248,29432,1,2,2:3:0:0:
9,248,29624,2,0,P|15:276|18:313,1,59.9999981689454,0|0,0:0|0:0,0:0:0:0:
103,341,30009,2,0,P|105:311|112:281,1,59.9999981689454,0|0,0:0|0:0,0:0:0:0:
194,241,30393,2,0,P|200:269|203:306,1,59.9999981689454,8|0,0:0|3:0,0:0:0:0:
288,334,30778,2,0,P|290:304|297:274,1,59.9999981689454,0|0,0:0|0:0,0:0:0:0:
381,226,31163,22,0,P|408:233|447:239,2,59.9999981689454,0|0|0,3:0|0:0|0:0,0:0:0:0:
320,76,31932,2,0,B|244:70|275:107|195:103,1,119.999996337891,8|0,0:0|3:0,0:0:0:0:
147,46,32509,1,2,2:3:0:0:
147,46,32701,2,0,B|77:42|108:79|32:73,1,119.999996337891,2|2,0:0|0:0,0:0:0:0:
156,242,33470,2,0,P|161:212|163:181,1,59.9999981689454,8|0,0:0|0:0,0:0:0:0:
83,154,33855,2,0,P|77:183|76:215,1,59.9999981689454,0|2,0:0|2:3,0:0:0:0:
91,289,34240,1,0,0:0:0:0:
371,335,37317,5,0,3:0:0:0:
371,335,37701,2,0,P|375:275|380:217,2,100,0|8|0,0:0|0:0|3:0,0:0:0:0:
300,373,38663,1,2,2:3:0:0:
300,373,38855,2,0,P|248:363|200:361,1,100,2|2,0:0|0:0,0:0:0:0:
119,222,39624,2,0,P|144:230|175:235,1,50,2|2,0:0|0:0,0:0:0:0:
226,180,40009,2,0,P|251:171|282:167,1,50,2|0,0:0|0:0,0:0:0:0:
344,204,40393,22,0,P|388:217|447:206,1,100,0|0,3:0|0:0,0:0:0:0:
480,138,40970,1,0,0:0:0:0:
480,138,41163,2,0,P|476:113|475:88,1,50,8|0,0:0|0:0,0:0:0:0:
412,38,41547,2,0,P|387:41|362:43,1,50,0|2,3:0|2:3,0:0:0:0:
288,114,41932,2,0,P|242:105|182:99,2,100,0|0|8,0:0|0:0|0:0,0:0:0:0:
329,182,42893,1,0,3:0:0:0:
264,254,43086,2,0,P|268:279|272:312,1,50,0|0,0:0|0:0,0:0:0:0:
209,354,43470,22,0,P|185:345|131:342,1,50,0|0,3:0|3:0,0:0:0:0:
51,336,43855,1,0,0:0:0:0:
51,336,44047,1,0,0:0:0:0:
51,336,44240,2,0,L|66:238,1,100,8|0,0:0|3:0,0:0:0:0:
202,39,45009,2,0,L|217:137,1,100,0|0,0:0|0:0,0:0:0:0:
22,86,45778,2,0,P|71:97|131:100,1,100,8|0,0:0|0:0,0:0:0:0:
216,177,46355,1,2,2:3:0:0:
216,177,46547,22,0,P|166:180|117:191,1,100,0|0,3:0|0:0,0:0:0:0:
7,288,47317,2,0,P|17:228|21:171,1,100,8|0,0:0|3:0,0:0:0:0:
5,83,47893,1,2,2:3:0:0:
5,83,48086,2,0,P|49:63|102:70,1,100,0|0,0:0|0:0,0:0:0:0:
208,156,48855,2,0,L|202:217,2,50,2|2|2,0:0|0:0|0:0,0:0:0:0:
357,51,49624,21,0,3:0:0:0:
357,51,50009,2,0,L|420:58,1,50,0|0,0:0|0:0,0:0:0:0:
435,151,50393,2,0,L|385:156,1,50,8|0,0:0|0:0,0:0:0:0:
357,251,50778,2,0,L|468:262,1,100,0|0,3:0|0:0,0:0:0:0:
266,355,51547,22,0,P|271:331|270:294,1,50,0|0,0:0|0:0,0:0:0:0:
217,246,51932,2,0,P|212:222|213:185,1,50,8|0,0:0|3:0,0:0:0:0:
265,137,52317,2,0,P|275:83|273:37,1,100,0|0,0:0|3:0,0:0:0:0:
57,118,53086,22,0,P|83:113|110:112,1,50,0|0,0:0|0:0,0:0:0:0:
167,163,53470,2,0,P|171:189|173:216,1,50,8|0,0:0|0:0,0:0:0:0:
125,277,53855,2,0,P|80:289|21:282,1,100,0|0,3:0|0:0,0:0:0:0:
192,349,54624,22,0,L|250:356,1,50,0|0,0:0|0:0,0:0:0:0:
298,298,55009,2,0,L|350:290,1,50,8|0,0:0|3:0,0:0:0:0:
409,340,55393,2,0,L|508:349,1,100,0|0,0:0|0:0,0:0:0:0:
422,97,61932,6,0,L|428:150,3,40,2|2|2|2,3:2|0:0|0:0|0:0,0:0:0:0:
422,97,64240,1,8,3:2:0:0:
422,97,64624,2,0,L|347:109,1,69.9999978637696,2|0,2:3|0:0,0:0:0:0:
272,54,65009,22,0,P|244:63|191:64,1,59.9999981689454,0|0,3:0|0:0,0:0:0:0:
155,141,65393,2,0,P|126:131|96:128,1,59.9999981689454,0|0,0:0|0:0,0:0:0:0:
37,188,65778,2,0,P|45:239|50:309,1,119.999996337891,8|0,0:0|3:0,0:0:0:0:
141,355,66355,1,2,2:3:0:0:
141,355,66547,2,0,P|169:346|201:343,1,59.9999981689454,0|0,0:0|0:0,0:0:0:0:
243,257,66932,2,0,P|213:253|184:244,1,59.9999981689454,0|0,0:0|0:0,0:0:0:0:
128,166,67317,2,0,P|156:157|188:154,1,59.9999981689454,8|0,0:0|3:0,0:0:0:0:
230,68,67702,2,0,P|200:64|171:55,1,59.9999981689454,0|0,0:0|0:0,0:0:0:0:
83,18,68086,22,0,P|87:47|89:83,2,59.9999981689454,0|0|0,3:0|3:0|0:0,0:0:0:0:
214,166,68855,2,0,P|269:168|339:178,1,119.999996337891,8|0,0:0|3:0,0:0:0:0:
321,272,69432,1,2,2:3:0:0:
321,272,69624,2,0,P|261:269|201:261,1,119.999996337891,2|2,0:0|0:0,0:0:0:0:
368,355,70393,22,0,P|396:343|426:339,1,59.9999981689454,8|0,0:0|0:0,0:0:0:0:
434,227,70778,2,0,P|404:222|376:211,1,59.9999981689454,0|2,0:0|2:3,0:0:0:0:
328,141,71163,2,0,B|321:76|352:93|345:24,1,119.999996337891,0|0,3:0|0:0,0:0:0:0:
263,44,71740,1,0,0:0:0:0:
263,44,71932,2,0,L|136:36,1,119.999996337891,8|0,0:0|3:0,0:0:0:0:
68,75,72509,1,2,2:3:0:0:
137,177,72701,22,0,P|138:142|144:110,1,59.9999981689454,0|0,0:0|0:0,0:0:0:0:
31,164,73086,2,0,P|35:193|36:223,1,59.9999981689454,0|0,0:0|0:0,0:0:0:0:
108,299,73470,2,0,P|135:291|176:286,1,59.9999981689454,8|0,0:0|0:0,0:0:0:0:
241,218,73855,2,0,P|268:225|309:231,1,59.9999981689454,0|0,3:0|0:0,0:0:0:0:
367,187,74240,1,0,0:0:0:0:
381,382,75778,6,0,P|351:372|316:368,1,59.9999981689454,2|2,0:0|0:0,0:0:0:0:
247,309,76547,2,0,P|217:318|182:323,1,59.9999981689454,2|2,0:0|0:0,0:0:0:0:
111,266,77317,1,2,0:0:0:0:
111,266,78855,22,0,P|108:195|103:147,1,119.999996337891,2|2,0:0|0:0,0:0:0:0:
160,68,80009,1,2,0:0:0:0:
258,133,80393,1,2,0:0:0:0:
258,133,81932,22,0,L|178:124,1,59.9999981689454,2|2,0:0|0:0,0:0:0:0:
114,179,82701,1,2,0:0:0:0:
164,260,83086,1,2,0:0:0:0:
134,332,83470,1,2,0:0:0:0:
134,332,84624,22,0,L|87:341,1,29.9999990844727,2|0,0:0|0:0,0:0:0:0:
60,319,85009,2,0,P|66:287|71:254,1,59.9999981689454,2|2,0:0|0:0,0:0:0:0:
134,188,85778,2,0,P|128:156|123:123,1,59.9999981689454,2|2,0:0|0:0,0:0:0:0:
187,27,86547,21,0,3:0:0:0:
187,27,86932,2,0,P|215:33|245:39,1,50,0|0,0:0|0:0,0:0:0:0:
283,102,87317,2,0,P|331:93|384:91,1,100,8|0,0:0|3:0,0:0:0:0:
259,257,88086,22,0,P|263:228|264:205,1,50,2|0,0:0|0:0,0:0:0:0:
210,147,88470,1,2,0:0:0:0:
210,147,88855,2,0,L|104:161,1,100,2|2,0:0|0:0,0:0:0:0:
45,326,89624,22,0,P|90:326|146:333,1,100,0|0,3:0|0:0,0:0:0:0:
216,297,90201,1,0,0:0:0:0:
305,357,90393,2,0,P|331:350|355:346,1,50,8|0,0:0|0:0,0:0:0:0:
432,364,90778,2,0,P|436:339|442:315,1,50,0|2,3:0|2:3,0:0:0:0:
499,258,91163,1,0,0:0:0:0:
441,108,91547,2,0,P|414:116|386:122,1,50,0|0,0:0|0:0,0:0:0:0:
322,87,91932,2,0,L|251:80,1,50,8|0,0:0|0:0,0:0:0:0:
219,27,92317,1,0,0:0:0:0:
84,149,92701,21,0,3:0:0:0:
84,149,92893,1,0,3:0:0:0:
141,205,93086,2,0,P|136:239|134:268,1,50,0|0,0:0|0:0,0:0:0:0:
46,342,93470,2,0,P|44:292|39:234,1,100,8|0,0:0|3:0,0:0:0:0:
171,346,94240,2,0,P|197:348|231:353,1,50,0|2,0:0|2:3,0:0:0:0:
266,286,94624,2,0,P|292:284|326:279,1,50,0|0,0:0|0:0,0:0:0:0:
419,348,95009,2,0,P|425:308|430:248,1,100,8|0,0:0|0:0,0:0:0:0:
385,161,95586,1,2,2:3:0:0:
385,161,95778,22,0,B|321:159|346:182|275:189,1,100,0|0,3:0|0:0,0:0:0:0:
217,125,96355,1,0,0:0:0:0:
217,125,96547,2,0,P|219:97|225:74,1,50,8|0,0:0|0:0,0:0:0:0:
129,28,96932,2,0,P|134:52|136:77,1,50,0|2,3:0|2:3,0:0:0:0:
88,150,97317,2,0,L|37:143,2,50,2|0|2,0:0|0:0|0:0,0:0:0:0:
137,221,97893,1,0,0:0:0:0:
137,221,98086,2,0,L|126:332,1,100,2|2,0:0|0:0,0:0:0:0:
285,381,98855,21,0,3:0:0:0:
285,381,99240,2,0,P|281:351|276:323,1,50,0|0,0:0|0:0,0:0:0:0:
377,249,99624,2,0,P|370:297|367:350,1,100,8|0,0:0|3:0,0:0:0:0:
201,165,100393,22,0,P|225:161|249:155,1,50,0|2,0:0|2:3,0:0:0:0:
309,209,100778,2,0,P|333:212|357:218,1,50,0|0,0:0|0:0,0:0:0:0:
434,116,101163,1,8,0:0:0:0:
434,116,101355,2,0,P|391:127|330:127,1,100,0|2,3:0|2:3,0:0:0:0:
201,36,101932,21,0,3:0:0:0:
201,36,102124,1,0,0:0:0:0:
154,101,102317,2,0,P|161:124|166:152,1,50,0|0,0:0|0:0,0:0:0:0:
242,226,102701,2,0,P|245:170|252:124,1,100,8|0,0:0|3:0,0:0:0:0:
331,72,103278,1,2,2:3:0:0:
331,72,103470,22,0,P|340:97|343:128,1,50,0|0,0:0|0:0,0:0:0:0:
390,185,103855,2,0,P|382:210|378:241,1,50
337,330,104240,1,8,0:0:0:0:
337,330,104432,2,0,P|380:315|437:325,1,100,0|0,3:0|0:0,0:0:0:0:
450,339,105009,1,2,0:0:0:0:
422,269,110778,5,2,0:0:0:0:
411,184,111163,2,0,L|467:189,3,40,2|2|2|2,3:2|0:0|0:0|0:0,0:0:0:0:
411,184,113470,1,8,3:2:0:0:
411,184,113855,2,0,L|414:115,1,69.9999978637696,2|0,2:3|0:0,0:0:0:0:
359,49,114240,22,0,P|329:58|289:59,1,59.9999981689454,0|0,3:0|0:0,0:0:0:0:
225,119,114624,2,0,P|195:110|155:109,1,59.9999981689454,0|0,0:0|0:0,0:0:0:0:
84,90,115009,2,0,P|92:149|95:209,1,119.999996337891,8|0,0:0|3:0,0:0:0:0:
51,297,115586,1,2,2:3:0:0:
51,297,115778,2,0,P|81:301|114:310,1,59.9999981689454,0|0,0:0|0:0,0:0:0:0:
189,194,116163,2,0,P|159:201|130:205,1,59.9999981689454,0|0,0:0|0:0,0:0:0:0:
207,310,116547,2,0,P|237:314|270:323,1,59.9999981689454,8|0,0:0|3:0,0:0:0:0:
345,207,116932,2,0,P|315:214|286:218,1,59.9999981689454,0|0,0:0|0:0,0:0:0:0:
362,304,117317,22,0,P|366:333|369:366,2,59.9999981689454,0|0|0,3:0|3:0|0:0,0:0:0:0:
472,177,118086,2,0,B|452:106|476:125|460:58,1,119.999996337891,8|0,0:0|3:0,0:0:0:0:
366,54,118663,1,2,2:3:0:0:
366,54,118855,2,0,B|381:120|357:101|377:172,1,119.999996337891,2|2,0:0|0:0,0:0:0:0:
257,54,119624,22,0,P|227:61|198:63,1,59.9999981689454,8|0,0:0|0:0,0:0:0:0:
122,124,120009,2,0,P|92:116|63:114,1,59.9999981689454,0|2,0:0|2:3,0:0:0:0:
18,184,120393,2,0,P|28:237|33:308,1,119.999996337891,0|0,3:0|0:0,0:0:0:0:
108,347,120970,1,0,0:0:0:0:
108,347,121163,2,0,B|179:335|155:364|237:354,1,119.999996337891,8|0,0:0|3:0,0:0:0:0:
289,298,121740,1,2,2:3:0:0:
376,353,121932,1,2,0:0:0:0:
376,353,123470,22,0,P|378:320|383:286,1,59.9999981689454,0|0,3:0|0:0,0:0:0:0:
331,210,123855,2,0,P|328:177|324:143,1,59.9999981689454,0|0,0:0|0:0,0:0:0:0:
353,70,124240,2,0,P|406:94|472:93,1,119.999996337891,8|0,0:0|3:0,0:0:0:0:
501,187,124817,1,2,2:3:0:0:
501,187,125009,2,0,P|495:215|492:247,1,59.9999981689454,0|0,0:0|0:0,0:0:0:0:
396,319,125393,2,0,P|388:230|384:198,1,119.999996337891,0|8,0:0|0:0,0:0:0:0:
308,140,125970,1,0,0:0:0:0:
308,140,126163,2,0,P|276:147|248:151,1,59.9999981689454,0|2,0:0|2:3,0:0:0:0:
191,211,126547,22,0,B|199:278|223:253|228:326,1,119.999996337891,0|0,3:0|0:0,0:0:0:0:
150,357,127124,1,0,0:0:0:0:
150,357,127317,2,0,B|145:286|121:311|113:244,1,119.999996337891,8|0,0:0|3:0,0:0:0:0:
135,163,127893,1,2,2:3:0:0:
135,163,128086,2,0,P|167:169|195:170,1,59.9999981689454,0|0,0:0|0:0,0:0:0:0:
286,241,128470,2,0,P|256:242|226:248,1,59.9999981689454,0|0,0:0|0:0,0:0:0:0:
289,128,128855,2,0,P|321:134|349:135,1,59.9999981689454,8|0,0:0|3:0,0:0:0:0:
440,206,129239,2,0,P|410:207|380:213,1,59.9999981689454,0|0,0:0|0:0,0:0:0:0:
354,302,129624,22,0,P|358:329|358:363,2,59.9999981689454,0|0|0,3:0|3:0|0:0,0:0:0:0:
210,214,130393,2,0,P|156:224|87:228,1,119.999996337891,8|0,0:0|3:0,0:0:0:0:
80,136,130970,1,2,2:3:0:0:
80,136,131163,2,0,P|134:126|203:122,1,119.999996337891,2|2,0:0|0:0,0:0:0:0:
364,30,131932,22,0,P|358:62|357:96,1,59.9999981689454,8|0,0:0|0:0,0:0:0:0:
423,159,132317,2,0,P|428:191|430:225,1,59.9999981689454,0|2,0:0|2:3,0:0:0:0:
379,285,132701,2,0,B|306:284|333:314|254:315,1,119.999996337891,0|0,3:0|0:0,0:0:0:0:
193,269,133278,1,0,0:0:0:0:
193,269,133470,2,0,P|146:299|67:298,1,119.999996337891,8|0,0:0|3:0,0:0:0:0:
29,237,134047,1,2,2:3:0:0:
120,161,134240,22,0,P|112:195|111:229,1,59.9999981689454,0|0,0:0|0:0,0:0:0:0:
35,148,134624,2,0,P|32:118|25:88,1,59.9999981689454,0|0,0:0|0:0,0:0:0:0:
100,22,135009,2,0,P|134:29|168:31,1,59.9999981689454,8|0,0:0|0:0,0:0:0:0:
232,96,135393,2,0,P|266:88|300:87,1,59.9999981689454,0|0,3:0|0:0,0:0:0:0:
352,34,135778,1,0,0:0:0:0:
352,34,138855,22,0,P|354:66|362:99,1,59.9999981689454,0|0,3:0|0:0,0:0:0:0:
299,168,139240,2,0,P|296:200|289:233,1,59.9999981689454,0|0,0:0|0:0,0:0:0:0:
333,299,139624,2,0,P|384:291|454:290,1,119.999996337891,8|0,0:0|3:0,0:0:0:0:
494,201,140201,1,2,2:3:0:0:
494,201,140393,2,0,P|487:171|484:139,1,59.9999981689454,0|0,0:0|0:0,0:0:0:0:
399,96,140778,2,0,P|392:125|389:158,1,59.9999981689454,0|0,0:0|0:0,0:0:0:0:
304,200,141163,2,0,P|297:170|294:138,1,59.9999981689454,8|0,0:0|3:0,0:0:0:0:
209,95,141548,2,0,P|202:124|199:157,1,59.9999981689454,0|0,0:0|0:0,0:0:0:0:
144,241,141932,22,0,P|90:229|21:225,1,119.999996337891,0|0,3:0|0:0,0:0:0:0:
187,328,142701,2,0,B|254:318|239:350|318:340,1,119.999996337891,8|0,0:0|3:0,0:0:0:0:
327,260,143278,1,2,2:3:0:0:
327,260,143470,2,0,B|261:268|273:241|209:246,1,119.999996337891,2|2,0:0|0:0,0:0:0:0:
83,100,144240,2,0,P|110:109|145:116,1,59.9999981689454,8|0,0:0|0:0,0:0:0:0:
222,66,144624,2,0,P|249:56|284:50,1,59.9999981689454,0|2,0:0|2:3,0:0:0:0:
365,94,145009,1,0,0:0:0:0:
365,94,148086,22,0,P|358:128|357:165,1,59.9999981689454,0|0,3:0|0:0,0:0:0:0:
426,219,148470,2,0,P|432:253|434:290,1,59.9999981689454,0|0,0:0|0:0,0:0:0:0:
379,342,148855,2,0,P|316:335|245:333,1,119.999996337891,8|2,0:0|3:2,0:0:0:0:
187,269,149432,1,2,0:0:0:0:
187,269,149624,1,2,0:0:0:0:
43,96,151163,21,0,3:0:0:0:
43,96,151355,1,0,0:0:0:0:
121,151,151547,2,0,P|151:145|185:142,1,59.9999981689454,0|0,0:0|0:0,0:0:0:0:
236,79,151932,2,0,P|284:108|357:98,1,119.999996337891,8|0,0:0|3:0,0:0:0:0:
403,26,152509,1,2,2:3:0:0:
403,26,152701,2,0,P|427:43|455:58,1,59.9999981689454,0|0,0:0|0:0,0:0:0:0:
483,149,153086,2,0,P|456:163|432:180,1,59.9999981689454,0|0,0:0|0:0,0:0:0:0:
365,249,153470,2,0,P|391:263|415:280,1,59.9999981689454,8|0,0:0|3:0,0:0:0:0:
479,352,153855,2,0,P|454:369|428:383,1,59.9999981689454,0|0,0:0|0:0,0:0:0:0:
337,350,154240,22,0,P|306:343|270:342,2,59.9999981689454,0|0|0,3:0|3:0|0:0,0:0:0:0:
213,235,155009,2,0,P|153:246|87:252,1,119.999996337891,8|0,0:0|3:0,0:0:0:0:
76,163,155586,1,2,2:3:0:0:
76,163,155778,2,0,P|136:152|202:146,1,119.999996337891,2|2,0:0|0:0,0:0:0:0:
293,282,156547,22,0,P|286:254|284:221,1,59.9999981689454,8|0,0:0|0:0,0:0:0:0:
349,152,156932,2,0,P|356:124|358:91,1,59.9999981689454,0|2,0:0|2:3,0:0:0:0:
304,28,157317,2,0,B|241:29|257:63|183:69,1,119.999996337891,0|0,3:0|0:0,0:0:0:0:
112,44,157893,1,0,0:0:0:0:
112,44,158086,2,0,P|103:94|100:167,1,119.999996337891,8|0,0:0|3:0,0:0:0:0:
159,222,158663,1,2,2:3:0:0:
262,148,158855,22,0,P|224:154|195:155,1,59.9999981689454,0|0,0:0|0:0,0:0:0:0:
250,252,159240,2,0,P|279:253|309:259,1,59.9999981689454,0|0,0:0|0:0,0:0:0:0:
382,206,159624,2,0,P|376:176|374:146,1,59.9999981689454,2|0,0:0|0:0,0:0:0:0:
320,81,160009,2,0,P|325:51|327:21,1,59.9999981689454,0|0,0:0|0:0,0:0:0:0:
447,31,160393,6,0,P|454:89|464:156,1,119.999996337891,0|0,3:0|0:0,0:0:0:0:
393,305,161163,1,8,0:0:0:0:
284,217,161547,1,0,3:0:0:0:
284,217,161740,2,0,P|256:223|182:230,2,100,2|2|0,2:3|2:3|0:0,0:0:0:0:
345,165,162701,1,8,0:0:0:0:
345,165,162893,2,0,L|336:63,1,100,0|2,3:0|2:3,0:0:0:0:
246,20,163470,22,0,B|163:17|185:69|98:61,1,150,0|0,3:0|0:0,0:0:0:0:
41,109,164240,2,0,P|47:155|51:213,1,100,8|2,0:0|3:0,0:0:0:0:
119,250,164817,2,0,P|112:296|109:354,1,100,2|0,2:3|0:0,0:0:0:0:
34,377,165393,1,2,0:0:0:0:
197,325,165778,1,8,0:0:0:0:
197,325,165970,1,0,3:0:0:0:
381,265,166547,22,0,L|465:277,2,75,2|2|2,0:0|0:0|0:0,0:0:0:0:
266,100,169624,2,0,L|350:88,2,75,2|2|2,0:0|0:0|0:0,0:0:0:0:
266,100,171932,1,2,0:0:0:0:
123,247,172701,22,0,P|128:285|129:329,2,75,2|2|2,0:0|0:0|0:0,0:0:0:0:
46,61,175778,2,0,P|44:98|39:135,2,75,2|2|2,0:0|0:0|0:0,0:0:0:0:
256,192,177124,12,0,178855,0:0:0:0:
