osu file format v14

[General]
AudioFilename: audio.mp3
AudioLeadIn: 0
PreviewTime: 85906
Countdown: 0
SampleSet: Normal
StackLeniency: 0.9
Mode: 0
LetterboxInBreaks: 0
WidescreenStoryboard: 0

[Editor]
Bookmarks: 7946,15751,23556,31361,34271,35263,36222,39166,46971,54776,60612,62581,70385,78190,85995,93783,93800,100368,101605
DistanceSpacing: 1
BeatDivisor: 4
GridSize: 4
TimelineZoom: 1

[Metadata]
Title:Legs
TitleUnicode:Legs
Artist:Lucian Piane
ArtistUnicode:Lucian Piane
Creator:Gabe
Version:Advanced
Source:RuPaul's Drag Race
Tags:#TeamNaomi Naomi Smalls RPDR Queen Season 8 Finale What is on the menu gay lesbian transexual lgbtq World of Wonder Productions Inc. Logo Marianna Veus Pachiru
BeatmapID:1110284
BeatmapSetID:522808

[Difficulty]
HPDrainRate:5
CircleSize:3.5
OverallDifficulty:5
ApproachRate:5.5
SliderMultiplier:1.5
SliderTickRate:2

[Events]
//Background and Video events
Video,360,"legendary.avi"
0,0,"BGLEGS.jpg",0,0
//Break Periods
2,39277,45194
//Storyboard Layer 0 (Background)
//Storyboard Layer 1 (Fail)
//Storyboard Layer 2 (Pass)
//Storyboard Layer 3 (Foreground)
//Storyboard Sound Samples

[TimingPoints]
53,487.80487804878,4,1,1,50,1,0
16150,-100,4,1,1,30,0,0
16211,-100,4,1,1,50,0,0
20052,-100,4,1,1,30,0,0
20113,-100,4,1,1,50,0,0
23467,-100,4,2,1,60,0,0
31272,-100,4,1,1,60,0,1
32248,-100,4,1,1,30,0,1
33223,-100,4,1,1,60,0,1
34199,-100,4,1,1,30,0,1
35174,-100,4,1,1,60,0,1
36150,-100,4,1,1,30,0,1
37126,-100,4,1,1,60,0,1
39077,-100,4,1,1,60,0,0
46394,-100,4,1,1,20,0,0
46882,-100,4,3,1,45,0,0
54199,-100,4,1,1,40,0,0
54321,-100,4,1,1,45,0,0
54443,-100,4,1,1,50,0,0
54565,-100,4,1,1,55,0,0
54687,-100,4,1,1,60,0,0
55174,-100,4,1,1,30,0,0
55235,-100,4,1,1,60,0,0
59077,-100,4,1,1,30,0,0
59138,-100,4,1,1,60,0,0
62492,-100,4,2,1,60,0,0
70296,-100,4,1,1,60,0,1
71272,-100,4,1,1,30,0,1
72248,-100,4,1,1,60,0,1
73223,-100,4,1,1,30,0,1
74199,-100,4,1,1,60,0,1
75174,-100,4,1,1,30,0,1
76150,-100,4,1,1,60,0,1
78101,-100,4,1,1,60,0,0
85906,-100,4,1,1,60,0,1
86882,-100,4,1,1,30,0,1
87857,-100,4,1,1,60,0,1
88833,-100,4,1,1,30,0,1
89809,-100,4,1,1,60,0,1
90784,-100,4,1,1,30,0,1
91760,-100,4,1,1,60,0,1
93589,-100,4,1,1,60,0,0
93711,-100,4,1,1,60,0,1
94687,-100,4,1,1,30,0,1
95662,-100,4,1,1,60,0,1
96638,-100,4,1,1,30,0,1
97613,-100,4,1,1,60,0,1
98589,-100,4,1,1,30,0,1
99565,-100,4,1,1,60,0,1
101516,-100,4,1,1,60,0,0

[Colours]
Combo1 : 233,114,117
Combo2 : 230,215,200
Combo3 : 185,30,35
Combo4 : 150,130,100

[HitObjects]
256,36,7857,5,0,0:0:0:0:
256,188,8345,1,8,0:0:0:0:
324,320,8833,2,0,P|256:348|188:320,1,150,0|8,0:0|0:0,0:0:0:0:
52,260,9809,5,0,0:0:0:0:
24,192,10052,1,0,0:0:0:0:
56,124,10296,2,0,P|92:124|128:100,1,75,8|0,0:0|0:0,0:0:0:0:
188,64,10784,2,0,P|256:36|324:64,1,150,0|8,0:0|0:0,0:0:0:0:
460,124,11760,5,0,0:0:0:0:
380,252,12248,1,8,0:0:0:0:
256,336,12735,2,0,L|96:336,1,150,0|8,0:0|0:0,0:0:0:0:
112,184,13711,5,0,0:0:0:0:
184,160,13955,1,0,0:0:0:0:
256,184,14199,2,0,P|272:144|272:108,1,75,8|0,0:0|0:0,0:0:0:0:
252,40,14687,2,0,L|100:40,1,150,0|8,0:0|0:0,0:0:0:0:
184,160,15662,6,0,P|184:200|184:236,1,75
259,246,16150,2,0,P|259:286|259:322,1,75,12|0,0:0|0:0,0:0:0:0:
324,360,16638,2,0,P|384:332|408:240,1,150,0|8,0:0|0:0,0:0:0:0:
424,108,17613,6,0,L|344:88,1,75,0|0,0:0|0:0,0:0:0:0:
276,104,18101,2,0,L|196:84,1,75,8|0,0:0|0:0,0:0:0:0:
128,100,18589,1,0,0:0:0:0:
28,212,19077,1,8,0:0:0:0:
132,320,19565,6,0,L|220:344,1,75,0|0,0:0|0:0,0:0:0:0:
276,316,20052,2,0,L|348:335,1,75,12|0,0:0|0:0,0:0:0:0:
420,356,20540,2,0,B|456:328|456:328|488:224,1,150,0|8,0:0|0:0,0:0:0:0:
464,80,21516,6,0,P|428:52|392:56,1,75
336,92,22004,2,0,P|300:120|264:116,1,75,8|0,0:0|0:0,0:0:0:0:
204,92,22492,2,0,B|152:92|152:92|112:112|112:112|48:112,2,150,0|8|0,0:0|0:0|1:0,0:0:0:0:
204,244,23955,5,2,1:2:0:0:
68,304,24443,1,0,1:0:0:0:
204,372,24931,1,2,1:2:0:0:
336,304,25418,6,0,B|336:252|336:252|352:212|352:212|352:156,1,150,0|2,1:0|1:2,0:0:0:0:
440,36,26394,2,0,B|440:90|440:90|456:130|456:130|456:182,2,150,0|2|0,1:0|1:2|1:0,0:0:0:0:
292,28,27857,5,2,1:2:0:0:
300,176,28345,1,0,1:0:0:0:
172,100,28833,1,2,1:2:0:0:
48,20,29321,6,0,P|56:88|12:176,1,150,0|2,1:0|1:2,0:0:0:0:
172,188,30296,2,0,P|164:256|208:344,1,150,0|2,1:0|1:2,0:0:0:0:
284,208,31272,5,6,0:0:0:0:
340,348,31760,1,6,0:0:0:0:
456,252,32248,1,8,0:0:0:0:
416,192,32492,2,0,L|364:192,2,37.5,0|8|0,0:0|0:0|2:0,0:0:0:0:
456,132,32979,1,8,0:0:0:0:
492,68,33223,5,6,0:0:0:0:
344,44,33711,1,6,0:0:0:0:
200,84,34199,1,8,0:0:0:0:
128,108,34443,2,0,L|100:72,2,37.5,0|8|0,0:0|0:0|2:0,0:0:0:0:
88,172,34931,1,8,0:0:0:0:
40,232,35174,5,6,0:0:0:0:
144,340,35662,1,6,0:0:0:0:
188,196,36150,1,8,0:0:0:0:
256,168,36394,2,0,L|256:128,2,37.5,0|8|0,0:0|0:0|2:0,0:0:0:0:
324,196,36882,1,8,0:0:0:0:
376,248,37126,6,0,P|412:260|448:248,1,75,12|8,0:0|0:0,0:0:0:0:
488,188,37613,2,0,L|496:100,1,75,8|8,0:0|0:0,0:0:0:0:
504,40,38101,1,0,0:0:0:0:
408,100,38467,2,0,L|404:140,3,37.5
392,212,39077,5,4,0:0:0:0:
256,96,46394,6,0,L|256:36,4,37.5,8|8|8|8|0,0:0|0:0|0:0|0:0|0:0,0:0:0:0:
256,248,47370,5,8,0:0:0:0:
388,316,47857,2,0,P|420:240|388:184,1,150,0|8,0:0|0:0,0:0:0:0:
256,88,48833,5,0,0:0:0:0:
256,168,49077,1,0,0:0:0:0:
256,248,49321,1,8,0:0:0:0:
124,316,49809,2,0,P|92:240|124:184,1,150,0|8,0:0|0:0,0:0:0:0:
180,48,50784,5,0,0:0:0:0:
332,48,51272,1,8,0:0:0:0:
389,185,51760,2,0,P|420:251|388:316,1,150,0|8,0:0|0:0,0:0:0:0:
256,248,52735,5,0,0:0:0:0:
256,168,52979,1,0,0:0:0:0:
256,88,53223,1,8,0:0:0:0:
137,179,53711,1,0,0:0:0:0:
108,32,54199,2,8,L|48:32,4,37.5,8|8|8|8|0,0:0|0:0|0:0|0:0|0:0,0:0:0:0:
256,88,55174,5,12,0:0:0:0:
404,32,55662,2,0,P|400:96|488:136,1,150,0|8,0:0|0:0,0:0:0:0:
504,284,56638,6,0,L|504:380,1,75
428,360,57126,2,0,L|428:280,1,75,8|0,0:0|0:0,0:0:0:0:
380,228,57613,1,0,0:0:0:0:
256,316,58101,1,8,0:0:0:0:
132,228,58589,5,0,0:0:0:0:
20,128,59077,1,12,0:0:0:0:
168,140,59565,2,0,L|316:112,1,150,0|8,0:0|0:0,0:0:0:0:
460,72,60540,6,0,P|496:108|496:132,1,75,0|0,0:0|0:0,0:0:0:0:
464,196,61028,2,0,P|448:232|464:276,1,75,8|0,0:0|0:0,0:0:0:0:
456,340,61516,2,0,B|404:348|404:348|356:336|356:336|296:344,2,150,0|8|0,0:0|0:0|1:0,0:0:0:0:
356,228,62979,5,2,1:2:0:0:
256,116,63467,1,0,1:0:0:0:
156,228,63955,1,2,1:2:0:0:
56,340,64443,6,0,B|108:348|108:348|156:336|156:336|216:344,1,150,0|2,1:0|1:2,0:0:0:0:
256,204,65418,2,0,L|256:40,2,150,0|2|0,1:0|1:2|1:0,0:0:0:0:
309,342,66882,5,2,1:2:0:0:
448,288,67370,1,0,1:0:0:0:
452,140,67857,1,2,1:2:0:0:
308,100,68345,6,0,L|196:224,1,150,0|2,1:0|1:2,0:0:0:0:
56,224,69321,2,0,L|156:112,2,150,0|2|6,1:0|1:2|0:0,0:0:0:0:
140,348,70784,5,6,0:0:0:0:
280,292,71272,1,8,0:0:0:0:
356,300,71516,2,0,L|372:336,2,37.5,0|8|0,0:0|0:0|2:0,0:0:0:0:
408,248,72004,1,8,0:0:0:0:
456,188,72248,5,6,0:0:0:0:
408,44,72735,1,6,0:0:0:0:
304,152,73223,1,8,0:0:0:0:
236,124,73467,2,0,L|224:72,2,37.5,0|8|0,0:0|0:0|2:0,0:0:0:0:
184,180,73955,1,8,0:0:0:0:
124,228,74199,5,6,0:0:0:0:
112,80,74687,1,6,0:0:0:0:
256,32,75174,1,8,0:0:0:0:
328,48,75418,2,0,L|380:44,2,37.5,0|8|0,0:0|0:0|2:0,0:0:0:0:
280,108,75906,1,8,0:0:0:0:
240,172,76150,6,0,P|237:208|256:240,1,75,12|8,0:0|0:0,0:0:0:0:
332,240,76638,2,0,P|367:246|394:271,1,75,8|8,0:0|0:0,0:0:0:0:
416,344,77126,1,0,0:0:0:0:
468,244,77492,2,0,L|460:207,3,37.5
442,134,78101,5,4,0:0:0:0:
332,240,78589,1,8,0:0:0:0:
227,347,79077,2,0,B|183:315|127:375|79:347,1,150,0|8,0:0|0:0,0:0:0:0:
2,221,80052,5,4,0:0:0:0:
152,228,80540,1,8,0:0:0:0:
272,136,81028,2,0,P|208:84|132:80,1,150,0|8,0:0|0:0,0:0:0:0:
152,228,82004,5,4,0:0:0:0:
292,280,82492,1,8,0:0:0:0:
408,188,82979,2,0,L|448:28,1,150,0|8,0:0|0:0,0:0:0:0:
300,80,83955,5,4,0:0:0:0:
176,168,84443,1,8,0:0:0:0:
184,316,84931,2,0,P|256:336|328:316,1,150,0|8,0:0|0:0,0:0:0:0:
336,168,85906,5,6,0:0:0:0:
212,80,86394,1,6,0:0:0:0:
88,164,86882,1,8,0:0:0:0:
152,204,87126,2,0,L|192:200,2,37.5,0|8|0,0:0|0:0|2:0,0:0:0:0:
128,276,87613,1,8,0:0:0:0:
188,320,87857,5,6,0:0:0:0:
336,336,88345,1,6,0:0:0:0:
456,244,88833,1,8,0:0:0:0:
472,172,89077,2,0,L|512:152,2,37.5,0|8|0,0:0|0:0|2:0,0:0:0:0:
428,112,89565,1,8,0:0:0:0:
388,48,89809,5,6,0:0:0:0:
256,120,90296,1,6,0:0:0:0:
124,48,90784,1,8,0:0:0:0:
88,116,91028,2,0,P|67:115|44:104,2,37.5,0|8|0,0:0|0:0|2:0,0:0:0:0:
132,176,91516,1,8,0:0:0:0:
180,236,91760,6,0,P|244:272|308:236,1,150,12|8,0:0|0:0,0:0:0:0:
432,160,92735,2,0,P|368:124|304:160,1,150,8|8,0:0|0:0,0:0:0:0:
428,244,93711,5,6,0:0:0:0:
512,120,94199,1,6,0:0:0:0:
380,52,94687,2,0,L|276:52,1,75,8|0,0:0|0:0,0:0:0:0:
272,68,95052,1,8,0:0:0:0:
236,84,95174,2,0,L|132:84,1,75,0|8,2:0|0:0,0:0:0:0:
88,64,95662,5,6,0:0:0:0:
172,192,96150,1,6,0:0:0:0:
108,328,96638,2,0,P|80:304|68:256,1,75,8|0,0:0|0:0,0:0:0:0:
68,232,97004,1,8,0:0:0:0:
68,196,97126,2,0,L|68:116,1,75,0|8,2:0|0:0,0:0:0:0:
108,56,97613,5,6,0:0:0:0:
256,24,98101,1,6,0:0:0:0:
404,56,98589,2,0,L|411:130,1,75,8|0,0:0|0:0,0:0:0:0:
416,168,98955,1,8,0:0:0:0:
420,204,99077,2,0,L|427:278,1,75,0|8,2:0|0:0,0:0:0:0:
352,288,99565,6,0,L|337:138,1,150,12|8,0:0|0:0,0:0:0:0:
216,52,100540,2,0,L|228:184,1,112.5,8|8,0:0|0:0,0:0:0:0:
212,200,101028,2,0,L|220:260,2,37.5
144,164,101516,5,4,0:0:0:0:
