osu file format v14

[General]
AudioFilename: audio.mp3
AudioLeadIn: 0
PreviewTime: 74156
Countdown: 0
SampleSet: Soft
StackLeniency: 0.7
Mode: 0
LetterboxInBreaks: 0
SkinPreference:Experiment 00 v200
WidescreenStoryboard: 1
SamplesMatchPlaybackRate: 1

[Editor]
Bookmarks: 69286
DistanceSpacing: 3.5
BeatDivisor: 4
GridSize: 4
TimelineZoom: 1

[Metadata]
Title:Fly by Night (feat. Noe)
TitleUnicode:Fly by Night (feat. Noé)
Artist:Lucian
ArtistUnicode:Lucian
Creator:LieutenantItami
Version:Hard
Source:
Tags:EDM
BeatmapID:1168421
BeatmapSetID:463420

[Difficulty]
HPDrainRate:6.5
CircleSize:4
OverallDifficulty:6
ApproachRate:8
SliderMultiplier:1.79999990463257
SliderTickRate:1

[Events]
//Background and Video events
0,0,"beautiful-night-wallpaper-hd-79.jpg",0,0
//Break Periods
2,26617,28689
2,33844,46392
//Storyboard Layer 0 (Background)
//Storyboard Layer 1 (Fail)
//Storyboard Layer 2 (Pass)
//Storyboard Layer 3 (Foreground)
//Storyboard Sound Samples

[TimingPoints]
5178,437.956204379562,4,2,1,100,1,0
47187,437.956204379562,4,2,1,100,1,0
47187,-100,4,2,1,5,0,0
71384,-100,4,2,1,100,0,0
73499,-100,4,2,1,100,0,0
75216,-133.333333333333,4,2,1,5,0,1
78610,-133.333333333333,4,2,1,50,0,1
82004,-100,4,2,1,50,0,0
82223,-133.333333333333,4,2,1,5,0,1
85617,-133.333333333333,4,2,1,50,0,1
89011,-100,4,2,1,50,0,0
89230,-133.333333333333,4,2,1,5,0,1
92624,-133.333333333333,4,2,1,50,0,1
96128,-133.333333333333,4,2,1,50,0,0
96238,-133.333333333333,4,2,1,5,0,1
99632,-133.333333333333,4,2,1,50,0,1
103245,-100,4,2,1,50,0,0

[HitObjects]
145,189,5396,2,0,P|195:146|242:139,1,89.9999952316285
346,181,5834,2,0,P|294:225|243:226,1,89.9999952316285
184,330,6272,5,0,0:0:0:0:
72,253,6491,1,0,0:0:0:0:
203,221,6710,1,2,0:0:0:0:
93,142,6929,2,0,P|154:99|192:90,1,89.9999952316285
204,225,7367,1,0,0:0:0:0:
254,99,7586,1,0,0:0:0:0:
387,116,7805,1,0,0:0:0:0:
387,116,8134,1,0,0:0:0:0:
387,116,8462,6,0,P|386:181|365:233,1,89.9999952316285,0|2,0:0|0:0,0:0:0:0:
253,153,8900,5,0,0:0:0:0:
349,246,9119,1,0,0:0:0:0:
380,114,9338,1,0,0:0:0:0:
256,59,9557,2,0,P|288:44|347:51,2,89.9999952316285
121,77,10214,2,0,B|83:132|148:162|127:228|93:260,1,179.999990463257,2|0,0:0|0:0,0:0:0:0:
225,308,10871,1,0,0:0:0:0:
290,190,11090,2,0,L|392:190,1,89.9999952316285
317,69,11528,2,0,P|263:49|210:69,1,89.9999952316285
292,187,11966,2,0,P|359:200|395:187,1,89.9999952316285,0|2,0:0|0:0,0:0:0:0:
430,320,12404,5,0,0:0:0:0:
427,185,12623,1,0,0:0:0:0:
348,294,12842,1,0,0:0:0:0:
349,158,13061,2,0,P|298:192|286:248,1,89.9999952316285
154,242,13499,2,0,P|205:208|217:152,1,89.9999952316285
106,78,14156,5,0,0:0:0:0:
106,78,14265,1,0,0:0:0:0:
106,78,14375,1,2,0:0:0:0:
235,40,14594,1,0,0:0:0:0:
106,78,14813,1,0,0:0:0:0:
57,204,15032,1,0,0:0:0:0:
121,322,15250,1,0,0:0:0:0:
287,310,15688,6,0,B|233:251|312:221|312:221,1,89.9999952316285,0|0,0:0|0:0,0:0:0:0:
396,317,16126,2,0,B|450:258|371:228|371:228,1,89.9999952316285
277,311,16564,2,0,B|223:252|302:222|302:222,1,89.9999952316285
386,318,17002,2,0,B|440:259|361:229|361:229,1,89.9999952316285
397,106,17440,6,0,P|332:91|290:121,1,89.9999952316285
194,165,17878,2,0,P|259:180|301:150,1,89.9999952316285
375,77,18316,2,0,P|310:62|268:92,1,89.9999952316285
184,153,18754,2,0,B|218:178|287:116|385:182,1,179.999990463257
209,302,20287,5,0,0:0:0:0:
396,107,20725,2,0,B|346:65|275:166|198:72,1,179.999990463257
133,85,22696,5,4,0:0:0:0:
168,215,22915,2,0,P|120:205|74:230,2,89.9999952316285
265,309,23572,1,0,0:0:0:0:
301,179,23791,2,0,P|347:192|377:235,2,89.9999952316285
233,61,24448,1,4,0:0:0:0:
110,117,24667,2,0,P|152:139|204:129,2,89.9999952316285
168,238,25323,6,0,L|260:192,1,89.9999952316285
256,251,25652,2,0,L|362:216,1,89.9999952316285
361,262,25980,2,0,B|408:218|317:135|419:70,1,179.999990463257
359,109,29484,5,0,0:0:0:0:
260,201,29703,2,0,P|306:239|355:254,2,89.9999952316285
186,86,30360,1,0,0:0:0:0:
79,173,30579,2,0,P|135:173|175:201,1,89.9999952316285
176,247,30907,2,0,P|215:275|262:283,1,89.9999952316285
290,317,31236,2,0,B|249:245|374:203|305:119,1,179.999990463257
203,84,31893,5,0,0:0:0:0:
80,141,32112,1,0,0:0:0:0:
76,275,32331,1,0,0:0:0:0:
199,329,32550,1,0,0:0:0:0:
333,337,32769,6,0,P|389:324|423:274,1,89.9999952316285
423,268,33097,1,0,0:0:0:0:
416,232,33207,2,0,B|452:159|360:121|417:52,1,179.999990463257
390,80,47187,5,0,0:0:0:0:
193,264,47624,1,0,0:0:0:0:
438,150,48062,1,0,0:0:0:0:
173,94,48500,1,0,0:0:0:0:
364,284,48938,5,0,0:0:0:0:
96,321,49376,1,0,0:0:0:0:
204,73,49814,1,0,0:0:0:0:
379,278,50252,1,0,0:0:0:0:
210,67,50690,5,0,0:0:0:0:
428,225,51128,5,0,0:0:0:0:
167,294,51566,1,0,0:0:0:0:
333,81,52004,1,0,0:0:0:0:
63,67,52442,1,0,0:0:0:0:
222,284,52880,5,0,0:0:0:0:
374,61,53318,2,0,P|428:45|470:62,1,89.9999952316285
465,134,53756,2,0,P|411:150|369:133,1,89.9999952316285
415,271,54194,1,0,0:0:0:0:
204,102,54632,5,0,0:0:0:0:
58,329,55070,1,0,0:0:0:0:
319,262,55508,1,0,0:0:0:0:
129,69,55946,1,0,0:0:0:0:
394,120,56384,5,0,0:0:0:0:
157,250,56822,1,0,0:0:0:0:
418,315,57259,1,0,0:0:0:0:
274,86,57697,1,0,0:0:0:0:
137,318,58135,5,0,0:0:0:0:
367,177,58573,1,0,0:0:0:0:
105,108,59011,1,0,0:0:0:0:
316,275,59449,1,0,0:0:0:0:
460,46,59887,1,0,0:0:0:0:
293,258,60325,6,0,P|347:242|389:259,1,89.9999952316285
384,331,60763,2,0,P|330:347|288:330,1,89.9999952316285
164,321,61201,1,0,0:0:0:0:
191,52,61639,5,0,0:0:0:0:
400,222,62077,1,0,0:0:0:0:
131,249,62515,1,0,0:0:0:0:
345,85,62953,1,0,0:0:0:0:
438,338,63391,5,0,0:0:0:0:
231,163,63829,1,0,0:0:0:0:
471,40,64267,1,0,0:0:0:0:
351,282,64705,1,0,0:0:0:0:
207,53,65143,5,0,0:0:0:0:
91,297,65581,1,0,0:0:0:0:
358,258,66019,1,0,0:0:0:0:
136,104,66457,1,0,0:0:0:0:
341,279,66895,1,0,0:0:0:0:
159,94,67332,6,0,P|132:143|90:161,1,89.9999952316285
43,107,67770,2,0,P|69:57|111:39,1,89.9999952316285
233,50,68208,1,0,0:0:0:0:
377,278,68646,1,0,0:0:0:0:
108,302,69084,2,0,P|95:251|94:202,1,89.9999952316285
204,136,69522,2,0,P|217:209|212:252,1,89.9999952316285
309,322,69960,1,0,0:0:0:0:
432,81,70398,1,0,0:0:0:0:
162,63,70836,1,0,0:0:0:0:
377,226,71274,1,0,0:0:0:0:
259,291,71493,6,0,P|219:331|167:331,1,89.9999952316285
78,232,71931,2,0,P|115:195|179:195,1,89.9999952316285
256,107,72369,2,0,P|211:73|146:73,1,89.9999952316285
51,112,72807,6,0,B|126:168|21:205|102:317,1,179.999990463257
132,216,75216,6,0,B|149:218|149:218|147:236|147:236|163:235|163:235|160:252|160:252|176:247|176:247|177:264|177:264|189:264|189:264|190:280|190:280|207:279|207:279|203:293|203:293|214:289|214:289|216:306|216:306|232:305|232:305|241:319|241:319,1,202.499996995926
418,163,76092,6,0,B|400:159|400:159|404:141|404:141|387:142|387:142|391:124|391:124|375:128|375:128|375:112|375:112|362:111|362:111|362:95|362:95|346:95|346:95|350:81|350:81|339:84|339:84|338:68|338:68|322:68|322:68|314:54|314:54,1,202.499996995926
276,299,76968,6,0,B|284:283|284:283|300:291|300:291|304:275|304:275|320:283|320:283|320:267|320:267|336:271|336:271|340:259|340:259|356:263|356:263|360:247|360:247|372:255|372:255|372:243|372:243|388:247|388:247|392:231|392:231|408:227|408:227,1,202.499996995926
232,60,77843,6,0,B|224:76|224:76|208:68|208:68|204:84|204:84|188:76|188:76|188:91|188:91|172:88|172:88|168:100|168:100|152:96|152:96|148:112|148:112|136:104|136:104|136:116|136:116|120:112|120:112|116:127|116:127|100:132|100:132,1,202.499996995926
215,143,78719,5,2,0:0:0:0:
215,143,78829,1,0,0:0:0:0:
219,147,78938,2,0,L|165:69,2,67.499998998642
292,217,79595,5,8,0:0:0:0:
299,220,79705,1,0,0:0:0:0:
304,224,79814,2,0,L|393:227,2,67.499998998642
202,236,80471,5,2,0:0:0:0:
197,240,80581,1,0,0:0:0:0:
192,246,80690,2,0,L|133:300,2,67.499998998642
264,174,81347,5,8,0:0:0:0:
269,169,81457,1,0,0:0:0:0:
273,164,81566,2,0,L|332:105,2,67.499998998642
195,66,82223,6,0,B|181:76|181:76|170:62|170:62|159:75|159:75|149:61|149:61|142:76|142:76|129:65|129:65|120:73|120:73|108:63|108:63|97:76|97:76|90:63|90:63|85:74|85:74|71:63|71:63|61:76|61:76|45:72|45:72,1,202.499996995926
85,307,83099,6,0,B|98:296|98:296|109:310|109:310|120:298|120:298|130:312|130:312|138:297|138:297|150:309|150:309|159:300|159:300|171:311|171:311|182:298|182:298|189:311|189:311|194:300|194:300|208:311|208:311|218:299|218:299|234:302|234:302,1,202.499996995926
430,206,83975,6,0,B|440:219|440:219|426:230|426:230|438:241|438:241|424:251|424:251|439:259|439:259|427:271|427:271|436:280|436:280|425:292|425:292|438:303|438:303|425:310|425:310|436:315|436:315|425:329|425:329|437:339|437:339|434:355|434:355,1,202.499996995926
232,208,84851,6,0,B|221:194|221:194|235:183|235:183|222:172|222:172|236:162|236:162|221:155|221:155|232:142|232:142|224:133|224:133|234:121|234:121|221:110|221:110|234:103|234:103|223:98|223:98|234:84|234:84|221:74|221:74|225:58|225:58,1,202.499996995926
328,88,85727,5,2,0:0:0:0:
334,86,85836,1,0,0:0:0:0:
342,85,85946,2,0,L|417:50,2,67.499998998642
313,182,86603,5,8,0:0:0:0:
320,183,86712,1,0,0:0:0:0:
326,184,86822,2,0,L|404:209,2,67.499998998642
238,235,87478,5,2,0:0:0:0:
243,241,87588,1,0,0:0:0:0:
247,247,87697,2,0,L|306:316,2,67.499998998642
147,224,88354,5,8,0:0:0:0:
142,230,88464,1,0,0:0:0:0:
137,237,88573,2,0,L|87:311,2,67.499998998642
370,192,89230,6,0,B|380:205|380:205|366:216|366:216|378:227|378:227|364:237|364:237|379:245|379:245|367:257|367:257|376:266|376:266|365:278|365:278|378:289|378:289|365:296|365:296|376:301|376:301|365:315|365:315|377:325|377:325|374:341|374:341,1,202.499996995926
135,318,90106,6,0,B|124:304|124:304|138:293|138:293|125:282|125:282|139:272|139:272|124:265|124:265|135:252|135:252|127:243|127:243|137:231|137:231|124:220|124:220|137:213|137:213|126:208|126:208|137:194|137:194|124:184|124:184|128:168|128:168,1,202.499996995926
361,236,90982,6,0,B|356:252|356:252|339:248|339:248|338:264|338:264|321:259|321:259|324:275|324:275|307:274|307:274|306:286|306:286|290:285|290:285|289:302|289:302|275:297|275:297|278:308|278:308|261:308|261:308|260:324|260:324|245:331|245:331,1,202.499996995926
112,134,91858,6,0,B|114:117|114:117|132:120|132:120|132:104|132:104|149:107|149:107|145:91|145:91|162:91|162:91|162:79|162:79|178:79|178:79|178:62|178:62|192:67|192:67|189:55|189:55|206:54|206:54|206:38|206:38|220:30|220:30,1,202.499996995926
296,92,92734,5,2,0:0:0:0:
319,136,92843,1,0,0:0:0:0:
344,179,92953,2,0,L|411:132,2,67.499998998642
261,238,93610,5,8,0:0:0:0:
219,266,93719,1,0,0:0:0:0:
177,295,93829,2,0,L|225:358,2,67.499998998642
112,216,94486,5,2,0:0:0:0:
97,167,94595,1,0,0:0:0:0:
81,118,94705,2,0,L|59:45,2,67.499998998642
180,99,95362,5,8,0:0:0:0:
216,134,95471,1,0,0:0:0:0:
249,172,95581,2,0,L|192:231,2,67.499998998642
339,218,96238,6,0,B|338:234|338:234|320:233|320:233|322:249|322:249|305:248|305:248|311:264|311:264|294:265|294:265|296:278|296:278|279:280|279:280|282:297|282:297|268:294|268:294|273:305|273:305|256:309|256:309|258:324|258:324|246:334|246:334,1,202.499996995926
90,150,97114,6,0,B|90:133|90:133|108:134|108:134|106:118|106:118|124:119|124:119|117:104|117:104|134:102|134:102|134:90|134:90|150:88|150:88|147:71|147:71|162:74|162:74|156:63|156:63|174:60|174:60|171:45|171:45|184:34|184:34,1,202.499996995926
404,98,97989,6,0,B|391:108|391:108|379:95|379:95|369:107|369:107|358:94|358:94|351:109|351:109|338:98|338:98|330:107|330:107|317:97|317:97|307:111|307:111|299:98|299:98|295:109|295:109|280:99|280:99|271:111|271:111|255:109|255:109,1,202.499996995926
165,318,98865,6,0,B|177:307|177:307|189:321|189:321|199:308|199:308|210:322|210:322|217:307|217:307|230:318|230:318|238:309|238:309|251:319|251:319|261:306|261:306|269:319|269:319|273:308|273:308|288:318|288:318|297:306|297:306|313:308|313:308,1,202.499996995926
256,192,99741,5,2,0:0:0:0:
256,192,99851,1,0,0:0:0:0:
256,192,99960,2,0,L|183:136,2,67.499998998642,0|0|2,0:0|0:0|0:0,0:0:0:0:
256,192,100617,5,8,0:0:0:0:
256,192,100727,1,0,0:0:0:0:
256,192,100836,2,0,L|327:134,2,67.499998998642,0|0|2,0:0|0:0|0:0,0:0:0:0:
256,192,101493,5,2,0:0:0:0:
256,192,101603,1,0,0:0:0:0:
256,192,101712,2,0,L|329:247,2,67.499998998642,0|0|2,0:0|0:0|0:0,0:0:0:0:
256,192,102369,5,8,0:0:0:0:
256,192,102479,1,0,0:0:0:0:
256,192,102588,2,0,L|188:254,2,67.499998998642
