osu file format v14

[General]
AudioFilename: audio.mp3
AudioLeadIn: 0
PreviewTime: -1
Countdown: 1
SampleSet: None
StackLeniency: 0.7
Mode: 3
LetterboxInBreaks: 0
SpecialStyle: 0
WidescreenStoryboard: 1

[Editor]
DistanceSpacing: 0.8
BeatDivisor: 4
GridSize: 32
TimelineZoom: 1

[Metadata]
Title:Black Coast - TRNDSTTR (Lucian Remix)
TitleUnicode:Black Coast - TRNDSTTR (Lucian Remix)
Artist:Lucian
ArtistUnicode:Lucian
Creator:IHaventCare
Version:Normal
Source:
Tags:
BeatmapID:1439332
BeatmapSetID:680754

[Difficulty]
HPDrainRate:5
CircleSize:4
OverallDifficulty:5
ApproachRate:5
SliderMultiplier:1.4
SliderTickRate:1

[Events]
//Background and Video events
//Break Periods
//Storyboard Layer 0 (Background)
//Storyboard Layer 1 (Fail)
//Storyboard Layer 2 (Pass)
//Storyboard Layer 3 (Foreground)
//Storyboard Sound Samples

[TimingPoints]
220,461.538461538462,4,2,0,100,1,0

[HitObjects]
320,192,220,1,0,0:0:0:0:
448,192,681,1,0,0:0:0:0:
192,192,1143,128,0,1373:0:0:0:0:
64,192,1604,1,0,0:0:0:0:
192,192,1835,1,0,0:0:0:0:
448,192,2066,1,0,0:0:0:0:
192,192,2527,1,0,0:0:0:0:
64,192,2758,1,0,0:0:0:0:
448,192,3220,1,0,0:0:0:0:
320,192,3450,1,0,0:0:0:0:
192,192,3912,1,0,0:0:0:0:
320,192,4373,1,0,0:0:0:0:
192,192,5758,128,0,5989:0:0:0:0:
320,192,5758,1,0,0:0:0:0:
448,192,6220,128,0,6450:0:0:0:0:
320,192,6681,1,0,0:0:0:0:
192,192,7143,1,0,0:0:0:0:
448,192,7604,1,0,0:0:0:0:
192,192,8066,1,0,0:0:0:0:
320,192,8296,128,0,8758:0:0:0:0:
192,192,8758,1,0,0:0:0:0:
64,192,8989,1,0,0:0:0:0:
64,192,9450,1,0,0:0:0:0:
448,192,11296,1,0,0:0:0:0:
192,192,11296,128,0,11527:0:0:0:0:
320,192,11758,128,0,11989:0:0:0:0:
448,192,12220,128,0,12450:0:0:0:0:
64,192,12681,128,0,13604:0:0:0:0:
320,192,12681,1,0,0:0:0:0:
448,192,12912,1,0,0:0:0:0:
448,192,14527,1,0,0:0:0:0:
320,192,14758,1,0,0:0:0:0:
448,192,14989,1,0,0:0:0:0:
320,192,14989,128,0,15450:0:0:0:0:
192,192,15450,1,0,0:0:0:0:
192,192,15912,1,0,0:0:0:0:
320,192,15912,128,0,16143:0:0:0:0:
448,192,16604,1,0,0:0:0:0:
192,192,16835,128,0,17066:0:0:0:0:
320,192,16835,1,0,0:0:0:0:
192,192,17296,1,0,0:0:0:0:
64,192,17758,128,0,17989:0:0:0:0:
320,192,17758,1,0,0:0:0:0:
192,192,18220,1,0,0:0:0:0:
64,192,18450,1,0,0:0:0:0:
192,192,18681,1,0,0:0:0:0:
320,192,18681,128,0,19143:0:0:0:0:
192,192,19143,128,0,19604:0:0:0:0:
192,192,20066,1,0,0:0:0:0:
64,192,20296,1,0,0:0:0:0:
320,192,20527,128,0,20758:0:0:0:0:
192,192,20527,1,0,0:0:0:0:
448,192,20989,1,0,0:0:0:0:
192,192,21220,128,0,21450:0:0:0:0:
320,192,21450,1,0,0:0:0:0:
448,192,21681,1,0,0:0:0:0:
320,192,21912,1,0,0:0:0:0:
448,192,22143,1,0,0:0:0:0:
64,192,22373,128,0,22720:0:0:0:0:
320,192,22373,1,0,0:0:0:0:
192,192,22835,1,0,0:0:0:0:
320,192,23066,128,0,23296:0:0:0:0:
448,192,23296,1,0,0:0:0:0:
192,192,23527,1,0,0:0:0:0:
320,192,23758,1,0,0:0:0:0:
192,192,23989,128,0,24220:0:0:0:0:
64,192,24220,1,0,0:0:0:0:
64,192,24681,1,0,0:0:0:0:
448,192,25143,1,0,0:0:0:0:
320,192,25143,1,0,0:0:0:0:
192,192,25950,1,0,0:0:0:0:
448,192,26066,1,0,0:0:0:0:
320,192,26066,128,0,26296:0:0:0:0:
192,192,26296,1,0,0:0:0:0:
320,192,26527,1,0,0:0:0:0:
192,192,26873,1,0,0:0:0:0:
320,192,26989,1,0,0:0:0:0:
448,192,26989,1,0,0:0:0:0:
64,192,27220,1,0,0:0:0:0:
192,192,27335,128,0,27450:0:0:0:0:
448,192,27566,128,0,27681:0:0:0:0:
320,192,27796,1,0,0:0:0:0:
64,192,27912,1,0,0:0:0:0:
320,192,28143,1,0,0:0:0:0:
64,192,28373,128,0,28835:0:0:0:0:
192,192,28835,1,0,0:0:0:0:
448,192,29758,1,0,0:0:0:0:
192,192,29758,128,0,30681:0:0:0:0:
320,192,30681,128,0,30912:0:0:0:0:
320,192,31604,1,0,0:0:0:0:
64,192,31604,128,0,31835:0:0:0:0:
320,192,32066,1,0,0:0:0:0:
192,192,32296,1,0,0:0:0:0:
320,192,32527,1,0,0:0:0:0:
448,192,32989,1,0,0:0:0:0:
192,192,33220,1,0,0:0:0:0:
320,192,33450,1,0,0:0:0:0:
448,192,33450,128,0,33912:0:0:0:0:
320,192,35066,1,0,0:0:0:0:
192,192,35296,128,0,35758:0:0:0:0:
448,192,35296,1,0,0:0:0:0:
448,192,35989,1,0,0:0:0:0:
64,192,36681,1,0,0:0:0:0:
448,192,37143,1,0,0:0:0:0:
64,192,38989,1,0,0:0:0:0:
192,192,39220,1,0,0:0:0:0:
320,192,39450,128,0,39681:0:0:0:0:
448,192,39912,128,0,40489:0:0:0:0:
64,192,40604,128,0,40835:0:0:0:0:
192,192,40604,1,0,0:0:0:0:
448,192,40950,128,0,44527:0:0:0:0:
192,192,40950,1,0,0:0:0:0:
192,192,41296,1,0,0:0:0:0:
320,192,41412,1,0,0:0:0:0:
320,192,41758,1,0,0:0:0:0:
192,192,42104,1,0,0:0:0:0:
192,192,42450,1,0,0:0:0:0:
192,192,44412,128,0,44758:0:0:0:0:
320,192,44758,128,0,45220:0:0:0:0:
192,192,45450,128,0,45681:0:0:0:0:
448,192,45912,1,0,0:0:0:0:
320,192,46143,1,0,0:0:0:0:
192,192,46373,128,0,46604:0:0:0:0:
192,192,46835,1,0,0:0:0:0:
320,192,47066,1,0,0:0:0:0:
192,192,47296,1,0,0:0:0:0:
320,192,47758,128,0,47989:0:0:0:0:
192,192,47989,128,0,48450:0:0:0:0:
192,192,50527,1,0,0:0:0:0:
448,192,50527,1,0,0:0:0:0:
64,192,50989,1,0,0:0:0:0:
192,192,51104,1,0,0:0:0:0:
448,192,51220,128,0,51912:0:0:0:0:
64,192,51335,128,0,51450:0:0:0:0:
320,192,51912,1,0,0:0:0:0:
192,192,52143,1,0,0:0:0:0:
320,192,52373,1,0,0:0:0:0:
192,192,52604,128,0,52835:0:0:0:0:
320,192,52835,128,0,53296:0:0:0:0:
192,192,53296,1,0,0:0:0:0:
320,192,53527,1,0,0:0:0:0:
448,192,53758,1,0,0:0:0:0:
64,192,53989,128,0,54220:0:0:0:0:
448,192,54450,128,0,55143:0:0:0:0:
320,192,55143,1,0,0:0:0:0:
64,192,55604,1,0,0:0:0:0:
320,192,55604,1,0,0:0:0:0:
448,192,55835,1,0,0:0:0:0:
320,192,56066,1,0,0:0:0:0:
64,192,56527,1,0,0:0:0:0:
192,192,56643,1,0,0:0:0:0:
64,192,56816,1,0,0:0:0:0:
192,192,56873,1,0,0:0:0:0:
320,192,56989,1,0,0:0:0:0:
448,192,56989,1,0,0:0:0:0:
64,192,57450,1,0,0:0:0:0:
192,192,57681,1,0,0:0:0:0:
320,192,57912,1,0,0:0:0:0:
448,192,58373,1,0,0:0:0:0:
192,192,58604,1,0,0:0:0:0:
64,192,58835,1,0,0:0:0:0:
192,192,59296,128,0,59643:0:0:0:0:
192,192,59873,128,0,60220:0:0:0:0:
64,192,60220,1,0,0:0:0:0:
448,192,60681,1,0,0:0:0:0:
64,192,61143,128,0,61373:0:0:0:0:
192,192,61604,1,0,0:0:0:0:
320,192,61835,1,0,0:0:0:0:
192,192,62066,128,0,62527:0:0:0:0:
320,192,62527,128,0,62989:0:0:0:0:
448,192,62989,128,0,63912:0:0:0:0:
64,192,62989,1,0,0:0:0:0:
192,192,63220,1,0,0:0:0:0:
64,192,63450,1,0,0:0:0:0:
192,192,63566,1,0,0:0:0:0:
320,192,63681,128,0,63912:0:0:0:0:
192,192,63912,1,0,0:0:0:0:
64,192,63912,1,0,0:0:0:0:
320,192,64835,128,0,65758:0:0:0:0:
192,192,64835,1,0,0:0:0:0:
448,192,65066,1,0,0:0:0:0:
192,192,65296,1,0,0:0:0:0:
448,192,65527,1,0,0:0:0:0:
192,192,65758,1,0,0:0:0:0:
320,192,66220,128,0,66681:0:0:0:0:
192,192,66681,128,0,67604:0:0:0:0:
64,192,66681,128,0,67604:0:0:0:0:
320,192,67604,1,0,0:0:0:0:
448,192,68066,1,0,0:0:0:0:
192,192,68527,128,0,68758:0:0:0:0:
320,192,68758,1,0,0:0:0:0:
448,192,68989,1,0,0:0:0:0:
320,192,69220,1,0,0:0:0:0:
64,192,69450,128,0,69681:0:0:0:0:
192,192,69912,1,0,0:0:0:0:
320,192,70143,128,0,71296:0:0:0:0:
64,192,70373,1,0,0:0:0:0:
192,192,70604,1,0,0:0:0:0:
64,192,70835,128,0,71066:0:0:0:0:
192,192,71066,128,0,71296:0:0:0:0:
448,192,71296,1,0,0:0:0:0:
64,192,71758,128,0,72220:0:0:0:0:
192,192,72220,128,0,73143:0:0:0:0:
320,192,72220,128,0,73143:0:0:0:0:
448,192,73143,1,0,0:0:0:0:
448,192,73604,128,0,74066:0:0:0:0:
320,192,74066,128,0,74296:0:0:0:0:
192,192,74527,128,0,74758:0:0:0:0:
448,192,74989,1,0,0:0:0:0:
64,192,75912,128,0,76143:0:0:0:0:
192,192,75912,1,0,0:0:0:0:
192,192,76373,128,0,76604:0:0:0:0:
320,192,76373,1,0,0:0:0:0:
448,192,76835,128,0,77296:0:0:0:0:
320,192,76835,1,0,0:0:0:0:
192,192,77296,128,0,77758:0:0:0:0:
64,192,77758,128,0,78681:0:0:0:0:
448,192,77758,128,0,78681:0:0:0:0:
192,192,78681,1,0,0:0:0:0:
320,192,78681,1,0,0:0:0:0:
448,192,79143,128,0,79258:0:0:0:0:
64,192,79604,128,0,80066:0:0:0:0:
192,192,80181,1,0,0:0:0:0:
448,192,80412,1,0,0:0:0:0:
192,192,80527,128,0,80643:0:0:0:0:
64,192,80643,1,0,0:0:0:0:
192,192,80873,1,0,0:0:0:0:
320,192,81104,1,0,0:0:0:0:
64,192,81335,1,0,0:0:0:0:
448,192,81450,128,0,82373:0:0:0:0:
320,192,81450,1,0,0:0:0:0:
192,192,81681,1,0,0:0:0:0:
320,192,81912,1,0,0:0:0:0:
192,192,82143,1,0,0:0:0:0:
320,192,82373,1,0,0:0:0:0:
64,192,82373,1,0,0:0:0:0:
192,192,82489,1,0,0:0:0:0:
64,192,83296,128,0,83527:0:0:0:0:
192,192,83296,1,0,0:0:0:0:
192,192,83758,128,0,83989:0:0:0:0:
320,192,84220,128,0,84681:0:0:0:0:
448,192,84681,128,0,85143:0:0:0:0:
64,192,85143,128,0,85373:0:0:0:0:
192,192,85143,128,0,85373:0:0:0:0:
448,192,85720,1,0,0:0:0:0:
192,192,85835,128,0,86066:0:0:0:0:
448,192,86066,1,0,0:0:0:0:
192,192,86412,1,0,0:0:0:0:
320,192,86758,1,0,0:0:0:0:
64,192,86989,128,0,87912:0:0:0:0:
192,192,86989,1,0,0:0:0:0:
320,192,87143,1,0,0:0:0:0:
192,192,87296,1,0,0:0:0:0:
320,192,87527,128,0,87758:0:0:0:0:
192,192,87912,1,0,0:0:0:0:
64,192,88835,128,0,89066:0:0:0:0:
320,192,88835,1,0,0:0:0:0:
192,192,89181,1,0,0:0:0:0:
448,192,89296,128,0,89758:0:0:0:0:
192,192,90220,128,0,90450:0:0:0:0:
64,192,90450,1,0,0:0:0:0:
448,192,90681,128,0,91143:0:0:0:0:
320,192,90681,1,0,0:0:0:0:
320,192,91373,128,0,91835:0:0:0:0:
192,192,91373,1,0,0:0:0:0:
192,192,92066,1,0,0:0:0:0:
64,192,92296,1,0,0:0:0:0:
192,192,92527,128,0,92758:0:0:0:0:
448,192,92527,1,0,0:0:0:0:
448,192,92989,128,0,93450:0:0:0:0:
64,192,94373,128,0,94604:0:0:0:0:
192,192,94835,1,0,0:0:0:0:
320,192,95296,128,0,95758:0:0:0:0:
64,192,96220,1,0,0:0:0:0:
64,192,96450,1,0,0:0:0:0:
320,192,96681,128,0,96912:0:0:0:0:
192,192,96912,1,0,0:0:0:0:
192,192,97143,128,0,97604:0:0:0:0:
320,192,97835,1,0,0:0:0:0:
448,192,98066,128,0,98412:0:0:0:0:
192,192,98527,1,0,0:0:0:0:
320,192,98758,128,0,98989:0:0:0:0:
448,192,98758,1,0,0:0:0:0:
192,192,99681,128,0,100143:0:0:0:0:
320,192,99681,1,0,0:0:0:0:
320,192,100373,1,0,0:0:0:0:
192,192,100604,1,0,0:0:0:0:
448,192,100950,1,0,0:0:0:0:
320,192,101066,1,0,0:0:0:0:
64,192,101296,1,0,0:0:0:0:
192,192,101527,128,0,101758:0:0:0:0:
320,192,101989,128,0,102220:0:0:0:0:
64,192,102450,128,0,102681:0:0:0:0:
192,192,103143,1,0,0:0:0:0:
448,192,103373,128,0,103604:0:0:0:0:
320,192,103604,128,0,104066:0:0:0:0:
192,192,104066,128,0,104527:0:0:0:0:
192,192,105450,128,0,105681:0:0:0:0:
320,192,105681,128,0,105912:0:0:0:0:
64,192,106143,128,0,106373:0:0:0:0:
448,192,107296,1,0,0:0:0:0:
320,192,107296,128,0,107527:0:0:0:0:
192,192,107758,1,0,0:0:0:0:
192,192,107989,128,0,108681:0:0:0:0:
448,192,108912,1,0,0:0:0:0:
64,192,109143,128,0,109373:0:0:0:0:
192,192,109604,128,0,109835:0:0:0:0:
320,192,109835,128,0,110527:0:0:0:0:
192,192,110527,128,0,110758:0:0:0:0:
64,192,110758,128,0,110989:0:0:0:0:
320,192,111681,128,0,112143:0:0:0:0:
192,192,112143,128,0,112373:0:0:0:0:
64,192,112604,128,0,112835:0:0:0:0:
192,192,112835,1,0,0:0:0:0:
64,192,113181,1,0,0:0:0:0:
320,192,113296,1,0,0:0:0:0:
448,192,113527,128,0,113989:0:0:0:0:
320,192,114220,1,0,0:0:0:0:
192,192,114450,1,0,0:0:0:0:
320,192,114681,128,0,114912:0:0:0:0:
448,192,114681,1,0,0:0:0:0:
192,192,115258,1,0,0:0:0:0:
448,192,115373,128,0,115604:0:0:0:0:
320,192,115835,1,0,0:0:0:0:
320,192,116066,1,0,0:0:0:0:
64,192,116296,1,0,0:0:0:0:
192,192,116527,1,0,0:0:0:0:
320,192,116758,1,0,0:0:0:0:
320,192,116989,128,0,117220:0:0:0:0:
448,192,117220,1,0,0:0:0:0:
192,192,117450,1,0,0:0:0:0:
192,192,117912,128,0,118373:0:0:0:0:
64,192,118373,128,0,118604:0:0:0:0:
320,192,118835,128,0,119066:0:0:0:0:
64,192,119296,1,0,0:0:0:0:
192,192,119527,1,0,0:0:0:0:
320,192,119758,1,0,0:0:0:0:
320,192,119989,1,0,0:0:0:0:
448,192,120220,128,0,120450:0:0:0:0:
320,192,120681,128,0,120912:0:0:0:0:
192,192,120912,128,0,121143:0:0:0:0:
64,192,121143,1,0,0:0:0:0:
64,192,121604,1,0,0:0:0:0:
320,192,121835,1,0,0:0:0:0:
192,192,122066,1,0,0:0:0:0:
64,192,122066,128,0,122527:0:0:0:0:
64,192,123450,1,0,0:0:0:0:
320,192,123566,1,0,0:0:0:0:
64,192,123681,1,0,0:0:0:0:
320,192,123796,1,0,0:0:0:0:
64,192,124143,128,0,124373:0:0:0:0:
320,192,124604,128,0,125296:0:0:0:0:
64,192,125527,1,0,0:0:0:0:
64,192,125758,1,0,0:0:0:0:
320,192,125989,128,0,126220:0:0:0:0:
192,192,126220,128,0,126450:0:0:0:0:
192,192,126681,128,0,127027:0:0:0:0:
448,192,127143,128,0,127604:0:0:0:0:
192,192,127604,1,0,0:0:0:0:
320,192,127835,1,0,0:0:0:0:
64,192,128066,128,0,128296:0:0:0:0:
192,192,128527,1,0,0:0:0:0:
64,192,128758,128,0,128989:0:0:0:0:
192,192,128989,128,0,129220:0:0:0:0:
448,192,129220,128,0,129681:0:0:0:0:
320,192,130027,128,0,130373:0:0:0:0:
192,192,130720,128,0,130950:0:0:0:0:
64,192,131066,128,0,131296:0:0:0:0:
320,192,132450,128,0,133373:0:0:0:0:
192,192,133027,128,0,133373:0:0:0:0:
192,192,133720,1,0,0:0:0:0:
320,192,133720,1,0,0:0:0:0:
320,192,133950,128,0,134296:0:0:0:0:
64,192,134527,1,0,0:0:0:0:
192,192,134758,1,0,0:0:0:0:
320,192,134989,128,0,135220:0:0:0:0:
320,192,135450,1,0,0:0:0:0:
64,192,135681,1,0,0:0:0:0:
192,192,135912,128,0,136373:0:0:0:0:
320,192,136604,128,0,137066:0:0:0:0:
192,192,139835,128,0,140527:0:0:0:0:
320,192,140527,1,0,0:0:0:0:
64,192,140758,1,0,0:0:0:0:
320,192,140989,128,0,141220:0:0:0:0:
192,192,141450,128,0,141796:0:0:0:0:
64,192,141912,1,0,0:0:0:0:
192,192,142143,1,0,0:0:0:0:
320,192,142373,1,0,0:0:0:0:
448,192,142604,128,0,142835:0:0:0:0:
320,192,143066,1,0,0:0:0:0:
192,192,143296,1,0,0:0:0:0:
320,192,143527,1,0,0:0:0:0:
320,192,143758,128,0,144220:0:0:0:0:
64,192,144220,128,0,147912:0:0:0:0:
448,192,144220,1,0,0:0:0:0:
320,192,144450,1,0,0:0:0:0:
448,192,144681,1,0,0:0:0:0:
192,192,145604,1,0,0:0:0:0:
320,192,146066,1,0,0:0:0:0:
448,192,146066,1,0,0:0:0:0:
192,192,146296,1,0,0:0:0:0:
320,192,146527,1,0,0:0:0:0:
192,192,146989,1,0,0:0:0:0:
320,192,146989,1,0,0:0:0:0:
448,192,147220,1,0,0:0:0:0:
320,192,147450,1,0,0:0:0:0:
192,192,147912,1,0,0:0:0:0:
320,192,147912,1,0,0:0:0:0:
448,192,148258,1,0,0:0:0:0:
64,192,148604,1,0,0:0:0:0:
192,192,148835,1,0,0:0:0:0:
448,192,149296,1,0,0:0:0:0:
192,192,149758,128,0,149989:0:0:0:0:
320,192,149758,1,0,0:0:0:0:
320,192,150220,128,0,150450:0:0:0:0:
448,192,150681,128,0,150912:0:0:0:0:
448,192,151143,128,0,151373:0:0:0:0:
64,192,151604,128,0,152527:0:0:0:0:
448,192,151604,128,0,152527:0:0:0:0:
192,192,151604,1,0,0:0:0:0:
320,192,151835,1,0,0:0:0:0:
192,192,152066,1,0,0:0:0:0:
320,192,152296,1,0,0:0:0:0:
320,192,152527,1,0,0:0:0:0:
192,192,152527,1,0,0:0:0:0:
192,192,153450,128,0,154373:0:0:0:0:
320,192,153450,128,0,154373:0:0:0:0:
64,192,153450,1,0,0:0:0:0:
448,192,153681,1,0,0:0:0:0:
64,192,153912,1,0,0:0:0:0:
448,192,154143,1,0,0:0:0:0:
64,192,154373,1,0,0:0:0:0:
448,192,154373,1,0,0:0:0:0:
64,192,155296,128,0,155758:0:0:0:0:
64,192,156220,1,0,0:0:0:0:
448,192,156681,1,0,0:0:0:0:
64,192,157143,1,0,0:0:0:0:
192,192,157143,1,0,0:0:0:0:
320,192,157373,1,0,0:0:0:0:
64,192,157604,128,0,157835:0:0:0:0:
320,192,158066,1,0,0:0:0:0:
192,192,158296,1,0,0:0:0:0:
192,192,158527,1,0,0:0:0:0:
448,192,158758,128,0,159912:0:0:0:0:
64,192,158989,128,0,159912:0:0:0:0:
192,192,158989,1,0,0:0:0:0:
320,192,159220,1,0,0:0:0:0:
192,192,159450,1,0,0:0:0:0:
320,192,159681,1,0,0:0:0:0:
320,192,159912,1,0,0:0:0:0:
192,192,159912,1,0,0:0:0:0:
192,192,160373,128,0,160489:0:0:0:0:
320,192,160835,128,0,161296:0:0:0:0:
320,192,161758,1,0,0:0:0:0:
448,192,161758,1,0,0:0:0:0:
448,192,162220,128,0,162681:0:0:0:0:
192,192,163143,1,0,0:0:0:0:
320,192,163143,1,0,0:0:0:0:
64,192,163604,1,0,0:0:0:0:
448,192,163604,1,0,0:0:0:0:
64,192,164527,1,0,0:0:0:0:
64,192,164758,1,0,0:0:0:0:
320,192,164989,1,0,0:0:0:0:
192,192,165220,1,0,0:0:0:0:
320,192,165450,128,0,165912:0:0:0:0:
192,192,166143,128,0,167296:0:0:0:0:
64,192,166373,128,0,167296:0:0:0:0:
448,192,166720,1,0,0:0:0:0:
320,192,166950,1,0,0:0:0:0:
448,192,167181,1,0,0:0:0:0:
320,192,167296,1,0,0:0:0:0:
320,192,168220,128,0,169143:0:0:0:0:
448,192,169143,1,0,0:0:0:0:
320,192,169373,1,0,0:0:0:0:
192,192,169604,1,0,0:0:0:0:
64,192,169720,1,0,0:0:0:0:
448,192,169835,1,0,0:0:0:0:
64,192,170066,128,0,170989:0:0:0:0:
192,192,170066,1,0,0:0:0:0:
320,192,170296,1,0,0:0:0:0:
192,192,170527,1,0,0:0:0:0:
320,192,170758,1,0,0:0:0:0:
192,192,170989,1,0,0:0:0:0:
64,192,171912,128,0,172143:0:0:0:0:
64,192,172373,1,0,0:0:0:0:
192,192,172604,1,0,0:0:0:0:
192,192,172835,128,0,173296:0:0:0:0:
320,192,173296,128,0,173758:0:0:0:0:
320,192,173989,128,0,174335:0:0:0:0:
320,192,174681,128,0,175027:0:0:0:0:
320,192,175373,128,0,175604:0:0:0:0:
64,192,175604,128,0,176527:0:0:0:0:
448,192,175604,128,0,176527:0:0:0:0:
192,192,176527,1,0,0:0:0:0:
320,192,176527,1,0,0:0:0:0:
64,192,177450,128,0,177912:0:0:0:0:
448,192,177450,128,0,177912:0:0:0:0:
64,192,178373,1,0,0:0:0:0:
448,192,178373,1,0,0:0:0:0:
