osu file format v14

[General]
AudioFilename: audio.mp3
AudioLeadIn: 0
PreviewTime: 103688
Countdown: 1
SampleSet: None
StackLeniency: 0.7
Mode: 0
LetterboxInBreaks: 0
WidescreenStoryboard: 1

[Editor]
DistanceSpacing: 1.7
BeatDivisor: 4
GridSize: 8
TimelineZoom: 1.3

[Metadata]
Title:Freely Tomorrow
TitleUnicode:Freely Tomorrow
Artist:Lucia Avens
ArtistUnicode:「Lucia」
Creator:-BlastTheKidd-
Version:hsound
Source:
Tags:Lucia Avens Vocaloid Cover Mitchie M ЯIRE 初音ミク Miku
BeatmapID:1917469
BeatmapSetID:813759

[Difficulty]
HPDrainRate:5
CircleSize:3
OverallDifficulty:4
ApproachRate:8
SliderMultiplier:1.5
SliderTickRate:1

[Events]
//Background and Video events
0,0,"Wallp.jpg",0,0
//Break Periods
2,142415,143360
//Storyboard Layer 0 (Background)
//Storyboard Layer 1 (Fail)
//Storyboard Layer 2 (Pass)
//Storyboard Layer 3 (Foreground)
//Storyboard Sound Samples

[TimingPoints]
110,631.578947368421,4,2,0,100,1,0
741,-100,4,2,2,100,0,0
2636,-100,4,2,3,100,0,1
4531,-100,4,2,4,100,0,1
5162,-100,4,2,5,100,0,1
6267,-100,4,2,3,100,0,1
6583,-100,4,2,5,100,0,1
7057,-100,4,2,6,100,0,1
7373,-100,4,2,4,100,0,1
7688,-100,4,2,5,100,0,1
8004,-100,4,2,4,100,0,0
8162,-100,4,2,5,100,0,0
8952,-100,4,2,3,100,0,0
9267,-100,4,2,6,100,0,0
10215,-100,4,2,3,100,0,0
12109,-100,4,2,5,100,0,0
12741,-100,4,2,3,100,0,1
14636,-100,4,2,4,100,0,1
15267,-100,4,2,5,100,0,1
16373,-100,4,2,3,100,0,1
16688,-100,4,2,5,100,0,1
17162,-100,4,2,7,100,0,1
18425,-100,4,2,8,100,0,0
19688,-100,4,2,3,100,0,0
20320,-100,4,2,9,100,0,0
22057,-100,4,2,10,100,0,0
22846,-100,4,2,11,100,0,0
26636,-100,4,2,12,100,0,0
27267,-100,4,2,11,100,0,0
29162,-100,4,2,0,100,0,0
29794,-100,4,2,12,100,0,0
30741,-100,4,2,13,100,0,0
32636,-100,4,2,3,100,0,0
32952,-100,4,2,11,100,0,0
36110,-100,4,2,14,100,0,0
36741,-100,4,2,11,100,0,0
37373,-100,4,2,14,100,0,0
43057,-117.647058823529,4,2,0,5,0,0
43688,-117.647058823529,4,2,0,5,0,0
44320,-117.647058823529,4,2,0,5,0,0
44952,-117.647058823529,4,2,0,5,0,0
45267,-117.647058823529,4,2,0,15,0,0
45583,-117.647058823529,4,2,0,5,0,0
46215,-117.647058823529,4,2,0,5,0,0
46846,-117.647058823529,4,2,0,5,0,0
47478,-117.647058823529,4,2,0,15,0,0
48110,-117.647058823529,4,2,0,5,0,0
48741,-117.647058823529,4,2,0,5,0,0
49373,-117.647058823529,4,2,0,5,0,0
50004,-117.647058823529,4,2,0,15,0,0
50636,-117.647058823529,4,2,0,5,0,0
51267,-117.647058823529,4,2,0,5,0,0
51899,-117.647058823529,4,2,0,25,0,0
52215,-100,4,2,0,60,0,0
58846,-100,4,2,0,80,0,0
61846,-100,4,2,0,90,0,0
63267,-100,4,2,0,100,0,0
103688,-100,4,2,0,100,0,1
108741,-100,4,2,0,100,0,0
113162,-100,4,2,0,100,0,1
113478,-100,4,2,0,100,0,1
121373,-100,4,2,0,100,0,0
123899,-100,4,2,0,100,0,1
134004,-100,4,2,0,100,0,0
144110,-100,4,2,0,30,0,0

[Colours]
Combo1 : 0,64,128
Combo2 : 0,0,128
Combo3 : 114,36,219
Combo4 : 128,128,255

[HitObjects]
80,96,741,6,0,B|64:136|64:136|117:197|88:240,2,150,8|4|2,0:0|0:0|0:0,0:0:0:0:
240,8,2636,22,0,B|323:56,1,75,8|0,0:0|0:0,0:0:0:0:
288,136,3267,1,2,0:0:0:0:
160,184,3741,1,4,0:0:0:0:
160,184,4057,2,0,B|200:224|200:224|224:280,1,112.5,2|8,0:0|0:0,0:0:0:0:
120,264,4846,1,4,0:0:0:0:
200,304,5162,38,0,B|288:344|288:344,1,75,8|0,0:0|0:0,0:0:0:0:
336,280,5794,1,2,0:0:0:0:
312,144,6267,1,4,0:0:0:0:
312,144,6583,2,0,P|392:96|424:64,1,112.5,2|8,0:0|0:0,0:0:0:0:
328,40,7373,1,4,0:0:0:0:
240,64,7688,6,8,L|176:136,1,75
160,88,8162,2,0,L|176:176,1,75
128,168,8636,1,2,0:0:0:0:
184,248,8952,37,4,0:0:0:0:
240,320,9267,1,0,0:0:0:0:
296,248,9583,1,0,0:0:0:0:
336,168,9899,1,4,0:0:0:0:
240,168,10215,2,0,L|152:168,1,75,0|4,0:0|0:0,0:0:0:0:
160,248,10846,6,0,L|88:304,1,75,2|0,0:0|0:0,0:0:0:0:
64,320,11320,1,6,0:0:0:0:
32,240,11636,2,0,L|0:152,1,75,2|0,0:0|0:0,0:0:0:0:
16,128,12109,1,8,0:0:0:0:
64,56,12425,1,8,0:0:0:0:
128,120,12741,38,0,B|152:152|152:152|200:168,1,75,8|0,0:0|0:0,0:0:0:0:
248,96,13373,1,2,0:0:0:0:
368,0,13846,1,4,0:0:0:0:
368,0,14162,2,0,P|416:48|408:120,1,112.5,2|8,0:0|0:0,0:0:0:0:
384,176,14952,1,4,0:0:0:0:
432,256,15267,6,0,B|360:304|360:304,1,75,8|0,0:0|0:0,0:0:0:0:
304,232,15899,1,4,0:0:0:0:
104,304,16373,1,4,0:0:0:0:
104,304,16688,2,0,L|80:232,1,75,4|0,0:0|0:0,0:0:0:0:
64,192,17162,37,8,0:0:0:0:
72,104,17478,1,10,0:0:0:0:
72,104,17636,2,0,B|104:104|136:8|184:24,1,112.5,4|0,0:0|0:0,0:0:0:0:
216,88,18425,37,8,0:0:0:0:
192,176,18741,1,8,0:0:0:0:
168,264,19057,1,8,0:0:0:0:
256,248,19373,1,4,0:0:0:0:
336,208,19688,2,0,B|356:172|356:172|333:109,1,75,4|0,0:0|0:0,0:0:0:0:
432,112,20320,2,0,P|384:56|304:72,2,150,4|8|2,0:0|0:0|0:0,0:0:0:0:
336,208,22057,1,8,0:0:0:0:
256,320,22531,1,4,0:0:0:0:
256,248,22846,38,0,B|248:192|248:192|256:168,1,75,2|0,0:0|0:0,0:0:0:0:
328,128,23478,2,0,B|304:80|304:80|280:64,1,75
208,104,24110,2,0,B|104:160|104:160|96:208,1,150,8|0,0:0|0:0,0:0:0:0:
184,216,25057,1,0,0:0:0:0:
184,216,25373,6,0,P|208:248|248:256,1,75,8|0,0:0|0:0,0:0:0:0:
280,176,26004,2,0,P|320:184|352:232,1,75,4|0,0:0|0:0,0:0:0:0:
305,290,26636,2,0,P|269:279|240:255,1,75,8|0,0:0|0:0,0:0:0:0:
155,282,27267,2,0,P|163:242|203:202,1,75,8|0,0:0|0:0,0:0:0:0:
240,144,27899,2,0,B|308:72|308:72|378:48,1,150,4|0,0:0|0:0,0:0:0:0:
504,152,29162,1,0,0:0:0:0:
504,240,29478,1,0,0:0:0:0:
416,272,29794,2,0,L|344:200,1,75,4|0,0:0|0:0,0:0:0:0:
288,168,30425,37,2,0:0:0:0:
200,152,30741,1,8,0:0:0:0:
200,152,30899,1,8,0:0:0:0:
200,152,31057,2,0,L|120:192,1,75,12|0,0:0|0:0,0:0:0:0:
208,240,31688,5,2,0:0:0:0:
128,280,32004,1,8,0:0:0:0:
128,280,32162,1,8,0:0:0:0:
128,280,32320,2,0,L|64:336,1,75,10|4,0:0|0:0,0:0:0:0:
40,248,32952,38,0,P|0:192|8:104,1,150,2|0,0:0|0:0,0:0:0:0:
176,164,34215,2,0,B|160:88|224:64|232:8,1,150,8|0,0:0|0:0,0:0:0:0:
336,168,35478,1,0,0:0:0:0:
456,160,36110,6,0,P|496:216|488:304,1,150,8|8,0:0|0:0,0:0:0:0:
320,244,37373,1,0,0:0:0:0:
144,192,38004,2,0,B|160:268|72:304|80:344,1,150
24,152,39267,1,0,0:0:0:0:
192,88,39899,1,0,0:0:0:0:
272,248,40531,1,0,0:0:0:0:
112,168,41162,2,0,B|152:168|152:168|184:192,1,75
208,104,41794,2,0,B|216:144|216:144|192:184,1,75
120,224,42425,2,0,P|144:248|196:253,1,75
256,232,43057,6,0,B|224:152|160:80|160:80|216:112|248:120|304:88|280:0|216:24,1,382.500007295609
391,25,45583,6,0,B|423:17|456:-1|456:-1|415:97|279:145|255:233,1,382.500007295609
104,260,48110,6,0,B|37:317|152:392|240:304|203:247|141:185|264:93|336:200|288:222,1,382.500007295609
440,248,50636,6,0,B|368:224|328:392|200:288|200:288,1,255.000004863739
136,240,52215,37,0,0:0:0:0:
176,160,52531,1,0,0:0:0:0:
208,72,52846,1,0,0:0:0:0:
296,80,53162,2,0,P|368:112|384:136,1,75
344,192,53794,1,0,0:0:0:0:
256,200,54110,2,0,B|222:279|272:262|227:352,1,150
72,272,55373,5,0,0:0:0:0:
160,264,55688,2,0,P|153:227|127:200,1,75
56,152,56320,1,0,0:0:0:0:
95,76,56636,2,0,P|143:129|127:200,1,150
72,272,57583,5,0,0:0:0:0:
127,199,57899,1,0,0:0:0:0:
176,280,58215,2,0,P|208:320|248:328,1,75
272,248,58846,1,0,0:0:0:0:
176,152,59320,2,0,B|152:152|120:0|64:8,1,187.5
440,272,60741,5,0,0:0:0:0:
385,199,61057,1,0,0:0:0:0:
336,280,61373,2,0,P|304:320|264:328,1,75
248,296,61846,1,0,0:0:0:0:
336,88,62636,1,0,0:0:0:0:
256,136,62952,1,0,0:0:0:0:
176,176,63267,22,0,L|104:328,1,150
296,312,64531,2,0,L|360:168,1,150
176,176,65794,1,0,0:0:0:0:
104,336,66425,1,0,0:0:0:0:
288,336,67057,1,0,0:0:0:0:
356,174,67688,1,0,0:0:0:0:
424,120,68004,1,0,0:0:0:0:
424,120,68320,38,0,P|368:72|296:88,1,150
144,176,69583,1,0,0:0:0:0:
320,176,70214,1,0,0:0:0:0:
213,86,70846,2,0,P|142:72|88:120,1,150
16,288,72109,1,0,0:0:0:0:
72,360,72425,1,0,0:0:0:0:
128,288,72741,2,0,L|168:216,1,75
224,152,73373,5,0,0:0:0:0:
272,232,73688,1,0,0:0:0:0:
320,152,74004,1,0,0:0:0:0:
376,224,74320,2,0,B|448:216|432:128|512:128,1,150
488,312,75583,37,0,0:0:0:0:
400,312,75899,2,0,L|376:392,1,75
312,320,76531,1,0,0:0:0:0:
224,296,76846,2,0,L|154:341,1,75
136,248,77478,21,0,0:0:0:0:
104,160,77794,2,0,B|72:192|72:192|24:208,1,75
40,112,78425,1,0,0:0:0:0:
112,64,78741,5,0,0:0:0:0:
160,144,79057,2,0,P|200:152|240:184,1,75
168,232,79688,1,0,0:0:0:0:
88,192,80004,37,0,0:0:0:0:
40,112,80320,2,0,B|48:72|48:72|66:43,1,75
152,72,80952,1,0,0:0:0:0:
296,176,81583,1,0,0:0:0:0:
152,288,82215,37,0,0:0:0:0:
224,168,82688,1,0,0:0:0:0:
304,280,83162,1,0,0:0:0:0:
144,192,83478,38,0,L|184:272,1,75
256,296,84109,2,0,L|296:376,1,75
368,320,84741,1,0,0:0:0:0:
320,240,85057,1,0,0:0:0:0:
232,216,85373,1,0,0:0:0:0:
184,136,85688,1,0,0:0:0:0:
112,80,86004,6,0,L|62:154,1,75
72,232,86636,1,0,0:0:0:0:
16,304,86952,1,0,0:0:0:0:
96,344,87267,2,0,L|152:272,1,75
200,216,87899,1,0,0:0:0:0:
256,144,88215,1,0,0:0:0:0:
344,152,88531,38,0,L|433:157,1,75
400,248,89162,1,0,0:0:0:0:
312,240,89478,1,0,0:0:0:0:
264,320,89794,1,0,0:0:0:0:
216,240,90109,1,0,0:0:0:0:
128,232,90425,1,0,0:0:0:0:
64,168,90741,2,0,P|32:224|56:312,2,150
230,103,92636,2,0,P|248:160|224:216,1,112.5
104,240,93583,6,0,P|120:280|208:320,1,112.5
256,208,94531,1,0,0:0:0:0:
336,168,94846,2,0,P|376:184|400:216,1,75
328,256,95478,2,0,L|341:296,1,37.5
216,344,96109,38,0,P|191:299|203:224,1,112.5
224,200,97057,1,0,0:0:0:0:
304,160,97372,2,0,P|318:118|309:79,1,75
231,109,98004,2,0,L|209:72,1,37.5
256,192,98636,12,0,101162,0:0:0:0:
384,224,101794,6,0,B|440:169|440:169|393:117|423:75,2,150
160,352,103688,6,0,B|89:293|89:293,1,75
170,245,104320,1,0,0:0:0:0:
60,166,104794,1,0,0:0:0:0:
128,104,105109,2,0,B|189:82|256:104,1,112.5
407,162,105899,1,0,0:0:0:0:
407,162,106215,6,0,B|429:198|429:198|435:244|435:244,1,75
352,280,106846,1,0,0:0:0:0:
200,320,107320,1,0,0:0:0:0:
200,320,107636,2,0,P|168:280|168:208,1,112.5
216,144,108425,1,0,0:0:0:0:
296,104,108741,38,0,P|288:168|256:184,1,75
328,184,109215,2,0,P|280:227|245:219,1,75
304,264,109688,1,0,0:0:0:0:
240,327,110004,5,0,0:0:0:0:
149,327,110320,1,0,0:0:0:0:
85,263,110636,1,0,0:0:0:0:
21,199,110952,1,0,0:0:0:0:
21,109,111267,2,0,B|33:70|89:46|89:46,1,75
152,96,111899,2,0,P|200:96|232:136,1,75
248,144,112373,37,0,0:0:0:0:
200,224,112688,1,0,0:0:0:0:
328,256,113162,37,0,0:0:0:0:
376,176,113478,1,0,0:0:0:0:
328,96,113794,6,0,P|280:136|280:176,1,75
277,235,114425,1,0,0:0:0:0:
200,344,114899,1,0,0:0:0:0:
200,344,115215,2,0,P|128:320|112:304,1,75
96,296,115688,1,0,0:0:0:0:
159,232,116004,1,0,0:0:0:0:
192,144,116320,6,0,B|288:192|288:192,1,75
296,256,116952,2,0,L|376:208,1,75
384,256,117425,2,0,B|416:176|416:176,1,75
464,64,118215,37,0,0:0:0:0:
400,128,118531,1,0,0:0:0:0:
400,128,118688,2,0,B|392:152|304:144|296:168,1,112.5
240,232,119478,1,0,0:0:0:0:
168,184,119794,1,0,0:0:0:0:
160,272,120109,2,0,P|208:264|240:224,1,75
168,184,120741,1,0,2:3:0:0:
88,224,121057,1,0,2:3:0:0:
16,280,121373,38,0,B|72:352|144:304,1,112.5
88,360,122004,38,0,B|177:379|201:296,1,112.5
216,360,122636,1,0,0:0:0:0:
256,232,123109,1,0,0:0:0:0:
368,312,123583,1,0,0:0:0:0:
440,256,123899,22,0,L|384:184,1,75
336,128,124531,1,0,0:0:0:0:
256,232,125004,1,0,0:0:0:0:
256,232,125320,2,0,P|200:192|168:192,1,75
152,200,125794,1,0,0:3:0:0:
80,248,126109,1,0,0:0:0:0:
56,336,126425,6,0,B|88:360|88:360|144:352,1,75
208,320,127057,1,0,0:0:0:0:
304,224,127531,1,0,0:0:0:0:
331,201,127846,2,0,P|339:145|323:97,1,75
304,96,128320,1,0,0:0:0:0:
224,64,128636,1,2,0:0:0:0:
160,128,128952,38,0,P|144:176|160:216,1,75,2|2,0:0|0:0,0:0:0:0:
168,240,129425,2,0,P|184:280|184:320,1,75
176,360,129899,1,0,0:0:0:0:
256,312,130215,5,0,0:0:0:0:
320,248,130531,1,0,0:0:0:0:
256,184,130846,2,0,L|192:112,1,75
256,48,131478,2,0,L|312:112,1,75
368,176,132110,2,0,P|368:216|344:256,1,75
328,280,132583,1,0,0:0:0:0:
256,224,132899,1,0,0:0:0:0:
256,256,133373,2,0,L|256:332,1,75
176,296,134004,5,0,0:0:0:0:
88,192,134478,1,0,0:0:0:0:
128,64,134952,1,0,0:0:0:0:
256,120,135583,2,0,L|256:32,1,75
336,80,136215,1,0,0:0:0:0:
408,128,136531,5,0,0:0:0:0:
288,192,137004,1,0,0:0:0:0:
408,264,137478,1,0,0:0:0:0:
408,80,138110,1,0,0:0:0:0:
352,152,138425,2,0,P|390:168|418:221,1,75
304,344,139057,6,0,B|224:328|170:254,2,150
408,192,140952,1,0,0:0:0:0:
256,88,141583,1,0,0:0:0:0:
256,272,142215,1,0,0:0:0:0:
448,296,144110,6,0,B|443:302|385:206|472:185|500:84|459:45|394:-8|309:23|312:76|304:139|304:139|208:114|152:181|170:279|265:324|295:250|325:294,1,750
