osu file format v14

[General]
AudioFilename: audio.mp3
AudioLeadIn: 0
PreviewTime: 103688
Countdown: 1
SampleSet: Soft
StackLeniency: 0.7
Mode: 0
LetterboxInBreaks: 0
WidescreenStoryboard: 1

[Editor]
DistanceSpacing: 1.1
BeatDivisor: 4
GridSize: 8
TimelineZoom: 1.4

[Metadata]
Title:Freely Tomorrow
TitleUnicode:Freely Tomorrow
Artist:Lucia Avens
ArtistUnicode:「Lucia」
Creator:-BlastTheKidd-
Version:Stream
Source:
Tags:Lucia Avens Vocaloid Cover Mitchie M ЯIRE 初音ミク Miku
BeatmapID:1711545
BeatmapSetID:813759

[Difficulty]
HPDrainRate:3
CircleSize:2
OverallDifficulty:2
ApproachRate:3
SliderMultiplier:1.5
SliderTickRate:1

[Events]
//Background and Video events
0,0,"Wallp.jpg",0,0
//Break Periods
//Storyboard Layer 0 (Background)
//Storyboard Layer 1 (Fail)
//Storyboard Layer 2 (Pass)
//Storyboard Layer 3 (Foreground)
//Storyboard Sound Samples

[TimingPoints]
110,631.578947368421,4,2,0,100,1,0
2636,-100,4,2,0,100,0,1
7688,-100,4,2,0,100,0,0
12741,-100,4,2,0,100,0,1
18425,-100,4,2,0,100,0,0
43057,-133.333333333333,4,2,0,5,0,0
43688,-133.333333333333,4,2,0,5,0,0
44320,-133.333333333333,4,2,0,5,0,0
44952,-133.333333333333,4,2,0,5,0,0
45267,-133.333333333333,4,2,0,15,0,0
45583,-133.333333333333,4,2,0,5,0,0
46215,-133.333333333333,4,2,0,5,0,0
46846,-133.333333333333,4,2,0,5,0,0
47478,-133.333333333333,4,2,0,15,0,0
48110,-133.333333333333,4,2,0,5,0,0
48741,-133.333333333333,4,2,0,5,0,0
49373,-133.333333333333,4,2,0,5,0,0
50004,-133.333333333333,4,2,0,15,0,0
50636,-133.333333333333,4,2,0,5,0,0
51267,-133.333333333333,4,2,0,5,0,0
51899,-133.333333333333,4,2,0,25,0,0
52215,-100,4,2,0,60,0,0
58846,-100,4,2,0,80,0,0
61846,-100,4,2,0,90,0,0
63267,-100,4,2,0,100,0,0
103688,-100,4,2,0,100,0,1
121373,-100,4,2,0,100,0,0
123899,-100,4,2,0,100,0,1
134004,-100,4,2,0,100,0,0
144110,-100,4,2,0,30,0,0

[Colours]
Combo1 : 0,64,128
Combo2 : 0,0,128
Combo3 : 114,36,219
Combo4 : 128,128,255

[HitObjects]
80,96,741,6,0,P|56:184|88:240,1,150
176,368,2004,1,0,0:0:0:0:
344,360,2636,22,0,B|392:296|392:296|376:216,1,150
328,112,3741,1,0,0:0:0:0:
248,80,4057,1,0,0:0:0:0:
128,96,4531,2,0,P|80:112|56:152,1,75
32,208,5162,38,0,B|24:288|24:288|80:336,1,150
192,296,6267,1,0,0:0:0:0:
264,344,6583,1,0,0:0:0:0:
376,288,7057,2,0,P|360:232|336:208,1,75
288,160,7688,6,0,L|248:272,1,112.5
128,272,8636,1,0,0:0:0:0:
176,344,8952,2,0,L|264:344,1,75
304,280,9583,2,0,L|368:240,1,75
384,160,10215,2,0,L|432:80,2,75
264,184,11320,1,0,0:0:0:0:
200,232,11636,1,0,0:0:0:0:
112,152,12109,38,0,P|136:112|176:88,1,75
232,56,12741,2,0,P|320:56|376:96,1,150
448,184,13846,1,0,0:0:0:0:
384,232,14162,1,0,0:0:0:0:
454,333,14636,2,0,P|422:380|380:389,1,75
372,311,15267,6,0,B|320:360|320:360|214:348,1,150
168,248,16373,1,0,0:0:0:0:
104,304,16688,1,0,0:0:0:0:
56,192,17162,37,0,0:0:0:0:
104,120,17478,1,0,0:0:0:0:
184,151,17794,2,0,P|159:209|163:235,1,75
224,270,18425,22,0,B|238:308|238:308|301:331,1,75
312,248,19057,2,0,B|352:251|352:251|399:203,1,75
320,160,19688,2,0,B|340:124|340:124|317:61,1,75
248,120,20320,2,0,P|200:64|120:80,1,150
24,200,21583,1,0,0:0:0:0:
112,288,22057,1,0,0:0:0:0:
232,328,22531,1,0,0:0:0:0:
256,248,22846,6,0,L|256:168,1,75
192,120,23478,2,0,L|144:56,1,75
88,120,24110,2,0,B|48:112|48:112|8:144,1,75
72,200,24741,2,0,P|40:224|48:272,1,75
120,272,25373,38,0,L|184:312,1,75
264,288,26004,2,0,L|344:328,1,75
400,272,26636,2,0,L|441:192,1,75
368,160,27267,2,0,L|409:80,1,75
344,32,27899,2,0,L|272:184,1,150
208,320,29162,1,0,0:0:0:0:
40,320,29794,1,0,0:0:0:0:
112,168,30425,2,0,B|152:176|173:208|173:208|216:200|256:232,3,150
408,192,32952,6,0,P|368:200|328:192,1,75
304,272,33583,2,0,P|264:264|231:238,1,75
160,272,34215,2,0,P|131:242|120:202,1,75
40,208,34846,2,0,P|40:167|60:130,1,75
120,80,35478,2,0,B|152:80|152:80|184:112|232:112|232:112|264:144,3,150
392,40,38004,38,0,P|416:112|368:192,1,150
296,312,39267,1,0,0:0:0:0:
136,360,39899,1,0,0:0:0:0:
24,240,40531,1,0,0:0:0:0:
120,104,41162,2,0,B|160:96|160:96|192:128,1,75
272,112,41794,2,0,B|280:152|280:152|256:192,1,75
192,240,42425,2,0,P|216:264|268:269,1,75
312,216,43057,22,8,B|360:160|352:120|320:72|336:40|384:0|448:16|480:40|496:96|480:144|408:144|400:96,1,393.750015020371,0|0,0:0|0:0,3:0:0:0:
416,168,45583,6,0,B|392:208|376:312|320:336|184:280|240:192|272:152,1,337.500012874604
352,72,48110,6,0,B|288:40|232:24|184:168|152:32|104:48|24:104,1,337.500012874604
104,200,50636,6,0,B|128:256|56:288|32:336|56:376|128:360|144:344|128:320,1,225.000008583069
200,280,52215,6,0,L|256:216,1,75
304,160,52846,2,0,L|256:89,1,75
184,120,53478,2,0,L|231:190,1,75
304,208,54110,2,0,B|336:288|360:240|392:336,1,150
232,368,55373,5,0,0:0:0:0:
152,336,55688,2,0,P|120:288|128:248,1,75
144,192,56320,1,0,0:0:0:0:
192,128,56636,2,0,P|208:56|144:0,1,150
80,24,57583,5,0,0:0:0:0:
48,96,57899,1,0,0:0:0:0:
72,176,58215,2,0,P|104:216|144:224,1,75
176,288,58846,2,0,P|288:312|288:312,2,112.5
392,384,60741,5,0,0:0:0:0:
472,360,61057,1,0,0:0:0:0:
496,280,61373,2,0,P|488:224|472:208,1,75
510,129,61846,2,0,P|448:56|408:48,1,112.5
208,160,63267,38,0,P|175:257|226:300,1,150
360,288,64531,2,0,P|384:224|344:152,1,150
192,85,65794,6,0,P|152:145|181:211,1,150
297,327,67057,1,0,0:0:0:0:
272,168,67688,1,0,0:0:0:0:
336,112,68004,1,0,0:0:0:0:
416,128,68320,38,0,P|464:176|439:246,1,150
297,327,69583,1,0,0:0:0:0:
272,168,70214,1,0,0:0:0:0:
136,80,70846,2,0,P|72:120|80:200,1,150
104,352,72109,1,0,0:0:0:0:
184,368,72425,2,0,L|264:376,2,75
136,304,73373,5,0,0:0:0:0:
72,256,73688,1,0,0:0:0:0:
112,184,74004,1,0,0:0:0:0:
192,176,74320,2,0,B|264:168|248:80|328:80,1,150
448,160,75583,5,0,0:0:0:0:
472,240,75899,2,0,L|448:320,1,75
368,304,76531,2,0,L|298:349,1,75
360,192,77478,5,0,0:0:0:0:
304,248,77794,2,0,P|264:280|224:296,1,75
136,160,78741,37,0,0:0:0:0:
216,152,79057,2,0,P|256:160|296:192,1,75
448,216,80004,5,0,0:0:0:0:
424,296,80320,2,0,P|416:336|384:376,1,75
312,368,80952,1,0,0:0:0:0:
176,280,81583,1,0,0:0:0:0:
80,144,82215,2,0,B|40:104|40:104|16:40,2,112.5
144,192,83478,6,0,L|184:272,1,75
216,328,84109,1,0,0:0:0:0:
288,280,84425,1,0,0:0:0:0:
248,208,84741,2,0,L|208:128,3,75
136,104,86004,6,0,L|86:178,3,75
174,202,87267,2,0,L|223:127,3,75
296,168,88531,6,0,L|385:173,1,75
449,173,89162,1,0,0:0:0:0:
444,87,89478,1,0,0:0:0:0:
361,85,89794,6,0,L|271:79,1,75
224,136,90425,2,0,P|184:160|152:189,1,75
240,216,91057,2,0,P|216:248|219:302,1,75
128,288,91688,2,0,P|88:288|56:341,1,75
40,232,92320,2,0,B|9:206|9:206|0:168,1,75
40,56,93109,1,0,0:0:0:0:
128,144,93583,6,0,P|144:184|176:208,1,75
248,176,94215,1,0,0:0:0:0:
320,136,94531,1,0,0:0:0:0:
400,104,94846,2,0,P|440:120|464:152,1,75
392,192,95478,2,0,L|405:232,1,37.5
392,352,96109,6,0,P|351:365|312:356,1,75
290,280,96741,1,0,0:0:0:0:
274,199,97057,1,0,0:0:0:0:
247,117,97372,2,0,P|209:96|169:98,1,75
185,180,98004,2,0,L|145:195,1,37.5
256,192,98636,12,0,101162,0:0:0:0:
432,96,101794,6,0,P|456:184|424:240,1,150
328,360,103057,1,0,0:0:0:0:
160,352,103688,2,0,B|104:304|104:304|80:224,1,150
88,104,104794,1,0,0:0:0:0:
136,40,105109,1,0,0:0:0:0:
256,8,105583,2,0,P|336:32|344:48,1,75
280,88,106215,6,0,B|304:152|304:152|264:224,1,150
200,320,107320,1,0,0:0:0:0:
128,288,107636,1,0,0:0:0:0:
48,192,108109,2,0,B|56:120|56:120|112:64,1,150
232,32,109215,37,0,0:0:0:0:
344,88,109688,1,0,0:0:0:0:
400,152,110004,2,0,P|400:200|360:240,1,75
304,200,110636,2,0,P|273:236|216:241,1,75
168,272,111267,2,0,B|208:336|208:336|296:360,1,150
376,280,112373,5,0,0:0:0:0:
408,208,112688,1,0,0:0:0:0:
328,112,113162,38,0,B|296:96|296:96|224:112,1,75
184,144,113794,2,0,P|120:192|112:264,1,150
200,344,114899,1,0,0:0:0:0:
280,376,115215,1,0,0:0:0:0:
392,328,115688,2,0,P|424:304|440:272,1,75
360,248,116320,6,0,B|392:176|392:176|360:112,1,150
296,56,117425,2,0,B|216:32|216:32,1,75
104,56,118215,1,0,0:0:0:0:
32,96,118531,1,0,0:0:0:0:
80,160,118846,6,0,L|136:232,1,75
208,200,119478,2,0,L|264:272,1,75
336,240,120109,2,0,L|392:312,1,75
432,368,120741,1,0,2:3:0:0:
496,320,121057,1,0,2:3:0:0:
472,240,121373,6,0,P|440:168|360:112,2,150
432,360,123109,1,0,0:0:0:0:
352,264,123583,1,0,0:0:0:0:
296,200,123899,6,0,L|240:128,1,75
196,77,124531,1,0,0:0:0:0:
77,40,125004,1,0,0:0:0:0:
33,110,125320,1,0,0:0:0:0:
53,232,125794,2,0,P|80:256|120:264,1,75,0|0,0:3|0:0,0:0:0:0:
184,208,126425,6,0,B|216:232|216:232|272:224,1,75
328,208,127057,1,0,0:0:0:0:
424,288,127531,1,0,0:0:0:0:
368,352,127846,1,0,0:0:0:0:
248,376,128320,6,0,P|192:368|155:337,2,75
368,352,129425,1,0,0:0:0:0:
408,232,129899,1,0,0:0:0:0:
432,152,130215,22,0,L|456:72,1,75
368,72,130846,2,0,P|376:32|357:-6,1,75
288,40,131478,2,0,P|256:0|224:0,1,75
208,72,132110,1,0,0:0:0:0:
96,120,132583,1,0,0:0:0:0:
152,184,132899,1,0,0:0:0:0:
256,256,133373,2,0,L|256:332,1,75
182,293,134004,6,0,P|78:337|78:337,1,112.5
120,216,134952,1,0,0:0:0:0:
256,120,135583,2,0,L|256:40,2,75
312,184,136531,6,0,P|416:140|416:140,1,112.5
328,56,137478,1,0,0:0:0:0:
256,200,138110,1,0,0:0:0:0:
314,258,138425,2,0,P|352:274|380:327,1,75
304,344,139057,6,0,B|230:303|170:254,1,150
259,116,140320,2,0,B|277:90|366:85|347:6|277:26|275:48,1,150
127,89,141583,2,0,B|119:57|37:22|82:-45|141:-2|135:18,1,150,0|0,0:3|0:3,0:3:0:0:
240,288,144110,6,0,B|235:293|182:194|270:178|303:79|265:38|202:-19|115:8|116:62|112:128|112:128|10:94|-49:158|-36:257|56:307|89:234|117:280,1,750
