osu file format v14

[General]
AudioFilename: audio.mp3
AudioLeadIn: 0
PreviewTime: 50020
Countdown: 0
SampleSet: Soft
StackLeniency: 0.7
Mode: 0
LetterboxInBreaks: 0
WidescreenStoryboard: 1

[Editor]
Bookmarks: 8072,11325,20351,37343
DistanceSpacing: 1
BeatDivisor: 2
GridSize: 8
TimelineZoom: 1.4

[Metadata]
Title:go to Romance>>>>>
TitleUnicode:go to Romance>>>>>
Artist:Luce Twinkle Wink
ArtistUnicode:Luce Twinkle Wink
Creator:misternopal
Version:Urara
Source:Urara Meirochou
Tags:chiya tatsumi kon yukimi koume natsume nono ending ed labyrinth town
BeatmapID:1456976
BeatmapSetID:659246

[Difficulty]
HPDrainRate:6
CircleSize:4
OverallDifficulty:7
ApproachRate:7
SliderMultiplier:1.20000000596046
SliderTickRate:1

[Events]
//Background and Video events
0,0,"bg.jpg",0,0
//Break Periods
//Storyboard Layer 0 (Background)
//Storyboard Layer 1 (Fail)
//Storyboard Layer 2 (Pass)
//Storyboard Layer 3 (Foreground)
//Storyboard Sound Samples

[TimingPoints]
174,530.973451327434,4,2,1,80,1,0
174,-200,4,2,1,50,0,0
704,-66.6666666666667,4,2,1,50,0,0
1368,-100,4,2,1,50,0,0
3359,-66.6666666666667,4,2,1,50,0,0
7607,-100,4,2,1,50,0,0
11856,-100,4,2,1,50,0,0
19821,-100,4,3,1,70,0,0
28847,-125,4,2,1,60,0,0
37343,-125,4,2,1,40,0,0
41590,-100,4,3,1,70,0,0
45838,-100,4,3,1,80,0,0
50086,-83.3333333333333,4,2,1,80,0,1
75573,-83.3333333333333,4,2,1,70,0,0
77697,-83.3333333333333,4,2,1,70,0,0

[Colours]
Combo1 : 26,151,234
Combo2 : 236,75,47
Combo3 : 190,215,19
Combo4 : 232,21,69

[HitObjects]
232,288,174,5,0,0:0:0:0:
232,288,339,5,0,0:0:0:0:
400,176,704,2,0,L|376:144,6,30.0000001490115
312,72,1368,6,0,B|280:80|248:64|216:72,2,90.0000004470345
424,192,2563,1,0,0:0:0:0:
360,280,2828,1,0,0:0:0:0:
256,312,3094,1,0,0:0:0:0:
256,312,3138,1,0,0:0:0:0:
160,272,3359,6,0,L|136:248,1,22.5000009700655
72,168,3625,1,0,0:0:0:0:
200,88,3890,1,0,0:0:0:0:
320,168,4156,1,0,0:0:0:0:
344,48,4421,6,0,L|424:48,1,67.5000029101966
456,128,4820,2,0,B|448:160|464:192|456:224,1,90.0000038802622
448,232,5151,1,0,0:0:0:0:
441,236,5218,1,0,0:0:0:0:
368,288,5483,6,0,L|352:304,1,22.5000009700655
264,304,5749,1,0,0:0:0:0:
184,176,6014,1,0,0:0:0:0:
264,56,6280,1,0,0:0:0:0:
328,160,6545,6,0,P|372:152|416:155,1,90.0000038802621
424,168,6943,2,0,B|424:208|448:232|448:264,1,90.0000038802622
448,272,7275,1,0,0:0:0:0:
441,276,7342,1,0,0:0:0:0:
312,280,7607,6,0,B|261:301|181:309|141:245|77:277,1,240.000001192092
208,72,9200,1,0,0:0:0:0:
448,104,9731,2,0,B|448:160|448:160|392:192|392:192|368:256|368:256|328:272|328:272|324:279,1,240.000001192092
96,280,11324,5,0,0:0:0:0:
216,280,11589,1,0,0:0:0:0:
312,208,11855,1,0,0:0:0:0:
320,208,11899,1,0,0:0:0:0:
432,208,12120,2,0,L|432:136,1,60.000000298023
384,40,12651,1,0,0:0:0:0:
384,40,12884,5,0,0:0:0:0:
384,40,12950,2,0,B|360:56|368:88|344:104,1,60.000000298023
432,184,13448,1,0,0:0:0:0:
432,304,13713,1,0,0:0:0:0:
296,240,13979,1,0,0:0:0:0:
144,296,14244,5,0,0:0:0:0:
144,96,14510,1,0,0:0:0:0:
240,160,14687,1,0,0:0:0:0:
400,64,14941,2,0,L|400:128,1,60.000000298023
400,144,15306,1,0,0:0:0:0:
280,200,15593,5,0,0:0:0:0:
344,296,15837,1,0,0:0:0:0:
144,296,16070,1,0,0:0:0:0:
80,184,16368,1,0,0:0:0:0:
160,104,16634,2,0,L|208:104,1,40.000000198682
312,64,17076,2,0,L|400:64,1,82.5000004097816
424,64,17662,2,0,L|424:152,1,75.0000003725288
336,208,18227,1,0,0:0:0:0:
200,120,18492,5,0,0:0:0:0:
200,208,18758,1,0,0:0:0:0:
200,120,18924,1,0,0:0:0:0:
96,168,19189,2,0,L|96:240,1,60.000000298023
96,248,19554,1,0,0:0:0:0:
200,208,19820,5,0,0:0:0:0:
296,224,20019,1,0,3:0:0:0:
296,224,20085,1,8,0:0:0:0:
296,224,20151,1,8,0:0:0:0:
296,224,20218,1,8,0:0:0:0:
296,224,20284,1,8,0:0:0:0:
296,224,20350,2,0,L|368:224,1,60.000000298023
424,136,20881,5,0,0:0:0:0:
328,80,21147,1,0,0:0:0:0:
224,120,21412,2,0,L|160:144,1,60.000000298023
168,200,21811,2,0,L|104:224,1,60.000000298023
104,224,22143,1,0,0:0:0:0:
104,224,22209,1,0,0:0:0:0:
176,296,22474,5,0,0:0:0:0:
272,240,22740,1,0,0:0:0:0:
176,296,23005,2,0,L|232:264,1,60.000000298023
272,240,23536,2,0,L|328:218,1,60.000000298023
328,160,23935,2,0,L|384:138,1,60.000000298023
392,136,24267,1,0,0:0:0:0:
392,136,24333,1,0,0:0:0:0:
312,64,24598,6,0,P|280:56|248:64,1,60.000000298023
152,88,25129,1,0,0:0:0:0:
120,248,25660,6,0,P|114:218|122:189,1,60.000000298023
152,88,26191,1,0,0:0:0:0:
368,192,26722,5,0,0:0:0:0:
368,192,26988,5,0,0:0:0:0:
216,256,27253,2,0,L|264:256,1,45.0000002235173
400,312,27718,1,0,0:0:0:0:
400,168,28050,5,0,0:0:0:0:
328,72,28315,1,0,0:0:0:0:
232,72,28515,1,0,0:0:0:0:
232,72,28581,1,0,0:0:0:0:
136,72,28780,1,0,0:0:0:0:
136,72,28846,1,0,0:0:0:0:
256,152,29112,5,0,0:0:0:0:
128,232,29377,1,0,0:0:0:0:
256,312,29643,2,0,L|296:312,1,36.0000001788138
336,312,29908,1,0,0:0:0:0:
384,232,30174,5,0,0:0:0:0:
256,152,30439,1,0,0:0:0:0:
384,72,30704,2,0,L|344:72,1,36.0000001788138
304,80,30970,1,0,0:0:0:0:
224,152,31235,5,0,0:0:0:0:
144,80,31500,5,0,0:0:0:0:
64,152,31766,1,0,0:0:0:0:
112,224,31966,1,0,0:0:0:0:
112,224,32031,1,0,0:0:0:0:
200,224,32231,1,0,0:0:0:0:
200,224,32297,1,0,0:0:0:0:
280,296,32562,1,0,0:0:0:0:
384,264,32828,6,0,L|416:232,1,36.0000001788138
440,208,33093,1,0,0:0:0:0:
376,120,33359,1,0,0:0:0:0:
296,48,33624,5,0,0:0:0:0:
208,112,33890,2,0,L|176:128,1,36.0000001788138
136,144,34155,1,0,0:0:0:0:
112,224,34355,1,0,0:0:0:0:
112,224,34421,1,0,0:0:0:0:
192,296,34686,5,0,0:0:0:0:
296,328,34952,1,0,0:0:0:0:
384,296,35151,1,0,0:0:0:0:
384,296,35218,2,0,L|440:296,2,48.0000002384184
408,216,36014,5,0,0:0:0:0:
336,160,36214,1,0,0:0:0:0:
336,160,36280,1,0,0:0:0:0:
272,96,36479,1,0,0:0:0:0:
272,96,36545,1,0,0:0:0:0:
176,160,36811,5,0,0:0:0:0:
216,232,37054,1,0,0:0:0:0:
224,240,37098,1,0,0:0:0:0:
232,248,37143,1,0,0:0:0:0:
304,216,37342,6,0,L|408:216,2,96.0000004768368
256,152,38669,1,0,0:0:0:0:
224,128,38935,1,0,0:0:0:0:
192,104,39200,1,0,0:0:0:0:
128,152,39466,6,0,L|32:152,2,96.0000004768368
