osu file format v14

[General]
AudioFilename: audio.mp3
AudioLeadIn: 0
PreviewTime: 42
Countdown: 0
SampleSet: Soft
StackLeniency: 0.2
Mode: 0
LetterboxInBreaks: 0
WidescreenStoryboard: 1

[Editor]
Bookmarks: 11856,20351,28847,37343,50086,67077,77697,89113
DistanceSpacing: 1
BeatDivisor: 6
GridSize: 4
TimelineZoom: 3.699999

[Metadata]
Title:go to Romance>>>>> (TV Size)
TitleUnicode:go to Romance>>>>> (TV Size)
Artist:Luce Twinkle Wink*
ArtistUnicode:Luce Twinkle Wink☆
Creator:Shanipika
Version:Extra
Source:うらら迷路帖
Tags:Anime Urara Meirocho 1/3 ending ed Chiya Nono Natsume Kon Tatsumi Koume Yukimi 千矢 巽 紺 雪見 小梅 棗 ノノ
BeatmapID:1775561
BeatmapSetID:738265

[Difficulty]
HPDrainRate:4.5
CircleSize:4
OverallDifficulty:8
ApproachRate:9
SliderMultiplier:1.76
SliderTickRate:1

[Events]
//Background and Video events
0,0,"background.jpg",0,0
//Break Periods
//Storyboard Layer 0 (Background)
//Storyboard Layer 1 (Fail)
//Storyboard Layer 2 (Pass)
//Storyboard Layer 3 (Foreground)
//Storyboard Sound Samples

[TimingPoints]
606,265.486725663717,4,2,1,40,1,0
606,-66.6666666666667,4,2,1,40,0,0
1800,-66.6666666666667,4,2,1,55,0,0
2198,-62.5,4,2,1,55,0,0
2597,-58.8235294117647,4,2,1,55,0,0
2995,-55.5555555555556,4,2,1,55,0,0
3791,-83.3333333333333,4,2,1,40,0,0
5207,-66.6666666666667,4,2,1,40,0,0
5915,-83.3333333333333,4,2,1,40,0,0
7420,-66.6666666666667,4,2,1,40,0,0
11225,-100,4,2,1,30,0,0
12287,-100,4,2,2,25,0,0
20429,-100,4,2,1,25,0,0
20782,-76.9230769230769,4,2,1,40,0,0
25030,-50,4,2,1,40,0,0
25473,-71.4285714285714,4,2,1,40,0,0
26092,-50,4,2,1,40,0,0
26535,-71.4285714285714,4,2,1,40,0,0
27862,-71.4285714285714,4,2,1,40,0,0
28216,-50,4,2,1,40,0,0
29278,-100,4,2,1,35,0,0
36181,-66.6666666666667,4,2,1,35,0,0
36446,-100,4,2,1,35,0,0
37774,-133.333333333333,4,2,1,20,0,0
41667,-83.3333333333333,4,2,1,40,0,0
42021,-71.4285714285714,4,2,1,40,0,0
46402,-66.6666666666667,4,2,1,50,0,0
46800,-62.5,4,2,1,50,0,0
47198,-58.8235294117647,4,2,1,50,0,0
47597,-55.5555555555556,4,2,1,50,0,0
48526,-50,4,2,1,55,0,0
50517,-66.6666666666667,4,2,1,60,0,1
67508,-66.6666666666667,4,2,1,50,0,1
73349,-66.6666666666667,4,2,1,40,0,1
73880,-66.6666666666667,4,2,1,40,0,1
77862,-100,4,2,1,40,0,1
78128,-83.3333333333333,4,2,1,40,0,0
79632,-66.6666666666667,4,2,1,40,0,0
80252,-83.3333333333333,4,2,1,40,0,0
81756,-66.6666666666667,4,2,1,40,0,0
82641,-62.5,4,2,1,40,0,0
82906,-58.8235294117647,4,2,1,40,0,0
83172,-55.5555555555556,4,2,1,40,0,0
83703,-52.6315789473684,4,2,1,40,0,0
84234,-50,4,2,1,40,0,0
84499,-50,4,2,1,40,0,0
84765,-66.6666666666667,4,2,1,40,0,0
85296,-100,4,2,1,40,0,0
86623,-200,4,2,1,40,0,0
86712,-200,4,2,2,39,0,0
86800,-200,4,2,3,38,0,0
86889,-200,4,2,4,37,0,0
86977,-200,4,2,5,36,0,0
87066,-200,4,2,6,35,0,0
87154,-200,4,2,7,34,0,0
87243,-200,4,2,8,33,0,0
87331,-200,4,2,9,32,0,0
87420,-200,4,2,10,31,0,0
87508,-200,4,2,11,30,0,0
87597,-200,4,2,12,29,0,0
87685,-200,4,2,13,28,0,0
87774,-200,4,2,14,27,0,0
87862,-200,4,2,15,26,0,0
87951,-200,4,2,16,25,0,0
88039,-200,4,2,17,24,0,0
88128,-200,4,2,18,23,0,0
88216,-200,4,2,19,22,0,0
88305,-200,4,2,20,21,0,0
88393,-200,4,2,21,20,0,0
88482,-200,4,2,22,19,0,0
88570,-200,4,2,23,18,0,0
88659,-200,4,2,24,17,0,0
88747,-200,4,2,25,16,0,0
88836,-200,4,2,26,15,0,0
88924,-200,4,2,27,14,0,0
89013,-200,4,2,28,13,0,0
89101,-200,4,2,29,12,0,0
89190,-200,4,2,30,11,0,0
89278,-200,4,2,31,10,0,0
89367,-200,4,2,32,9,0,0
89455,-200,4,2,33,8,0,0
89544,-200,4,2,34,5,0,0

[Colours]
Combo1 : 166,255,255
Combo2 : 255,176,216
Combo3 : 255,255,176

[HitObjects]
65,65,606,5,8,1:3:0:0:
11,113,782,1,4,0:1:0:0:
92,155,1048,1,8,0:3:0:0:
120,131,1136,1,8,0:3:0:0:
140,164,1203,1,8,0:3:0:0:
140,203,1269,1,8,0:3:0:0:
116,236,1336,1,4,0:3:0:0:
80,251,1402,1,4,0:3:0:0:
44,275,1468,1,2,0:2:0:0:
26,321,1535,1,4,0:3:0:0:
48,372,1601,1,2,0:2:0:0:
94,384,1667,1,4,0:3:0:0:
147,362,1734,1,2,0:2:0:0:
188,331,1800,6,0,P|241:252|308:358,1,264.000010070801,12|0,1:0|1:1,0:0:0:0:
314,357,2198,2,0,P|268:246|183:330,1,281.6,4|0,1:2|3:1,0:0:0:0:
178,334,2597,2,0,P|271:241|317:366,1,299.200005706787,12|0,1:0|3:2,0:0:0:0:
328,364,2995,2,0,P|340:300|222:239,1,211.199993554688,14|0,1:0|0:0,0:0:0:0:
154,341,3260,2,0,P|172:265|215:227,1,105.599996777344,4|0,1:0|0:0,0:0:0:0:
254,317,3437,1,8,0:3:0:0:
328,378,3526,2,0,P|349:321|326:255,1,105.599996777344,8|0,1:0|0:0,0:0:0:0:
185,235,3703,1,8,0:3:0:0:
173,151,3791,6,0,P|207:107|246:99,1,70.3999978515626,6|0,1:0|0:0,0:0:0:0:
341,163,3968,1,2,0:0:0:0:
280,98,4057,2,0,P|246:87|212:94,1,70.3999978515626,8|0,0:1|0:0,0:0:0:0:
125,193,4234,1,2,0:1:0:0:
149,111,4322,2,0,P|198:85|237:94,1,70.3999978515626,0|0,1:1|0:0,0:0:0:0:
280,233,4499,1,2,0:0:0:0:
364,253,4588,2,0,P|406:239|431:202,1,70.3999978515626,8|0,1:0|0:0,0:0:0:0:
312,86,4765,1,2,0:0:0:0:
371,19,4853,2,0,P|393:117|365:132,1,140.799995703125,2|2,1:0|1:3,0:0:0:0:
75,52,5119,2,0,P|56:99|72:126,1,70.3999978515626,8|0,0:1|0:0,0:0:0:0:
139,230,5296,2,0,P|116:297|96:197,1,264.000010070801,4|4,1:3|0:3,0:0:0:0:
91,249,5650,1,8,1:1:0:0:
33,311,5915,6,0,P|95:339|124:332,1,70.3999978515626,4|0,1:0|0:0,0:0:0:0:
198,254,6092,1,2,0:0:0:0:
160,321,6181,2,0,P|98:349|69:342,1,70.3999978515626,8|0,0:1|0:0,0:0:0:0:
0,318,6358,1,2,0:1:0:0:
62,362,6447,2,0,P|130:361|153:342,1,70.3999978515626,2|0,1:0|0:0,0:0:0:0:
215,248,6623,1,2,0:0:0:0:
297,260,6712,2,0,P|331:290|333:340,1,70.3999978515626,8|0,0:1|0:0,0:0:0:0:
75,242,6889,1,2,0:0:0:0:
44,164,6977,2,0,P|68:101|143:66,1,140.799995703125,2|0,1:0|1:0,0:0:0:0:
258,181,7243,2,0,P|258:144|233:100,1,70.3999978515626,8|0,0:1|0:0,0:0:0:0:
113,212,7420,2,0,P|99:147|181:214,1,264.000010070801,4|4,1:3|0:3,0:0:0:0:
147,169,7774,1,8,0:1:0:0:
286,200,8039,6,0,P|286:147|198:43,1,176.000006713867,4|2,1:0|0:0,0:0:0:0:
22,114,8305,2,0,P|13:55|81:107,1,176.000006713867,8|2,0:1|0:0,0:0:0:0:
1,60,8570,2,0,P|53:31|82:118,1,176.000006713867,8|0,1:3|0:0,0:0:0:0:
19,230,8836,2,0,P|-2:297|103:339,1,176.000006713867,8|2,0:1|0:0,0:0:0:0:
229,277,9101,2,0,P|287:263|334:363,1,176.000006713867,4|0,1:0|0:0,0:0:0:0:
155,294,9367,2,0,P|208:247|335:258,1,176.000006713867,8|4,0:1|1:3,0:0:0:0:
436,357,9632,2,0,P|489:343|428:253,1,176.000006713867,8|2,1:3|0:0,0:0:0:0:
329,255,9898,1,8,1:0:0:0:
329,255,10163,6,0,P|318:181|396:131,1,176.000006713867,2|2,1:0|0:1,0:0:0:0:
511,177,10429,1,8,0:1:0:0:
511,177,10694,2,0,P|512:120|393:74,1,176.000006713867,2|2,1:0|0:3,0:0:0:0:
312,141,10959,1,8,0:1:0:0:
249,162,11048,1,8,0:1:0:0:
222,102,11136,1,0,1:1:0:0:
284,82,11225,1,4,1:0:0:0:
164,162,11402,1,0,0:0:0:0:
164,162,11490,1,8,0:3:0:0:
115,94,11756,6,0,P|123:155|161:202,1,117.333333333333,2|8,3:0|3:0,0:0:0:0:
225,237,12021,1,4,3:0:0:0:
225,237,12287,2,0,P|170:227|110:271,1,117.333333333333,0|0,3:1|0:0,0:0:0:0:
71,324,12552,1,8,0:2:0:0:
71,324,12818,1,8,3:1:0:0:
177,263,12995,2,0,P|215:259|250:273,1,58.6666666666667,0|10,3:1|0:0,0:0:0:0:
297,347,13260,1,2,3:0:0:0:
330,336,13349,1,4,3:0:0:0:
330,336,13614,5,8,0:0:0:0:
285,245,13791,1,0,3:0:0:0:
293,219,13880,2,0,P|321:189|397:204,1,117.333333333333,8|0,3:1|0:0,0:0:0:0:
369,328,14145,2,0,P|329:317|303:244,1,117.333333333333,8|0,0:0|0:0,0:0:0:0:
417,204,14411,2,0,P|428:243|377:302,1,117.333333333333,4|0,3:0|0:0,0:0:0:0:
360,251,14676,5,10,0:0:0:0:
360,251,14942,1,8,0:1:0:0:
417,131,15119,2,0,P|413:113|381:87,1,58.6666666666667,0|10,3:0|0:0,0:0:0:0:
268,127,15384,1,0,3:0:0:0:
224,144,15473,2,0,P|159:145|108:94,1,117.333333333333,4|2,3:0|3:0,0:0:0:0:
78,40,15738,2,0,P|104:108|92:158,1,117.333333333333,8|0,0:0|3:0,0:0:0:0:
34,218,16004,6,0,P|48:291|84:334,1,117.333333333333,8|2,3:1|0:3,0:0:0:0:
159,351,16269,1,8,0:0:0:0:
159,351,16535,2,0,P|229:313|296:337,1,117.333333333333,4|0,3:3|0:0,0:0:0:0:
339,361,16800,1,8,0:0:0:0:
339,361,17066,1,8,0:1:0:0:
403,262,17243,2,0,P|406:226|395:183,1,58.6666666666667,0|8,3:0|0:0,0:0:0:0:
316,127,17508,1,0,3:0:0:0:
331,101,17597,2,0,P|385:65|444:83,1,117.333333333333,4|0,3:3|3:0,0:0:0:0:
512,123,17862,6,0,P|440:56|395:54,1,117.333333333333,8|0,0:0|3:0,0:0:0:0:
316,127,18128,2,0,P|400:141|457:107,1,117.333333333333,8|0,3:1|0:0,0:0:0:0:
512,86,18393,2,0,P|416:56|374:73,1,117.333333333333,8|0,0:0|0:0,0:0:0:0:
283,202,18659,2,0,P|382:185|409:149,1,117.333333333333,4|0,3:0|0:0,0:0:0:0:
316,127,18924,5,8,0:0:0:0:
316,127,19190,1,8,0:1:0:0:
356,225,19367,2,0,P|331:253|306:268,1,58.6666666666667,2|8,0:0|0:0,0:0:0:0:
208,287,19632,1,0,3:0:0:0:
227,314,19721,2,0,P|296:345|365:329,1,117.333333333333,4|0,1:2|0:0,0:0:0:0:
408,287,19986,1,12,1:2:0:0:
508,368,20163,5,4,3:0:0:0:
489,339,20252,1,8,0:3:0:0:
448,180,20429,1,8,0:1:0:0:
508,138,20517,1,8,0:1:0:0:
456,81,20606,1,0,1:0:0:0:
380,69,20694,1,0,1:0:0:0:
307,99,20782,6,0,P|174:122|97:81,1,152.533326350912,4|0,1:0|3:0,0:0:0:0:
40,49,21048,1,8,0:1:0:0:
40,49,21313,1,0,1:0:0:0:
160,133,21490,1,0,3:0:0:0:
70,182,21579,2,0,P|77:134|85:163,1,152.533326350912,8|0,0:1|0:0,0:0:0:0:
122,306,21844,1,0,1:0:0:0:
55,156,22110,6,0,P|49:250|153:308,1,152.533326350912,8|0,0:1|3:0,0:0:0:0:
232,320,22375,2,0,P|179:274|182:315,1,152.533326350912,0|4,1:0|0:3,0:0:0:0:
316,368,22641,2,0,P|392:362|450:288,1,152.533326350912,8|0,0:1|0:0,0:0:0:0:
512,383,22906,5,0,1:0:0:0:
512,383,23172,2,0,P|472:337|474:228,1,152.533326350912,8|0,0:1|0:0,0:0:0:0:
503,146,23437,1,0,1:0:0:0:
422,36,23614,1,4,3:0:0:0:
371,118,23703,2,0,P|405:135|372:91,1,152.533326350912,8|0,0:1|3:0,0:0:0:0:
261,217,23968,1,0,1:1:0:0:
399,105,24234,2,0,P|303:142|218:115,1,152.533326350912,8|0,0:1|0:0,0:0:0:0:
164,86,24499,2,0,P|145:52|129:116,1,152.533326350912,2|0,1:0|0:0,0:0:0:0:
186,181,24765,2,0,P|148:253|76:252,1,152.533326350912,8|0,0:1|0:0,0:0:0:0:
11,235,25030,6,0,B|211:293|211:293|256:333,1,234.666666666667,4|0,1:0|0:0,0:0:0:0:
293,363,25296,1,8,1:0:0:0:
400,294,25473,1,4,3:1:0:0:
316,284,25561,2,0,P|307:226|360:268,1,164.266661653646,0|0,1:0|0:0,0:0:0:0:
167,354,25827,1,8,0:1:0:0:
505,262,26092,6,0,B|331:164|331:164|262:158,1,234.666666666667,4|0,1:0|0:0,0:0:0:0:
218,157,26358,1,8,0:1:0:0:
114,97,26535,1,8,3:0:0:0:
191,78,26623,2,0,P|201:34|149:79,1,164.266661653646,0|4,1:0|3:0,0:0:0:0:
256,226,26889,1,8,0:1:0:0:
51,6,27066,1,0,3:0:0:0:
33,41,27154,6,0,P|48:173|109:239,1,164.266661653646,4|4,1:0|3:0,0:0:0:0:
120,359,27420,2,0,P|52:299|118:268,1,164.266661653646,12|0,0:1|0:0,0:0:0:0:
256,364,27685,1,8,1:3:0:0:
401,233,27862,2,0,P|361:264|391:324,1,82.133330826823,8|0,3:0|0:0,0:0:0:0:
469,369,28128,2,0,P|493:312|405:371,1,246.399992480469,0|0,1:0|0:0,0:0:0:0:
351,384,28482,2,0,P|360:234|422:112,1,234.666666666667,12|0,1:0|0:0,0:0:0:0:
503,131,28747,5,8,0:3:0:0:
498,200,28836,1,8,0:3:0:0:
435,228,28924,1,4,0:3:0:0:
378,189,29013,1,4,0:3:0:0:
274,172,29190,1,4,0:3:0:0:
237,190,29278,5,8,3:0:0:0:
86,142,29455,1,2,0:0:0:0:
166,141,29544,1,2,0:3:0:0:
206,75,29721,1,0,1:0:0:0:
166,141,29809,1,8,0:1:0:0:
166,141,29986,1,2,0:3:0:0:
171,222,30075,2,0,P|141:266|117:268,1,58.6666666666667,4|0,3:0|0:0,0:0:0:0:
139,266,30252,1,0,1:0:0:0:
60,279,30340,6,0,P|40:316|93:369,1,117.333333333333,4|8,1:3|0:3,0:0:0:0:
177,360,30606,2,0,P|210:317|224:369,1,117.333333333333,0|2,1:0|0:3,0:0:0:0:
232,355,30871,2,0,P|265:312|279:364,1,117.333333333333,8|0,0:1|0:0,0:0:0:0:
287,350,31136,1,0,1:0:0:0:
292,354,31313,1,4,0:3:0:0:
327,377,31402,2,0,P|369:383|390:298,1,117.333333333333,8|0,1:3|0:0,0:0:0:0:
402,320,31667,1,2,0:3:0:0:
402,320,31844,1,0,1:0:0:0:
491,334,31933,2,0,P|513:274|463:224,1,117.333333333333,8|2,0:1|0:3,0:0:0:0:
485,233,32198,1,0,0:0:0:0:
371,225,32375,5,0,1:0:0:0:
350,157,32464,1,10,1:3:0:0:
447,171,32641,1,0,3:1:0:0:
471,93,32729,2,0,P|417:64|434:114,1,117.333333333333,0|2,1:0|0:3,0:0:0:0:
440,77,32995,1,8,1:1:0:0:
172,5,33260,6,0,P|218:66|270:88,1,117.333333333333,6|4,0:3|0:3,0:0:0:0:
335,81,33526,1,8,1:3:0:0:
153,200,33703,1,2,0:0:0:0:
93,143,33791,1,2,0:3:0:0:
209,144,33968,1,0,1:0:0:0:
153,200,34057,1,8,0:1:0:0:
153,200,34234,1,2,0:3:0:0:
168,276,34322,2,0,P|212:323|246:316,1,58.6666666666667,4|0,3:0|0:0,0:0:0:0:
201,320,34499,1,0,3:0:0:0:
285,295,34588,6,0,P|337:267|391:314,1,117.333333333333,0|0,1:0|0:0,0:0:0:0:
447,352,34853,2,0,P|490:354|446:305,1,117.333333333333,8|2,0:1|0:3,0:0:0:0:
480,297,35119,2,0,P|511:268|446:264,1,117.333333333333,8|0,0:1|0:0,0:0:0:0:
464,234,35384,1,0,1:0:0:0:
464,234,35561,1,0,3:0:0:0:
399,189,35650,2,0,P|374:135|473:81,1,176,8|2,1:3|0:3,0:0:0:0:
478,65,36181,6,0,P|365:56|277:75,1,176.000006713867,8|2,0:1|0:3,0:0:0:0:
211,103,36446,2,0,P|141:126|112:113,1,58.6666666666667,4|0,3:0|0:0,0:0:0:0:
99,80,36623,1,0,3:0:0:0:
136,149,36712,2,0,P|127:203|98:230,1,58.6666666666667,0|0,1:1|0:0,0:0:0:0:
42,215,36889,1,0,1:1:0:0:
121,243,36977,2,0,P|108:307|58:294,1,117.333333333333,4|2,1:3|0:3,0:0:0:0:
127,224,37243,2,0,P|110:318|45:298,1,176,8|6,0:1|1:3,0:0:0:0:
52,306,37774,6,0,P|106:317|126:361,1,88.0000033569337,4|0,1:0|0:0,0:0:0:0:
127,357,38039,2,0,P|171:339|216:355,1,88.0000033569337,0|0,1:0|0:0,0:0:0:0:
222,355,38305,2,0,P|266:376|312:361,1,88.0000033569337,0|0,1:0|0:0,0:0:0:0:
317,359,38570,2,0,P|366:349|411:371,1,88.0000033569337,0|0,1:0|0:0,0:0:0:0:
410,371,38836,2,0,P|437:328|433:279,1,88.0000033569337,0|0,1:0|0:0,0:0:0:0:
431,275,39101,2,2,P|423:204|466:157,1,132.000005035401,0|2,1:0|1:0,0:0:0:0:
459,160,39632,6,0,P|422:116|401:119,1,44.0000016784669,0|0,1:0|0:0,0:0:0:0:
419,115,39809,1,2,0:0:0:0:
345,134,39898,2,0,P|297:125|257:95,1,88.0000033569337,0|0,1:0|0:0,0:0:0:0:
230,38,40163,2,0,P|185:53|162:97,1,88.0000033569337,0|0,1:0|0:0,0:0:0:0:
162,100,40429,2,0,P|102:127|94:158,1,88.0000033569337,0|0,1:0|0:0,0:0:0:0:
97,163,40694,2,0,P|46:206|43:243,1,88.0000033569337,0|0,1:0|0:0,0:0:0:0:
52,238,40959,2,2,P|6:260|61:308,1,132.000005035401,0|0,1:0|1:0,0:0:0:0:
42,313,41490,6,0,P|98:289|144:327,1,88.0000033569337,2|8,1:0|0:3,0:0:0:0:
231,383,41756,2,0,P|301:363|298:299,1,140.799995703125,4|4,1:3|3:0,0:0:0:0:
193,312,42021,1,4,1:0:0:0:
316,303,42198,1,2,0:0:0:0:
368,252,42287,2,0,P|378:215|369:158,1,82.133330826823,0|0,1:0|0:0,0:0:0:0:
257,249,42464,1,2,0:1:0:0:
256,176,42553,2,0,P|275:142|354:209,1,164.266661653646,8|0,0:1|0:0,0:0:0:0:
223,175,42818,2,0,P|252:130|302:113,1,82.133330826823,4|0,1:3|0:0,0:0:0:0:
471,202,42995,2,0,P|446:112|386:201,1,246.399992480469,0|4,1:0|0:3,0:0:0:0:
278,97,43349,6,0,P|218:82|267:156,1,164.266661653646,8|2,1:3|0:1,0:0:0:0:
252,69,43614,2,0,P|190:113|247:175,1,164.266661653646,8|0,0:1|0:0,0:0:0:0:
222,64,43880,2,0,P|181:130|251:183,1,164.266661653646,0|4,1:0|3:0,0:0:0:0:
257,192,44145,6,0,P|211:238|179:247,1,82.133330826823,12|0,1:0|0:0,0:0:0:0:
65,236,44322,1,0,3:0:0:0:
102,168,44411,2,0,P|142:141|192:140,1,82.133330826823,0|0,1:1|0:1,0:0:0:0:
283,287,44588,1,4,0:3:0:0:
205,288,44677,2,0,P|161:266|135:224,1,82.133330826823,4|0,1:3|0:0,0:0:0:0:
230,70,44853,1,8,3:1:0:0:
263,140,44942,2,0,P|262:188|234:229,1,82.133330826823,0|0,1:1|0:0,0:0:0:0:
65,236,45119,2,0,P|64:149|135:223,1,246.399992480469,0|8,1:3|0:3,0:0:0:0:
263,140,45473,6,0,P|323:151|248:198,1,164.266661653646,8|0,1:3|0:0,0:0:0:0:
298,125,45738,2,0,P|335:191|257:223,1,164.266661653646,8|0,0:1|0:0,0:0:0:0:
327,133,46004,2,0,P|336:210|250:228,1,164.266661653646,0|0,1:0|1:0,0:0:0:0:
243,224,46269,1,8,1:0:0:0:
431,312,46402,6,0,P|378:233|311:339,1,264.000010070801,12|0,1:0|1:0,0:0:0:0:
305,338,46800,2,0,P|351:227|436:311,1,281.6,4|2,1:2|3:2,0:0:0:0:
441,315,47199,2,0,P|348:222|302:347,1,299.200005706787,12|2,1:0|3:2,0:0:0:0:
291,345,47597,2,0,P|279:281|397:220,1,211.199993554688,8|0,1:0|0:0,0:0:0:0:
465,322,47862,2,0,P|447:246|404:208,1,105.599996777344,0|0,1:0|0:0,0:0:0:0:
365,298,48039,1,8,0:3:0:0:
291,359,48128,2,0,P|270:302|293:236,1,105.599996777344,8|0,1:0|0:0,0:0:0:0:
434,216,48305,2,0,P|403:201|375:198,2,52.7999983886719,2|2|2,0:0|0:0|0:1,0:0:0:0:
44,287,48526,6,0,P|111:186|187:331,1,352,12|0,1:0|0:0,0:0:0:0:
203,319,48924,2,0,P|145:178|37:285,1,352,4|0,1:2|0:0,0:0:0:0:
31,290,49323,2,0,P|149:172|208:331,1,352,12|0,1:0|0:0,0:0:0:0:
221,328,49721,2,0,P|236:246|86:169,1,234.666666666667,10|0,1:0|0:0,0:0:0:0:
0,299,49986,2,0,P|22:202|71:156,1,117.333333333333,0|8,1:0|1:3,0:0:0:0:
127,268,50163,1,8,0:3:0:0:
221,347,50252,2,0,P|248:274|219:190,1,117.333333333333,8|8,1:0|1:3,0:0:0:0:
127,268,50429,1,4,0:3:0:0:
0,214,50517,6,0,P|43:155|86:135,1,88.0000033569337,4|0,1:0|0:0,0:0:0:0:
180,104,50694,1,4,3:0:0:0:
101,99,50782,2,0,P|58:110|23:136,1,88.0000033569337,8|0,1:0|0:1,0:0:0:0:
36,347,50959,1,0,3:0:0:0:
9,272,51048,2,0,P|23:200|53:164,1,88.0000033569337,8|0,1:3|0:0,0:0:0:0:
228,174,51225,1,4,3:0:0:0:
165,127,51313,2,0,P|121:119|78:127,1,88.0000033569337,8|0,1:0|0:0,0:0:0:0:
73,339,51490,1,0,3:0:0:0:
105,266,51579,2,2,P|181:234|239:327,1,176.000006713867,6|0,1:2|0:0,0:0:0:0:
360,357,51844,1,8,1:0:0:0:
428,174,52021,2,0,P|326:167|387:277,1,264.000010070801,0|0,3:3|0:0,0:0:0:0:
462,275,52375,1,8,1:0:0:0:
462,275,52641,6,0,P|399:254|370:214,1,88.0000033569337,0|0,1:0|0:0,0:0:0:0:
336,131,52818,1,4,3:0:0:0:
350,212,52906,2,0,P|369:250|405:276,1,88.0000033569337,8|0,1:0|0:0,0:0:0:0:
512,338,53083,1,0,3:0:0:0:
428,324,53172,2,0,P|358:294|336:249,1,88.0000033569337,8|0,1:3|0:0,0:0:0:0:
275,147,53349,1,4,3:0:0:0:
274,228,53437,2,0,P|286:269|317:301,1,88.0000033569337,8|0,1:0|0:0,0:0:0:0:
502,317,53614,1,0,0:0:0:0:
506,235,53703,2,0,P|477:161|365:116,1,176.000006713867,4|0,1:2|0:0,0:0:0:0:
290,31,53968,1,8,0:1:0:0:
157,230,54145,2,0,P|85:197|192:121,1,264.000010070801,0|0,3:0|0:0,0:0:0:0:
256,174,54499,1,8,1:0:0:0:
36,212,54765,6,0,P|83:259|120:267,1,88.0000033569337,0|0,1:0|0:0,0:0:0:0:
224,249,54942,1,0,3:0:0:0:
304,231,55030,2,2,P|372:247|386:276,1,88.0000033569337,8|0,1:0|0:0,0:0:0:0:
370,384,55207,1,0,3:0:0:0:
287,384,55296,2,0,P|271:347|279:296,1,88.0000033569337,4|0,1:3|0:0,0:0:0:0:
422,203,55473,1,0,3:0:0:0:
464,133,55561,2,0,P|470:87|417:64,1,88.0000033569337,8|0,1:0|0:0,0:0:0:0:
241,127,55738,1,0,3:0:0:0:
165,91,55827,6,0,P|188:27|293:57,1,176.000006713867,4|0,3:1|0:0,0:0:0:0:
116,213,56092,2,0,P|71:177|148:105,1,176.000006713867,8|0,3:1|0:0,0:0:0:0:
205,294,56358,2,0,P|119:271|151:241,1,176.000006713867,4|0,3:3|0:0,0:0:0:0:
285,252,56623,2,0,P|265:322|254:267,1,176.000006713867,8|0,3:1|0:0,0:0:0:0:
290,209,56889,1,4,3:3:0:0:
364,375,57066,5,0,3:0:0:0:
402,292,57154,2,0,P|411:217|385:104,1,176.000006713867,8|0,1:0|0:0,0:0:0:0:
496,260,57420,1,4,3:0:0:0:
122,263,57597,5,0,3:0:0:0:
161,180,57685,2,0,P|212:124|315:72,1,176.000006713867,12|0,1:0|0:0,0:0:0:0:
121,77,57951,1,0,1:0:0:0:
211,286,58128,1,0,3:0:0:0:
282,220,58216,1,8,3:1:0:0:
270,349,58393,1,0,3:0:0:0:
280,252,58482,1,4,1:3:0:0:
356,355,58659,1,0,3:0:0:0:
304,274,58747,1,8,0:1:0:0:
76,346,58924,1,0,3:0:0:0:
62,267,59013,6,0,P|76:195|106:159,1,88.0000033569337,4|0,1:0|0:0,0:0:0:0:
160,108,59190,1,4,3:0:0:0:
87,138,59278,2,0,P|52:166|31:204,1,88.0000033569337,8|0,1:0|0:0,0:0:0:0:
119,340,59455,1,0,3:0:0:0:
63,283,59544,2,0,P|45:211|57:166,1,88.0000033569337,4|0,1:3|0:0,0:0:0:0:
219,150,59721,1,4,3:0:0:0:
142,135,59809,2,0,P|98:146|63:171,1,88.0000033569337,8|0,1:0|0:0,0:0:0:0:
161,363,59986,1,0,3:0:0:0:
162,283,60075,2,0,P|217:221|309:281,1,176.000006713867,4|0,1:2|0:0,0:0:0:0:
448,244,60340,1,8,1:0:0:0:
427,43,60517,2,0,P|331:79|433:153,1,264.000010070801,0|6,3:0|3:1,0:0:0:0:
500,120,60871,1,12,1:0:0:0:
142,135,61136,6,0,P|173:58|278:60,1,176.000006713867,4|0,1:0|0:0,0:0:0:0:
118,206,61402,2,0,P|103:141|126:86,1,88.0000033569337,8|0,1:0|0:0,0:0:0:0:
272,145,61579,1,0,3:0:0:0:
221,207,61667,2,0,P|172:229|114:224,1,88.0000033569337,8|0,1:3|0:0,0:0:0:0:
15,176,61844,1,0,3:0:0:0:
66,238,61933,2,0,P|115:260|173:255,1,88.0000033569337,8|0,1:0|0:0,0:0:0:0:
10,143,62110,1,0,0:0:0:0:
61,48,62198,2,0,P|129:82|123:181,1,176.000006713867,4|0,1:2|0:0,0:0:0:0:
9,306,62464,1,8,1:0:0:0:
229,384,62641,2,0,P|319:340|208:269,1,264.000010070801,0|0,3:0|0:0,0:0:0:0:
130,381,62995,1,8,1:0:0:0:
356,371,63260,6,0,P|368:315|286:222,1,176.000006713867,0|0,1:0|0:0,0:0:0:0:
180,239,63526,1,8,1:0:0:0:
0,221,63703,2,0,P|28:182|77:161,1,88.0000033569337,4|0,3:3|0:0,0:0:0:0:
87,162,63968,1,0,3:0:0:0:
167,161,64057,2,0,P|217:145|235:78,1,88.0000033569337,8|0,1:0|0:0,0:0:0:0:
149,0,64234,1,0,3:0:0:0:
80,34,64322,2,0,P|71:67|174:131,1,176.000006713867,4|0,1:0|0:0,0:0:0:0:
291,32,64588,2,0,P|349:32|366:151,1,176.000006713867,8|0,1:0|0:0,0:0:0:0:
290,281,64853,2,0,P|245:271|309:250,1,176.000006713867,0|0,1:0|0:0,0:0:0:0:
236,354,65119,2,0,P|299:364|372:277,1,176.000006713867,10|0,1:0|0:0,0:0:0:0:
443,114,65384,6,0,P|411:204|327:206,1,176.000006713867,4|0,1:0|0:0,0:0:0:0:
192,48,65650,2,0,P|259:59|277:162,1,176.000006713867,8|0,1:0|0:0,0:0:0:0:
64,177,65915,2,0,P|63:120|150:147,1,176.000006713867,0|0,1:0|0:0,0:0:0:0:
125,295,66181,2,0,P|70:309|127:272,1,176.000006713867,8|0,1:0|0:0,0:0:0:0:
197,329,66446,1,0,1:0:0:0:
314,233,66623,1,0,3:0:0:0:
284,306,66712,1,8,1:0:0:0:
272,165,66889,1,0,0:0:0:0:
314,233,66977,1,0,1:0:0:0:
301,92,67154,1,0,3:0:0:0:
272,165,67243,1,8,1:0:0:0:
253,23,67420,1,0,0:0:0:0:
301,92,67508,6,0,P|371:142|375:19,1,264.000010070801,0|8,1:0|1:0,0:0:0:0:
443,250,67951,1,0,0:0:0:0:
389,195,68039,2,0,P|403:136|511:127,1,176.000006713867,4|0,1:3|0:0,0:0:0:0:
512,218,68305,1,8,1:0:0:0:
441,363,68570,2,0,P|408:323|271:328,1,176.000006713867,0|0,1:0|0:0,0:0:0:0:
214,353,68836,1,8,1:0:0:0:
214,353,69013,1,0,3:0:0:0:
119,333,69101,2,0,P|81:299|81:162,1,176.000006713867,4|0,1:3|0:0,0:0:0:0:
111,107,69367,1,8,1:0:0:0:
178,277,69632,6,0,P|243:251|141:227,1,264.000010070801,0|8,1:0|1:0,0:0:0:0:
132,218,70163,2,0,P|187:163|263:226,1,176.000006713867,4|0,1:3|0:0,0:0:0:0:
280,288,70429,1,8,1:0:0:0:
255,368,70694,6,0,P|361:305|356:261,1,176.000006713867,0|0,1:0|0:0,0:0:0:0:
141,243,70959,2,0,P|160:316|251:354,1,176.000006713867,12|0,1:0|0:0,0:0:0:0:
268,114,71225,2,0,P|205:130|158:240,1,176.000006713867,12|0,1:0|0:0,0:0:0:0:
386,232,71490,2,0,P|371:142|270:97,1,176.000006713867,4|0,1:3|3:0,0:0:0:0:
50,189,71756,2,0,P|28:137|147:171,1,264.000010070801,4|8,1:2|1:0,0:0:0:0:
132,349,72198,1,0,3:0:0:0:
210,313,72287,2,0,P|234:267|109:277,1,264.000010070801,4|8,1:3|1:0,0:0:0:0:
85,255,72818,6,0,P|107:170|198:113,1,176.000006713867,0|0,1:0|0:0,0:0:0:0:
252,318,73083,2,0,P|166:333|71:280,1,176.000006713867,8|0,1:0|0:0,0:0:0:0:
223,124,73349,2,0,P|276:202|279:309,1,176.000006713867,4|0,1:0|0:0,0:0:0:0:
85,255,73614,2,0,P|107:170|198:113,1,176.000006713867,8|0,1:0|1:3,0:0:0:0:
318,102,73880,1,12,1:3:0:0:
162,175,74145,2,0,P|184:244|221:166,1,176.000006713867,8|0,0:1|0:0,0:0:0:0:
102,83,74411,1,8,1:3:0:0:
240,152,74588,1,0,3:0:0:0:
238,192,74676,2,0,P|186:244|162:175,1,176.000006713867,8|0,0:1|0:0,0:0:0:0:
139,161,74942,6,0,P|130:231|171:262,1,88.0000033569337,4|0,1:0|0:0,0:0:0:0:
293,182,75119,2,0,P|251:281|176:296,1,176.000006713867,4|0,1:2|0:0,0:0:0:0:
243,97,75384,2,0,P|300:162|123:289,1,352.000013427735,4|8,1:0|0:1,0:0:0:0:
36,42,75915,1,8,3:0:0:0:
60,126,76004,1,4,1:0:0:0:
60,126,76800,5,4,0:3:0:0:
106,104,76889,1,4,0:3:0:0:
156,113,76977,1,4,0:3:0:0:
194,152,77066,1,8,1:3:0:0:
194,152,77597,5,2,1:0:0:0:
208,117,77663,1,0,1:0:0:0:
238,89,77729,1,2,1:2:0:0:
275,77,77796,1,4,1:3:0:0:
309,77,77862,2,0,P|355:95|375:116,1,58.6666666666667,8|4,1:0|3:0,0:0:0:0:
413,163,78039,1,8,3:0:0:0:
397,246,78128,6,0,P|363:290|324:298,1,70.3999978515626,6|0,1:0|0:0,0:0:0:0:
228,234,78305,1,2,0:0:0:0:
289,298,78394,2,0,P|323:308|357:301,1,70.3999978515626,8|0,0:1|0:0,0:0:0:0:
444,203,78571,1,2,0:1:0:0:
420,285,78659,2,0,P|370:310|331:301,1,70.3999978515626,0|0,1:1|0:0,0:0:0:0:
289,163,78836,1,2,0:0:0:0:
205,143,78925,2,0,P|163:157|138:194,1,70.3999978515626,8|0,1:0|0:0,0:0:0:0:
257,311,79102,1,2,0:0:0:0:
197,377,79190,2,0,P|174:279|202:264,1,140.799995703125,2|0,1:0|1:0,0:0:0:0:
494,345,79456,2,0,P|513:297|497:270,1,70.3999978515626,8|0,0:1|0:0,0:0:0:0:
430,166,79633,2,0,P|452:99|472:199,1,264.000010070801,4|4,1:3|0:3,0:0:0:0:
477,147,79987,1,8,1:1:0:0:
436,83,80252,6,0,P|374:55|345:62,1,70.3999978515626,4|0,1:0|0:0,0:0:0:0:
271,140,80429,1,2,0:0:0:0:
309,73,80517,2,0,P|371:45|400:52,1,70.3999978515626,8|0,0:1|0:0,0:0:0:0:
469,76,80695,1,2,0:1:0:0:
407,32,80782,2,0,P|339:33|316:52,1,70.3999978515626,2|0,1:0|0:0,0:0:0:0:
254,146,80960,1,2,0:0:0:0:
172,134,81049,2,0,P|138:104|136:54,1,70.3999978515626,8|0,0:1|0:0,0:0:0:0:
394,152,81226,1,2,0:0:0:0:
425,230,81314,2,0,P|401:293|326:328,1,140.799995703125,2|0,1:0|1:0,0:0:0:0:
211,213,81580,2,0,P|211:250|236:294,1,70.3999978515626,8|0,0:1|0:0,0:0:0:0:
356,182,81757,2,0,P|370:247|288:180,1,264.000010070801,4|0,1:3|0:0,0:0:0:0:
322,225,82111,1,8,0:1:0:0:
199,162,82375,6,0,P|179:226|215:326,1,176.000006713867,4|0,1:2|0:0,0:0:0:0:
448,244,82641,2,0,P|418:314|314:365,1,187.733333333333,8|0,0:1|0:0,0:0:0:0:
207,143,82906,2,0,P|145:134|22:240,1,199.466670471191,8|0,1:3|0:0,0:0:0:0:
143,330,83172,2,0,P|202:307|114:242,1,211.199993554688,8|0,0:1|0:0,0:0:0:0:
0,127,83437,2,0,P|87:68|215:66,1,211.199993554688,4|0,1:0|3:0,0:0:0:0:
391,132,83703,2,0,P|331:190|349:84,1,222.933327380371,8|0,0:1|3:0,0:0:0:0:
512,197,83968,2,0,P|488:298|401:388,1,222.933327380371,4|0,1:0|0:0,0:0:0:0:
236,305,84234,2,0,P|298:271|251:346,1,234.666666666667,8|0,0:1|0:0,0:0:0:0:
128,157,84499,2,0,P|181:129|136:212,1,234.666666666667,4|0,1:3|3:0,0:0:0:0:
217,36,84765,2,0,P|246:97|163:83,1,176.000006713867,8|0,0:1|0:0,0:0:0:0:
347,44,85030,2,0,P|290:70|282:45,1,88.0000033569337,0|0,1:0|0:0,0:0:0:0:
287,66,85207,1,8,0:1:0:0:
355,118,85296,2,0,P|354:163|330:188,1,58.6666666666667,8|4,0:1|0:3,0:0:0:0:
275,221,85473,1,4,1:3:0:0:
212,165,85561,6,0,P|285:143|361:225,1,176,0|0,1:0|1:0,0:0:0:0:
133,224,86092,1,0,1:0:0:0:
275,221,86269,1,0,3:0:0:0:
198,285,86358,1,4,1:3:0:0:
202,191,86535,1,4,3:0:0:0:
198,285,86623,2,2,P|397:355|174:211,1,968,4|0,1:0|0:0,0:0:0:0:
