osu file format v14

[General]
AudioFilename: audio.mp3
AudioLeadIn: 0
PreviewTime: 58333
Countdown: 0
SampleSet: None
StackLeniency: 0.8
Mode: 0
LetterboxInBreaks: 0
WidescreenStoryboard: 0

[Editor]
DistanceSpacing: 1.5
BeatDivisor: 4
GridSize: 4
TimelineZoom: 1

[Metadata]
Title:Symphony
TitleUnicode:Symphony
Artist:Luce Twinkle Wink
ArtistUnicode:Luce Twinkle Wink☆
Creator:Kujar3
Version:Minaduki
Source:NEKOPARA OVA Extra
Tags:Neko works Sayori nekomimi sekai project catgirls opening VN
BeatmapID:1749606
BeatmapSetID:835354

[Difficulty]
HPDrainRate:5
CircleSize:3.5
OverallDifficulty:6
ApproachRate:9
SliderMultiplier:1.4
SliderTickRate:1

[Events]
//Background and Video events
0,0,"nekopara-anime-girls-snow-animal-ears-tail-anime-games (1).jpg",0,0
Video,0,"NEKOPARA OVA Extra PV.mp4"
//Break Periods
//Storyboard Layer 0 (Background)
//Storyboard Layer 1 (Fail)
//Storyboard Layer 2 (Pass)
//Storyboard Layer 3 (Foreground)
//Storyboard Sound Samples

[TimingPoints]
1008,333.333333333333,4,3,1,60,1,0
13007,-80,4,3,1,100,0,0
23674,-100,4,3,1,85,0,0
33841,-400,4,3,1,85,0,0
34341,-100,4,3,1,85,0,0
55674,-66.6666666666667,4,3,1,100,0,1
85007,-80,4,3,1,100,0,0
95007,-74.0740740740741,4,3,1,100,0,0
95174,-68.9655172413793,4,3,1,100,0,0
95341,-57.1428571428571,4,3,1,100,0,0
97007,-142.857142857143,4,3,1,80,0,0
99007,-66.6666666666667,4,3,1,100,0,0
99674,-400,4,3,1,50,0,0

[Colours]
Combo1 : 145,255,200
Combo2 : 37,202,250
Combo3 : 255,151,203
Combo4 : 64,64,255

[HitObjects]
160,272,1008,6,2,L|180:104,1,140
280,124,1507,1,2,0:0:0:0:
360,192,1674,1,2,0:0:0:0:
280,264,1841,1,2,0:0:0:0:
176,264,2007,2,2,L|96:236,1,70
116,136,2341,6,2,L|260:120,1,140,10|2,0:0|0:0,0:0:0:0:
340,56,2841,1,2,0:0:0:0:
408,136,3007,2,2,L|400:216,1,70
448,300,3341,1,2,0:0:0:0:
448,300,3507,1,2,0:0:0:0:
356,352,3674,6,2,L|336:208,1,140,10|2,0:0|0:0,0:0:0:0:
276,128,4174,1,2,0:0:0:0:
192,64,4341,1,2,0:0:0:0:
88,40,4507,2,2,L|76:120,1,70
64,216,4841,1,2,0:0:0:0:
140,288,5007,6,2,P|200:328|248:296,1,105
225,319,5341,2,2,P|295:304|307:248,1,105
308,280,5674,2,2,P|334:212|293:172,1,105,2|2,0:3|0:0,0:0:0:0:
321,189,6007,2,2,P|384:154|378:97,1,105
392,76,6341,6,2,P|320:36|248:48,1,140
168,80,6841,1,2,0:0:0:0:
92,152,7007,2,2,P|56:228|88:284,1,140
268,188,7674,5,14,0:0:0:0:
432,56,8007,2,2,L|440:128,1,70
336,144,8341,2,2,L|340:64,1,70
236,52,8674,2,2,P|189:65|173:87,1,70
124,172,9007,5,2,0:0:0:0:
24,356,9341,1,2,0:0:0:0:
24,356,9507,1,2,0:0:0:0:
92,276,9674,2,2,L|168:264,1,70
161,265,9924,2,2,L|232:256,1,70
230,256,10174,1,2,0:0:0:0:
292,172,10341,6,2,P|288:96|232:72,1,140,10|2,0:0|0:0,0:0:0:0:
28,36,11007,1,2,0:0:0:0:
64,76,11091,1,2,0:0:0:0:
100,112,11174,1,2,0:0:0:0:
136,148,11257,1,2,0:0:0:0:
168,188,11341,1,2,0:0:0:0:
204,224,11424,1,2,0:0:0:0:
240,260,11507,1,2,0:0:0:0:
280,292,11591,1,2,0:0:0:0:
296,136,11841,5,2,0:0:0:0:
372,64,12007,1,2,0:0:0:0:
56,56,12507,1,10,0:0:0:0:
56,56,12591,1,10,0:0:0:0:
56,56,12674,2,2,L|48:132,1,70
64,228,13007,6,2,P|128:272|304:240,1,262.5
368,356,13674,2,2,P|432:304|432:296,1,87.5
396,184,14007,1,2,0:0:0:0:
452,64,14174,2,2,P|288:80|204:40,1,262.5
192,172,14841,5,2,0:0:0:0:
12,364,15174,1,2,0:0:0:0:
80,252,15341,1,2,0:0:0:0:
208,272,15507,1,2,0:0:0:0:
248,148,15674,6,2,P|300:124|324:136,1,87.5
412,232,16007,1,2,0:0:0:0:
468,112,16174,1,2,0:0:0:0:
212,48,16507,1,2,0:0:0:0:
44,252,16841,2,2,P|64:340|140:328,1,175
236,256,17341,5,2,0:0:0:0:
236,256,17424,1,2,0:0:0:0:
236,256,17507,2,2,L|328:240,1,87.5
212,168,17841,1,2,0:0:0:0:
336,132,18007,1,2,0:0:0:0:
240,40,18174,1,2,0:0:0:0:
108,36,18341,6,2,P|36:170|90:279,1,262.5
164,168,19007,2,2,P|235:109|296:144,1,131.25
265,116,19341,1,2,0:0:0:0:
264,248,19507,2,2,P|384:312|440:220,1,262.5
352,240,20174,5,2,0:0:0:0:
156,64,20507,1,2,0:0:0:0:
88,152,20674,1,2,0:0:0:0:
220,152,20841,1,2,0:0:0:0:
148,260,21007,2,2,P|228:328|372:280,1,262.5
428,168,21674,5,2,0:0:0:0:
280,44,21841,1,2,0:0:0:0:
132,168,22007,1,2,0:0:0:0:
280,352,22174,1,2,0:0:0:0:
244,32,22507,5,2,0:0:0:0:
316,348,22841,2,2,P|392:280|408:196,1,175
324,108,23341,1,2,0:0:0:0:
324,108,23424,1,2,0:0:0:0:
324,108,23507,1,2,0:0:0:0:
324,108,23591,1,2,0:0:0:0:
324,108,23674,6,2,L|352:248,1,140
48,332,24507,1,2,0:0:0:0:
96,240,24674,1,2,0:0:0:0:
148,332,24841,1,2,0:0:0:0:
200,240,25007,6,2,P|208:172|240:144,1,105
232,148,25341,1,2,0:0:0:0:
312,80,25507,2,2,P|380:48|444:112,1,175
443,110,26007,1,2,0:0:0:0:
440,320,26341,6,2,P|360:316|328:272,1,140
104,48,27174,1,2,0:0:0:0:
176,128,27341,1,2,0:0:0:0:
244,48,27507,1,2,0:0:0:0:
312,128,27674,6,2,P|380:144|404:184,1,105
399,169,28007,1,2,0:0:0:0:
452,80,28174,2,2,P|384:32|292:44,1,175
296,41,28674,1,2,0:0:0:0:
88,64,29007,5,2,0:0:0:0:
100,316,29257,1,2,0:0:0:0:
88,64,29507,1,2,0:0:0:0:
164,192,29674,2,2,L|244:180,1,70
424,64,30341,5,2,0:0:0:0:
412,316,30591,1,2,0:0:0:0:
424,64,30841,1,2,0:0:0:0:
348,192,31008,2,2,L|268:180,1,70
136,28,31507,1,2,0:0:0:0:
92,124,31674,6,2,L|80:196,1,70
168,132,32007,1,2,0:0:0:0:
228,220,32174,2,2,L|240:148,1,70
300,236,32507,1,2,0:0:0:0:
384,176,32674,2,2,L|372:248,1,70
256,68,33174,5,2,0:0:0:0:
256,80,33341,1,2,0:0:0:0:
256,92,33507,1,2,0:0:0:0:
204,184,33674,1,2,0:0:0:0:
356,288,33841,2,2,L|360:248,1,35,6|2,0:0|0:0,0:0:0:0:
400,156,34341,6,2,P|436:112|428:64,1,105
64,100,35174,1,2,0:0:0:0:
124,184,35341,1,2,0:0:0:0:
188,100,35507,1,2,0:0:0:0:
248,184,35674,6,2,P|292:184|320:200,1,70
260,284,36007,1,2,0:0:0:0:
340,356,36174,2,2,P|299:373|267:369,1,70
92,268,36674,2,2,L|104:188,1,70
208,216,37007,6,2,L|200:292,1,70
460,52,37841,1,2,0:0:0:0:
388,128,38007,1,2,0:0:0:0:
316,52,38174,1,2,0:0:0:0:
244,128,38341,6,2,L|236:200,1,70
168,116,38674,1,2,0:0:0:0:
84,180,38841,2,2,L|92:108,1,70
316,332,39507,1,2,0:0:0:0:
420,340,39674,6,2,L|424:252,1,70
324,232,40007,2,2,L|328:152,1,70
424,116,40341,2,2,L|428:36,1,70
328,80,40674,2,2,L|324:160,1,70
312,344,41007,5,2,0:0:0:0:
176,252,41174,1,2,0:0:0:0:
376,40,41507,1,2,0:0:0:0:
112,344,42341,5,2,0:0:0:0:
248,252,42508,1,2,0:0:0:0:
112,184,42674,1,2,0:0:0:0:
248,92,42841,2,2,P|300:60|348:64,1,105
342,62,43174,1,2,0:0:0:0:
240,92,43341,2,2,P|188:60|140:64,1,105
104,92,43674,6,2,P|103:153|152:216,3,140
356,168,45007,5,2,0:0:0:0:
180,52,45341,1,2,0:0:0:0:
112,132,45507,1,2,0:0:0:0:
216,148,45674,1,2,0:0:0:0:
156,236,45841,2,2,L|116:296,1,70
208,344,46174,2,2,L|244:276,1,70
152,227,46507,6,2,L|107:283,1,70
194,339,46840,2,2,L|236:274,1,70
149,217,47174,2,2,L|100:270,1,70
182,333,47507,2,2,L|229:272,1,70
256,68,48007,5,2,0:0:0:0:
304,344,48341,1,2,0:0:0:0:
112,32,48841,5,2,0:0:0:0:
160,308,49175,1,2,0:0:0:0:
264,308,49341,5,2,0:0:0:0:
312,32,49675,1,2,0:0:0:0:
256,192,50007,1,10,0:0:0:0:
256,192,50341,5,10,0:0:0:0:
428,312,50674,1,2,0:0:0:0:
472,216,50841,1,2,0:0:0:0:
428,120,51007,1,2,0:0:0:0:
332,76,51174,1,2,0:0:0:0:
236,120,51340,1,2,0:0:0:0:
192,216,51507,2,2,P|168:276|204:332,1,105
181,311,51841,5,2,0:0:0:0:
137,215,52008,1,2,0:0:0:0:
181,119,52174,1,2,0:0:0:0:
277,75,52341,1,2,0:0:0:0:
373,119,52507,1,2,0:0:0:0:
417,215,52674,2,2,P|441:275|405:331,1,105
164,324,53341,6,2,P|128:288|124:248,1,70
120,164,53674,2,2,P|145:119|183:105,1,70
216,200,54007,2,2,P|252:236|256:276,1,70
332,176,54341,5,2,0:0:0:0:
384,84,54507,1,2,0:0:0:0:
180,28,54841,1,2,0:0:0:0:
124,116,55007,1,2,0:0:0:0:
436,340,55674,5,2,0:0:0:0:
384,108,55924,1,2,0:0:0:0:
356,340,56174,1,2,0:0:0:0:
316,188,56341,1,2,0:0:0:0:
128,332,56591,1,2,0:0:0:0:
224,28,56841,1,2,0:0:0:0:
304,164,57007,5,10,0:0:0:0:
224,300,57174,1,10,0:0:0:0:
232,144,57341,1,10,0:0:0:0:
300,284,57507,1,10,0:0:0:0:
172,192,57674,1,10,0:0:0:0:
328,212,57841,1,10,0:0:0:0:
180,268,58007,1,10,0:0:0:0:
280,148,58174,1,10,0:0:0:0:
36,348,58507,5,2,0:0:0:0:
176,64,58841,1,2,0:0:0:0:
256,200,59007,1,2,0:0:0:0:
244,44,59174,1,2,0:0:0:0:
184,192,59341,1,2,0:0:0:0:
300,88,59507,1,2,0:0:0:0:
148,128,59674,6,2,P|96:144|68:192,1,105.000004005432
352,328,60174,1,2,0:0:0:0:
432,192,60340,1,2,0:0:0:0:
420,348,60507,1,2,0:0:0:0:
360,200,60674,1,2,0:0:0:0:
476,304,60840,1,2,0:0:0:0:
324,264,61007,6,2,P|272:248|244:200,1,105.000004005432
496,16,61507,1,2,0:0:0:0:
416,152,61674,1,2,0:0:0:0:
272,220,61841,2,2,P|216:208|188:168,1,105.000004005432
132,24,62174,1,2,0:0:0:0:
32,148,62341,6,2,P|16:208|40:252,1,105.000004005432
168,164,62674,2,2,P|230:167|264:203,1,105.000004005432
356,72,63007,2,2,P|410:102|425:149,1,105.000004005432
276,84,63341,2,2,P|213:80|179:44,1,105.000004005432
28,40,63674,6,2,P|56:160|168:232,1,262.500010013581
167,231,64174,1,2,0:0:0:0:
212,80,64341,2,2,P|317:143|351:272,1,262.500010013581
36,36,65174,6,2,L|44:144,1,105.000004005432
284,344,65674,1,2,0:0:0:0:
408,248,65841,2,2,L|400:144,1,105.000004005432
248,188,66174,1,2,0:0:0:0:
504,8,66507,6,2,L|496:116,1,105.000004005432
296,340,67007,1,2,0:0:0:0:
176,240,67174,2,2,L|168:136,1,105.000004005432
292,40,67507,1,2,0:0:0:0:
372,280,67674,5,10,0:0:0:0:
164,72,67841,1,10,0:0:0:0:
349,303,68007,1,10,0:0:0:0:
140,104,68341,1,10,0:0:0:0:
348,312,68508,1,10,0:0:0:0:
162,80,68674,1,10,0:0:0:0:
372,104,69007,5,10,0:0:0:0:
164,312,69174,1,10,0:0:0:0:
350,80,69340,1,10,0:0:0:0:
192,332,69507,2,2,P|308:344|380:280,1,210.000008010865,2|6,0:0|0:0,0:0:0:0:
88,40,70341,6,2,P|40:136|100:212,1,210.000008010865
204,96,70841,2,2,P|212:156|252:180,1,105.000004005432
380,92,71174,1,2,0:0:0:0:
476,216,71341,1,2,0:0:0:0:
380,340,71507,1,2,0:0:0:0:
232,288,71674,6,2,P|184:268|160:212,1,105.000004005432
432,60,72174,1,2,0:0:0:0:
320,172,72341,1,2,0:0:0:0:
360,20,72507,1,2,0:0:0:0:
400,172,72674,1,2,0:0:0:0:
288,60,72841,1,2,0:0:0:0:
440,100,73007,6,2,P|480:152|476:188,1,105.000004005432
392,324,73341,2,2,P|338:362|302:356,1,105.000004005432,2|2,0:0|0:0,0:3:0:0:
160,288,73674,2,2,P|100:259|87:225,1,105.000004005432
200,116,74007,2,2,P|254:78|261:43,1,105.000004005432
420,44,74341,6,2,P|476:152|440:240,1,210.000008010865
312,152,74841,1,2,0:0:0:0:
176,228,75007,2,2,P|120:120|156:32,1,210.000008010865
488,352,76007,5,2,0:0:0:0:
356,268,76174,1,2,0:0:0:0:
488,184,76341,2,2,P|488:104|424:76,1,157.500006008148
425,75,76674,2,2,P|345:63|309:123,1,157.500006008148
4,368,77341,5,2,0:0:0:0:
60,220,77507,1,2,0:0:0:0:
172,332,77674,1,2,0:0:0:0:
232,184,77841,1,2,0:0:0:0:
344,296,78007,1,2,0:0:0:0:
404,152,78174,2,2,P|448:100|444:60,1,105.000004005432
288,84,78507,5,2,0:0:0:0:
288,84,78674,2,2,P|212:88|184:116,1,105.000004005432
52,176,79007,2,2,L|60:60,1,105.000004005432
332,216,79507,2,2,P|408:176|400:112,1,157.500006008148
401,114,79841,5,2,0:0:0:0:
260,48,80007,2,2,P|175:62|163:125,1,157.500006008148
162,122,80341,2,2,P|86:162|112:268,1,210.000008010865
476,312,81341,5,2,0:0:0:0:
396,160,81507,1,2,0:0:0:0:
268,68,81674,1,2,0:0:0:0:
140,160,81841,1,2,0:0:0:0:
84,308,82007,2,2,P|168:328|256:244,1,210.000008010865
484,36,82674,5,2,0:0:0:0:
484,36,82841,1,2,0:0:0:0:
432,184,83007,2,2,P|424:240|372:248,1,105.000004005432
383,251,83257,2,2,P|336:282|295:249,1,105.000004005432
300,260,83507,1,2,0:0:0:0:
256,192,83674,12,0,84757,0:0:0:0:
32,344,85174,6,2,L|40:248,1,87.5
172,256,85507,1,2,0:0:0:0:
256,152,85674,1,2,0:0:0:0:
336,256,85841,1,2,0:0:0:0:
416,152,86007,1,2,0:0:0:0:
496,256,86174,2,2,P|476:328|452:336,1,87.5
340,332,86507,5,2,0:0:0:0:
208,336,86674,2,2,P|140:320|124:268,1,131.25
124,267,87007,2,2,P|104:172|136:128,1,131.25
117,146,87341,1,2,0:0:0:0:
220,64,87507,2,2,P|360:48|464:168,1,306.25
462,162,88174,5,2,0:0:0:0:
260,328,88507,1,2,0:0:0:0:
196,212,88674,1,2,0:0:0:0:
260,96,88841,1,2,0:0:0:0:
372,28,89007,6,2,P|456:56|468:112,1,131.25
468,89,89341,1,2,0:0:0:0:
412,208,89507,1,2,0:0:0:0:
148,204,89841,1,2,0:0:0:0:
148,204,90174,2,2,P|216:300|320:304,1,218.75
368,280,90674,5,2,0:0:0:0:
404,228,90757,1,2,0:0:0:0:
432,168,90841,2,2,P|444:116|420:84,1,87.5
304,48,91174,1,2,0:0:0:0:
256,172,91341,1,2,0:0:0:0:
208,48,91507,1,2,0:0:0:0:
76,48,91674,6,2,P|32:132|144:280,1,262.5
156,148,92341,2,2,P|228:96|272:104,1,131.25
265,101,92674,1,2,0:0:0:0:
384,156,92841,2,2,P|468:272|320:328,1,306.25
359,344,93507,1,2,0:0:0:0:
104,288,93841,1,2,0:0:0:0:
164,172,94007,1,2,0:0:0:0:
260,84,94174,1,2,0:0:0:0:
388,48,94341,2,2,P|472:168|356:288,1,306.25
324,288,95007,1,2,0:0:0:0:
200,216,95174,1,2,0:0:0:0:
328,132,95341,1,2,0:0:0:0:
172,36,95507,1,2,0:0:0:0:
404,324,95841,1,2,0:0:0:0:
120,88,96174,2,2,P|64:208|228:332,1,367.500003504753
480,212,97007,6,2,B|472:152|440:112|420:88|420:88|400:48|400:48|376:92|376:92|320:76|256:92|256:92|236:48|236:48|208:92|208:92|184:124|156:168|156:216,1,587.999982055665
316,160,99174,1,2,0:0:0:0:
172,344,99341,1,2,0:0:0:0:
136,108,99507,2,2,P|228:48|240:52,1,105.000004005432
336,56,100007,2,2,L|324:300,1,245,6|2,0:0|0:0,0:0:0:0:
