osu file format v14

[General]
AudioFilename: audio.mp3
AudioLeadIn: 0
PreviewTime: 58333
Countdown: 0
SampleSet: None
StackLeniency: 0.8
Mode: 0
LetterboxInBreaks: 0
WidescreenStoryboard: 1

[Editor]
DistanceSpacing: 1.5
BeatDivisor: 4
GridSize: 4
TimelineZoom: 1

[Metadata]
Title:Symphony
TitleUnicode:Symphony
Artist:Luce Twinkle Wink
ArtistUnicode:Luce Twinkle Wink☆
Creator:Kujar3
Version:Hard
Source:NEKOPARA OVA Extra
Tags:Neko works Sayori nekomimi sekai project catgirls opening VN
BeatmapID:1760864
BeatmapSetID:835354

[Difficulty]
HPDrainRate:5
CircleSize:3.5
OverallDifficulty:6
ApproachRate:8
SliderMultiplier:1.4
SliderTickRate:1

[Events]
//Background and Video events
0,0,"nekopara-anime-girls-snow-animal-ears-tail-anime-games (1).jpg",0,0
Video,0,"NEKOPARA OVA Extra PV.mp4"
//Break Periods
//Storyboard Layer 0 (Background)
//Storyboard Layer 1 (Fail)
//Storyboard Layer 2 (Pass)
//Storyboard Layer 3 (Foreground)
//Storyboard Sound Samples

[TimingPoints]
1008,333.333333333333,4,3,1,60,1,0
13007,-100,4,3,1,100,0,0
23674,-100,4,3,1,85,0,0
33841,-125,4,3,1,85,0,0
34341,-100,4,3,1,85,0,0
55674,-80,4,3,1,100,0,1
67674,-68.9655172413793,4,3,1,100,0,1
69841,-80,4,3,1,100,0,1
85007,-80,4,3,1,100,0,0
95007,-74.0740740740741,4,3,1,100,0,0
95174,-68.9655172413793,4,3,1,80,0,0
95341,-68.9655172413793,4,3,1,100,0,0
97007,-142.857142857143,4,3,1,100,0,0
99007,-100,4,3,1,100,0,0
99674,-400,4,3,1,55,0,0

[Colours]
Combo1 : 145,255,200
Combo2 : 37,202,250
Combo3 : 255,151,203
Combo4 : 64,64,255

[HitObjects]
68,56,1008,6,2,L|184:156,1,140
260,208,1507,1,2,0:0:0:0:
324,292,1674,1,2,0:0:0:0:
384,208,1841,1,2,0:0:0:0:
320,124,2007,2,2,L|260:64,1,70
172,40,2341,6,2,P|111:64|80:136,1,140
92,232,2841,1,2,0:0:0:0:
152,320,3007,1,2,0:0:0:0:
252,276,3174,1,2,0:0:0:0:
332,344,3341,2,2,L|412:336,1,70
500,304,3674,6,2,P|499:247|464:172,1,140
404,84,4174,2,2,L|332:76,1,70
228,72,4507,1,2,0:0:0:0:
144,136,4674,2,2,L|149:224,1,70
204,296,5007,6,2,L|343:277,2,140
44,160,6007,1,2,0:0:0:0:
232,64,6341,6,2,P|304:40|376:56,1,140
448,120,6841,1,2,0:0:0:0:
400,212,7007,2,2,P|328:236|256:220,1,140
92,108,7674,5,2,0:0:0:0:
296,60,8007,2,2,L|368:84,1,70
416,172,8341,1,2,0:0:0:0:
352,256,8507,2,2,L|280:272,1,70
112,148,9007,5,2,0:0:0:0:
64,352,9341,2,2,L|135:371,1,70
208,296,9674,2,2,P|252:264|268:184,1,140
164,200,10174,1,2,0:0:0:0:
64,164,10341,6,2,P|112:108|176:96,1,140,10|2,0:0|0:0,0:0:0:0:
380,128,11007,1,10,0:0:0:0:
420,224,11174,1,0,0:0:0:0:
320,260,11341,1,0,0:0:0:0:
216,252,11507,1,10,0:0:0:0:
180,44,11841,5,2,0:0:0:0:
180,44,12007,1,2,0:0:0:0:
496,24,12507,1,2,0:0:0:0:
432,112,12674,2,2,L|397:189,1,70,10|2,0:0|0:0,0:0:0:0:
300,200,13007,6,2,P|223:223|124:141,1,210
228,128,13674,2,2,P|272:84|292:80,1,70
376,52,14007,1,2,0:0:0:0:
468,104,14174,2,2,P|500:248|444:308,1,210
416,196,14841,5,2,0:0:0:0:
208,164,15174,2,2,L|132:188,2,70
308,136,15674,2,2,P|383:159|400:214,1,140
296,236,16174,1,2,0:0:0:0:
296,236,16507,1,2,0:0:0:0:
100,308,16841,2,2,P|60:260|84:188,1,140
156,120,17341,6,2,L|184:96,2,35
356,192,17841,2,2,L|364:112,2,70
444,252,18341,6,2,P|344:292|260:240,1,210
236,144,19007,2,2,P|228:108|196:72,1,70
112,44,19341,1,0,0:0:0:0:
68,140,19507,2,2,P|100:214|212:268,1,210
316,268,20174,5,2,0:0:0:0:
448,108,20507,2,2,P|420:58|394:39,2,70
472,188,21007,6,2,P|416:288|264:272,1,280
200,192,21841,1,2,0:0:0:0:
216,88,22007,1,2,0:0:0:0:
308,36,22174,1,2,0:0:0:0:
308,36,22507,5,2,0:0:0:0:
492,140,22841,2,2,P|472:224|360:288,1,210
244,120,23674,6,2,P|204:48|128:48,1,140
36,332,24507,1,2,0:0:0:0:
108,256,24674,2,2,P|152:224|176:224,1,70
240,296,25007,6,2,P|280:284|296:260,1,70
268,160,25341,1,2,0:0:0:0:
184,100,25507,2,2,P|252:56|308:64,1,140
396,120,26007,2,2,P|444:172|452:244,2,140
100,56,27174,6,2,L|36:28,2,70
192,104,27674,6,2,P|259:149|273:204,1,140
300,304,28174,2,2,P|373:270|395:217,1,140
428,120,28674,2,2,P|412:78|386:65,1,70
288,60,29007,6,2,P|209:89|184:131,2,105
391,67,29674,2,2,P|449:112|461:183,1,140
332,336,30341,6,2,P|254:369|207:356,2,105
392,248,31007,2,2,P|367:178|303:145,1,140
288,248,31507,1,2,0:0:0:0:
184,248,31674,6,2,P|120:252|92:236,1,70
152,152,32007,1,2,0:0:0:0:
120,52,32174,2,2,P|184:48|212:64,1,70
152,152,32507,1,2,0:0:0:0:
184,248,32674,2,2,P|120:252|92:236,1,70
80,52,33174,5,2,0:0:0:0:
24,140,33341,1,2,0:0:0:0:
80,228,33507,1,2,0:0:0:0:
284,316,33841,2,2,L|328:277,1,56,6|2,0:0|0:0,0:0:0:0:
388,72,34341,6,2,P|343:11|275:3,1,140
100,108,35007,1,0,0:0:0:0:
64,208,35174,1,2,0:0:0:0:
152,268,35341,1,2,0:0:0:0:
248,224,35507,1,2,0:0:0:0:
340,276,35674,6,2,P|408:248|428:184,1,140
324,172,36174,2,2,P|268:124|202:135,1,140
160,228,36674,2,2,P|165:301|220:340,2,140
260,44,37674,5,0,0:0:0:0:
364,40,37841,2,2,P|376:100|360:124,1,70
328,200,38174,1,2,0:0:0:0:
272,288,38341,6,2,P|244:320|204:320,1,70
120,284,38674,1,2,0:0:0:0:
48,208,38841,2,2,P|20:140|60:76,1,140
152,60,39341,1,0,0:0:0:0:
252,84,39507,1,2,0:0:0:0:
344,136,39674,6,2,P|372:172|360:208,1,70
268,228,40007,2,2,P|240:192|251:156,1,70
344,136,40341,2,2,P|365:176|347:209,1,70
256,228,40674,2,2,P|235:188|253:155,1,70
312,88,41007,5,2,0:0:0:0:
312,88,41174,1,2,0:0:0:0:
456,240,41507,2,2,P|428:332|324:356,1,210
156,248,42341,6,2,L|76:224,2,70
252,288,42841,2,2,P|316:280|336:252,1,70
392,204,43174,1,2,0:0:0:0:
464,128,43341,2,2,P|438:59|365:39,1,140
184,108,44007,2,2,L|38:145,2,140
388,56,45007,5,2,0:0:0:0:
448,260,45341,2,2,L|380:276,1,70
276,292,45674,1,2,0:0:0:0:
172,292,45841,2,2,P|120:272|116:236,1,70
96,160,46174,2,2,P|108:105|143:96,1,70
212,140,46507,6,2,P|267:137|282:104,1,70
292,24,46841,2,2,P|347:15|367:45,1,70
420,104,47174,2,2,P|442:153|420:182,1,70
404,264,47507,2,2,P|330:306|265:265,1,140
328,192,48007,5,2,0:0:0:0:
176,48,48341,2,2,P|120:64|96:92,1,70
96,280,48841,2,2,P|149:303|185:297,1,70
256,264,49174,5,2,0:0:0:0:
340,200,49341,2,2,P|376:154|380:118,1,70
464,80,49674,2,2,P|408:35|329:49,1,140
40,332,50674,6,2,P|76:296|96:288,1,70
196,268,51007,1,2,0:0:0:0:
292,228,51174,2,2,P|325:189|331:169,1,70
280,80,51507,2,2,P|353:57|409:84,1,140
464,172,52007,6,2,P|488:232|472:260,1,70
432,324,52341,1,2,0:0:0:0:
328,332,52507,2,2,P|266:312|254:282,1,70
32,36,53341,2,2,P|44:96|68:112,1,70
152,124,53674,2,2,P|185:174|180:203,1,70
112,256,54007,2,2,P|124:316|148:332,1,70
232,340,54341,6,2,B|279:351|302:332|302:332|306:289|339:273,1,140
404,200,54841,1,2,0:0:0:0:
448,104,55007,2,2,P|420:64|384:60,1,70
48,236,55674,6,2,L|6:360,2,131.25
120,128,56341,1,2,0:0:0:0:
240,72,56507,2,2,P|320:98|332:128,1,87.5
388,208,56841,1,2,0:0:0:0:
256,192,57007,12,2,58174,0:0:0:0:
380,56,58507,5,2,0:0:0:0:
400,320,58841,1,2,0:0:0:0:
272,289,59007,2,2,P|220:272|192:228,1,87.5
100,160,59341,2,2,P|136:119|187:111,1,87.5
276,36,59674,6,2,P|322:63|339:112,1,87.5
424,340,60174,1,2,0:0:0:0:
300,295,60341,2,2,P|252:265|238:234,1,87.5
227,106,60674,1,2,0:0:0:0:
343,44,60841,1,2,0:0:0:0:
449,119,61007,2,2,P|484:167|461:211,1,87.5
248,316,61507,2,2,P|189:286|199:243,1,87.5
204,140,61841,1,2,0:0:0:0:
312,68,62007,1,2,0:0:0:0:
392,172,62174,1,2,0:0:0:0:
448,292,62341,6,2,P|404:340|296:332,3,175
96,176,63674,2,2,P|104:84|175:57,1,175
164,136,64174,1,2,0:0:0:0:
96,248,64341,2,2,P|146:324|221:315,1,175
496,36,65174,6,2,P|428:36|400:52,1,87.5
212,216,65674,1,2,0:0:0:0:
144,104,65841,2,2,P|82:133|64:160,1,87.5
40,276,66174,1,2,0:0:0:0:
300,260,66507,5,2,0:0:0:0:
420,200,66674,2,2,P|443:136|437:104,1,87.5
392,12,67007,1,2,0:0:0:0:
260,4,67174,2,2,P|196:28|176:53,1,87.5
120,156,67507,1,2,0:0:0:0:
224,268,67674,5,10,0:0:0:0:
308,140,67841,1,10,0:0:0:0:
344,288,68007,1,10,0:0:0:0:
224,292,68341,1,10,0:0:0:0:
240,140,68508,1,10,0:0:0:0:
344,248,68674,1,10,0:0:0:0:
464,348,69007,5,10,0:0:0:0:
456,196,69174,1,10,0:0:0:0:
308,240,69341,1,2,0:0:0:0:
158,212,69507,2,2,P|168:72|312:20,1,304.500009292603,10|2,0:0|0:0,0:0:0:0:
432,248,70341,6,2,P|381:283|347:283,1,87.5
144,128,70841,1,2,0:0:0:0:
260,68,71007,1,2,0:0:0:0:
285,196,71174,1,2,0:0:0:0:
248,332,71341,2,2,P|194:354|150:329,1,87.5
68,264,71674,6,2,P|57:207|90:169,1,87.5
308,72,72174,1,2,0:0:0:0:
438,62,72340,1,2,0:0:0:0:
411,189,72507,1,2,0:0:0:0:
288,240,72674,2,2,P|240:248|204:220,1,87.5
128,124,73007,6,2,P|60:136|20:232,3,175
252,352,74341,6,2,P|344:328|380:260,1,175
256,220,74841,1,2,0:0:0:0:
136,172,75007,2,2,P|190:93|266:83,1,175
472,308,76007,5,2,0:0:0:0:
352,364,76174,1,2,0:0:0:0:
364,232,76341,2,2,P|384:172|360:124,1,87.5
320,32,76674,2,2,P|258:19|213:49,1,87.5
20,356,77341,5,2,0:0:0:0:
136,296,77507,1,2,0:0:0:0:
28,220,77674,2,2,P|44:176|76:152,1,87.5
200,108,78007,1,2,0:0:0:0:
328,76,78174,2,2,P|374:77|407:100,1,87.5
488,352,78674,5,2,0:0:0:0:
228,312,79007,2,2,P|144:288|156:208,1,175
220,104,79507,2,2,P|272:34|342:74,1,175
312,196,80007,1,2,0:0:0:0:
88,60,80341,2,2,P|48:192|96:252,1,218.75
492,28,81341,6,2,P|436:44|416:72,1,87.5
364,184,81674,1,2,0:0:0:0:
256,260,81841,1,2,0:0:0:0:
152,184,82007,2,2,P|122:142|129:102,1,87.5
452,332,82674,5,2,0:0:0:0:
452,332,82841,1,2,0:0:0:0:
321,344,83007,2,2,P|268:313|285:260,2,87.5
424,256,83507,1,2,0:0:0:0:
511,163,83674,6,2,B|512:104|488:60|461:23|461:23|441:-16|441:-16|417:27|417:27|361:15|298:27|298:27|278:-16|278:-16|250:27|250:27|224:60|198:103|199:168,1,612.5
380,352,85174,6,2,P|416:312|420:272,1,87.5
436,128,85507,1,2,0:0:0:0:
340,40,85674,1,2,0:0:0:0:
244,128,85841,2,2,P|196:144|172:176,1,87.5
164,304,86174,1,2,0:0:0:0:
40,348,86341,6,2,P|16:256|108:128,1,262.5
136,256,87007,2,2,P|184:248|216:220,1,87.5
292,120,87341,1,2,0:0:0:0:
396,40,87507,2,2,P|472:96|424:252,1,262.5
332,320,88174,1,2,0:0:0:0:
76,264,88507,6,2,L|16:176,2,87.5
188,328,89007,6,2,P|296:312|324:256,1,175
212,188,89507,1,2,0:0:0:0:
212,188,89841,1,2,0:0:0:0:
12,16,90174,2,2,P|20:120|72:204,1,175
108,300,90674,6,0,L|167:306,2,43.75
344,180,91174,2,2,L|398:85,2,87.5
416,288,91674,6,2,P|325:300|218:180,1,262.5
348,184,92341,2,2,P|400:136|400:84,1,87.5
328,16,92674,1,0,0:0:0:0:
196,28,92841,2,2,P|138:94|194:243,1,262.5
224,136,93507,5,2,0:0:0:0:
420,272,93841,2,2,L|487:205,2,87.5
300,356,94341,6,2,P|172:340|104:228,1,262.5
108,92,95007,1,2,0:0:0:0:
244,24,95174,1,2,0:0:0:0:
344,140,95341,1,2,0:0:0:0:
220,228,95507,1,2,0:0:0:0:
220,228,95841,1,2,0:0:0:0:
220,228,96174,2,2,P|316:356|440:292,1,304.500009292603
484,160,97007,6,2,B|472:104|440:64|420:40|420:40|400:0|400:0|376:44|376:44|320:32|256:44|256:44|236:0|236:0|208:44|208:44|184:76|156:120|156:184,1,587.999982055665
160,268,99174,1,2,0:0:0:0:
160,268,99341,1,2,0:0:0:0:
160,268,99507,1,2,0:0:0:0:
272,312,100007,2,2,L|416:112,1,245,6|2,0:0|0:0,0:0:0:0:
