osu file format v14

[General]
AudioFilename: audio.mp3
AudioLeadIn: 0
PreviewTime: 58921
Countdown: 0
SampleSet: Soft
StackLeniency: 0.5
Mode: 0
LetterboxInBreaks: 0
WidescreenStoryboard: 0

[Editor]
Bookmarks: 13171,23838,47838,86505,97171
DistanceSpacing: 1.4
BeatDivisor: 4
GridSize: 4
TimelineZoom: 1.6

[Metadata]
Title:Symphony
TitleUnicode:Symphony
Artist:Luce Twinkle Wink*
ArtistUnicode:Luce Twinkle Wink☆
Creator:Gordon123
Version:Insane
Source:ネコぱらOVA 仔ネコの日の約束
Tags:Nekopara OVA Koneko Hi No Yakusoku Terton AirinCat
BeatmapID:1923836
BeatmapSetID:921283

[Difficulty]
HPDrainRate:6
CircleSize:4
OverallDifficulty:8
ApproachRate:9
SliderMultiplier:1.4
SliderTickRate:1

[Events]
//Background and Video events
0,0,"bg.jpg",0,0
//Break Periods
//Storyboard Layer 0 (Background)
//Storyboard Layer 1 (Fail)
//Storyboard Layer 2 (Pass)
//Storyboard Layer 3 (Foreground)
//Storyboard Sound Samples

[TimingPoints]
1172,333.333333333333,4,2,1,40,1,0
1671,-111.111111111111,4,2,1,70,0,0
7838,-99.9999999999999,4,2,1,70,0,0
13171,-90.9090909090909,4,2,1,70,0,0
23838,-99.9999999999999,4,2,1,70,0,0
34505,-95.2380952380952,4,2,1,70,0,0
53088,-95.2380952380952,4,2,1,25,0,0
53171,-95.2380952380952,4,2,1,70,0,0
59838,-76.9230769230769,4,2,1,70,0,1
78505,-83.3333333333333,4,2,1,70,0,1
85005,-100,4,2,1,70,0,0
94505,-125,4,2,1,60,0,0
98505,-125,4,2,1,40,0,0
100171,-125,4,2,1,20,0,0

[Colours]
Combo1 : 117,221,255
Combo2 : 255,202,91
Combo3 : 150,111,255

[HitObjects]
256,48,1172,6,0,L|256:8,2,35,0|0|0,0:0|0:0|0:0,0:0:0:0:
256,132,1505,1,2,0:3:0:0:
216,208,1671,2,0,P|160:216|128:208,1,62.9999980773926,2|2,0:0|0:0,0:0:0:0:
30,283,2005,2,0,P|60:275|92:276,1,62.9999980773926,2|0,0:0|0:0,0:0:0:0:
160,332,2338,1,2,0:0:0:0:
320,288,2505,5,6,0:0:0:0:
396,80,3005,2,0,P|416:120|416:160,2,62.9999980773926,2|2|2,0:0|0:0|0:0,0:0:0:0:
328,24,3505,1,2,0:0:0:0:
300,108,3671,1,2,0:0:0:0:
488,160,3838,5,2,0:0:0:0:
276,320,4338,2,0,P|244:312|192:320,1,62.9999980773926,0|2,0:0|0:0,0:0:0:0:
82,249,4671,2,0,P|112:257|144:256,1,62.9999980773926,2|2,0:0|0:0,0:0:0:0:
228,228,5005,1,0,0:0:0:0:
276,84,5171,5,2,0:0:0:0:
288,72,5505,1,2,0:0:0:0:
360,232,5838,1,2,0:0:0:0:
348,244,6171,1,2,0:0:0:0:
256,360,6505,6,0,L|256:224,1,125.999996154785,2|0,0:0|0:0,0:0:0:0:
208,160,7005,1,0,0:0:0:0:
256,84,7171,1,2,0:0:0:0:
12,40,7838,5,4,0:0:0:0:
136,192,8171,2,0,P|148:228|152:284,1,70,2|0,0:0|0:0,0:0:0:0:
247,355,8505,2,0,P|252:321|264:288,1,70,2|0,0:0|0:0,0:0:0:0:
360,215,8838,1,2,0:0:0:0:
256,32,9171,5,2,0:0:0:0:
452,40,9505,1,2,0:0:0:0:
380,108,9671,1,2,0:0:0:0:
384,224,9838,2,0,P|425:233|470:232,1,70,2|0,0:0|0:0,0:0:0:0:
496,160,10088,2,0,P|462:151|427:150,1,70,2|0,0:0|0:0,0:0:0:0:
304,160,10338,1,2,0:0:0:0:
296,144,10505,6,0,P|216:108|104:156,1,210,12|0,0:0|0:0,0:0:0:0:
24,112,11171,2,0,L|16:60,2,35,4|2|2,0:0|0:0|0:0,0:0:0:0:
28,140,11421,1,2,0:0:0:0:
32,168,11505,1,2,0:0:0:0:
36,196,11588,1,0,0:0:0:0:
40,224,11671,1,8,0:0:0:0:
12,348,12005,6,0,P|48:332|108:332,1,70,8|8,0:0|0:0,0:0:0:0:
172,360,12338,1,2,0:0:0:0:
256,308,12505,1,2,0:0:0:0:
184,240,12671,1,2,0:0:0:0:
268,292,12838,1,8,0:0:0:0:
333,219,13005,1,2,0:0:0:0:
460,276,13171,6,0,P|461:234|484:185,1,77.0000023498536,6|0,0:0|0:0,0:0:0:0:
424,104,13505,2,0,L|324:100,1,77.0000023498536
260,36,13838,1,2,0:0:0:0:
160,76,14005,1,0,0:0:0:0:
60,36,14171,1,2,0:0:0:0:
252,76,14338,6,0,P|244:136|284:224,1,154.000004699707,2|0,0:0|0:0,0:0:0:0:
176,244,14838,1,0,0:0:0:0:
92,308,15005,2,0,P|86:269|73:233,1,77.0000023498536,10|0,0:0|0:0,0:0:0:0:
136,148,15338,1,2,0:0:0:0:
128,40,15505,1,2,0:0:0:0:
40,104,15671,1,2,0:0:0:0:
136,148,15838,6,0,P|172:164|232:160,1,77.0000023498536,2|0,0:0|0:0,0:0:0:0:
292,40,16171,2,0,P|295:79|309:115,2,77.0000023498536,2|0|0,0:0|0:0|0:0,0:0:0:0:
329,135,16671,1,2,0:0:0:0:
302,231,16838,1,0,0:0:0:0:
321,331,17005,6,0,P|307:295|321:163,1,154.000004699707,2|2,0:0|0:0,0:0:0:0:
341,171,17421,1,0,0:0:0:0:
365,163,17505,1,2,0:0:0:0:
393,155,17588,1,0,0:0:0:0:
421,147,17671,2,0,L|420:240,1,77.0000023498536,8|0,0:0|0:0,0:0:0:0:
468,320,18005,1,8,0:0:0:0:
504,220,18171,1,0,0:0:0:0:
472,116,18338,1,8,0:0:0:0:
476,88,18421,1,8,0:0:0:0:
480,60,18505,6,0,L|372:52,1,77.0000023498536,4|0,0:0|0:0,0:0:0:0:
304,96,18838,2,0,L|196:88,1,77.0000023498536
136,32,19171,1,2,0:0:0:0:
84,128,19338,1,0,0:0:0:0:
144,216,19505,1,2,0:0:0:0:
100,312,19671,6,0,P|140:300|264:320,1,154.000004699707,2|0,0:0|0:0,0:0:0:0:
228,208,20171,1,0,0:0:0:0:
285,116,20338,2,0,P|296:78|290:35,1,77.0000023498536,8|0,0:0|0:0,0:0:0:0:
188,69,20671,1,2,0:0:0:0:
400,61,20838,1,2,0:0:0:0:
442,160,21005,1,10,0:0:0:0:
442,160,21088,1,8,0:0:0:0:
442,160,21171,6,0,B|436:209|436:209|463:251|438:297|438:297|367:269|351:337|273:318,1,308.000009399414,8|2,0:0|0:0,0:0:0:0:
258,300,21921,1,0,0:0:0:0:
234,284,22005,1,2,0:0:0:0:
210,276,22088,1,0,0:0:0:0:
182,272,22171,1,2,0:0:0:0:
154,272,22255,1,0,0:0:0:0:
126,276,22338,5,8,0:0:0:0:
20,88,22671,1,8,0:0:0:0:
220,164,23005,1,8,0:0:0:0:
430,136,23338,2,0,L|426:196,2,38.5000011749268,2|2|10,0:0|0:0|0:0,0:0:0:0:
432,108,23588,1,0,0:0:0:0:
433,80,23671,1,0,0:0:0:0:
434,52,23755,1,0,0:0:0:0:
436,28,23838,6,0,P|384:56|288:32,1,140,6|0,0:0|0:0,0:0:0:0:
214,9,24338,1,0,0:0:0:0:
134,66,24505,2,0,L|144:163,1,70,2|0,0:0|0:0,0:0:0:0:
68,202,24838,1,2,0:0:0:0:
86,298,25005,1,2,0:0:0:0:
183,297,25171,6,0,P|195:249|223:209,1,70,2|0,0:0|0:0,0:0:0:0:
283,173,25505,2,0,P|311:162|378:166,2,70,0|2|0,0:0|0:0|0:0,0:0:0:0:
335,255,26005,1,0,0:0:0:0:
283,338,26171,2,0,P|334:350|382:343,1,70,2|2,0:0|0:0,0:0:0:0:
446,375,26505,6,0,L|422:207,1,140,0|2,0:0|0:0,0:0:0:0:
489,162,27005,1,0,0:0:0:0:
489,162,27171,2,0,P|504:130|510:95,1,70,0|2,0:0|0:0,0:0:0:0:
411,97,27505,1,2,0:0:0:0:
320,60,27671,1,0,0:0:0:0:
229,98,27838,6,0,P|211:146|132:190,1,140,2|2,0:0|0:0,0:0:0:0:
133,91,28338,1,0,0:0:0:0:
52,146,28505,2,0,L|42:232,1,70,2|0,0:0|0:0,0:0:0:0:
84,364,28838,2,0,L|93:295,1,70,2|0,0:0|0:0,0:0:0:0:
188,272,29171,6,0,P|231:288|306:280,2,105,6|0|2,0:0|0:0|0:0,0:0:0:0:
239,187,29838,1,2,0:0:0:0:
187,103,30005,1,8,0:0:0:0:
355,25,30171,1,2,0:0:0:0:
419,212,30505,6,0,P|405:271|405:321,2,105,2|0|2,0:0|0:0|0:0,0:0:0:0:
485,140,31171,1,2,0:0:0:0:
436,54,31338,1,8,0:0:0:0:
270,106,31505,1,2,0:0:0:0:
245,200,31671,1,0,0:0:0:0:
245,200,31838,6,0,P|206:222|172:260,1,70,4|0,0:0|0:0,0:0:0:0:
120,310,32171,1,2,0:0:0:0:
56,235,32338,2,0,P|29:212|-1:195,1,70,2|2,0:0|0:0,0:0:0:0:
72,131,32671,1,2,0:0:0:0:
153,76,32838,2,0,L|250:62,1,70
312,26,33171,5,6,0:0:0:0:
382,96,33338,1,2,0:0:0:0:
286,118,33505,1,2,0:0:0:0:
333,32,33671,1,2,0:0:0:0:
316,128,33838,1,0,0:0:0:0:
410,102,34005,2,0,P|439:159|412:251,1,140,6|0,0:0|0:0,0:0:0:0:
335,311,34505,6,0,L|174:323,1,146.999995513916,4|0,0:0|0:0,0:0:0:0:
97,370,35005,1,0,0:0:0:0:
98,267,35171,2,0,P|113:234|113:176,1,73.4999977569581,2|0,0:0|0:0,0:0:0:0:
80,99,35505,1,2,0:0:0:0:
182,106,35671,1,2,0:0:0:0:
265,45,35838,6,0,P|283:86|281:130,1,73.4999977569581,2|0,0:0|0:0,0:0:0:0:
242,208,36171,2,0,P|240:259|259:301,2,73.4999977569581,0|2|0,0:0|0:0|0:0,0:0:0:0:
340,238,36671,1,0,0:0:0:0:
441,218,36838,2,0,L|448:130,1,73.4999977569581,2|0,0:0|0:0,0:0:0:0:
378,18,37171,6,0,L|373:92,1,73.4999977569581,2|0,0:0|0:0,0:0:0:0:
270,107,37505,1,0,0:0:0:0:
270,208,37671,1,2,0:0:0:0:
245,198,37755,1,2,0:0:0:0:
221,190,37838,2,0,P|169:170|137:166,1,73.4999977569581,2|0,0:0|0:0,0:0:0:0:
71,102,38171,1,2,0:0:0:0:
58,204,38338,1,2,0:0:0:0:
12,296,38505,6,0,P|57:289|94:298,1,73.4999977569581,2|0,0:0|0:0,0:0:0:0:
174,343,38838,1,2,0:0:0:0:
271,377,39005,2,0,L|437:360,1,146.999995513916,2|0,0:0|0:0,0:0:0:0:
481,281,39505,1,0,0:0:0:0:
396,222,39671,1,2,0:0:0:0:
445,131,39838,6,0,P|401:119|357:125,1,73.4999977569581,2|0,0:0|0:0,0:0:0:0:
275,88,40171,2,0,P|231:100|187:94,1,73.4999977569581,2|0,0:0|0:0,0:0:0:0:
102,75,40505,2,0,P|133:141|119:237,1,146.999995513916,2|2,0:0|0:0,0:0:0:0:
242,175,41171,5,4,0:0:0:0:
224,276,41338,1,0,0:0:0:0:
203,376,41505,1,0,0:0:0:0:
355,288,41671,1,6,0:0:0:0:
290,120,42005,1,0,0:0:0:0:
355,41,42171,1,2,0:0:0:0:
381,37,42255,1,0,0:0:0:0:
405,33,42338,1,2,0:0:0:0:
429,29,42421,1,0,0:0:0:0:
453,25,42505,6,0,L|473:113,1,73.4999977569581,6|0,0:0|0:0,0:0:0:0:
469,269,42838,2,0,L|453:198,1,73.4999977569581,2|6,0:0|0:0,0:0:0:0:
327,33,43338,1,8,0:0:0:0:
229,13,43505,2,0,P|229:65|252:103,1,73.4999977569581,8|0,0:0|0:0,0:0:0:0:
319,146,43838,5,8,0:0:0:0:
187,242,44005,1,0,0:0:0:0:
339,194,44171,5,8,0:0:0:0:
175,190,44338,1,0,0:0:0:0:
327,246,44505,5,8,0:0:0:0:
199,150,44671,1,0,0:0:0:0:
295,282,44838,5,8,0:0:0:0:
303,306,44921,1,8,0:0:0:0:
311,330,45005,1,8,0:0:0:0:
319,354,45088,1,8,0:0:0:0:
327,378,45171,6,0,P|371:362|417:364,1,73.4999977569581,4|0,0:0|0:0,0:0:0:0:
470,299,45505,1,2,0:0:0:0:
435,207,45671,1,0,0:0:0:0:
482,121,45838,2,0,L|473:28,1,73.4999977569581,2|2,0:0|0:0,0:0:0:0:
381,82,46171,1,8,0:0:0:0:
296,32,46338,6,0,P|253:51|153:56,1,146.999995513916,2|2,0:0|0:0,0:0:0:0:
208,144,46838,1,0,0:0:0:0:
140,216,47005,2,0,L|61:226,1,73.4999977569581,2|0,0:0|0:0,0:0:0:0:
48,320,47338,2,0,P|92:328|131:352,1,73.4999977569581,2|8,0:0|0:0,0:0:0:0:
208,304,47671,1,0,0:0:0:0:
330,354,47838,5,4,0:0:0:0:
304,223,48005,1,0,0:0:0:0:
227,166,48171,2,0,P|206:95|243:32,1,146.999995513916,8|8,0:0|0:0,0:0:0:0:
301,107,48671,1,0,0:0:0:0:
397,125,48838,1,0,0:0:0:0:
227,166,49005,6,0,L|81:197,1,146.999995513916,8|8,0:0|0:0,0:0:0:0:
135,110,49505,1,8,0:0:0:0:
171,254,49671,1,0,0:0:0:0:
128,334,49838,1,8,0:0:0:0:
152,327,49921,1,0,0:0:0:0:
176,327,50005,1,2,0:0:0:0:
200,335,50088,1,0,0:0:0:0:
220,347,50171,2,0,P|260:359|313:354,1,73.4999977569581,2|0,0:0|0:0,0:0:0:0:
428,318,50505,6,0,P|394:308|357:307,1,73.4999977569581,4|0,0:0|0:0,0:0:0:0:
344,212,50838,1,2,0:0:0:0:
304,124,51005,1,0,0:0:0:0:
244,197,51171,1,2,0:0:0:0:
283,109,51338,1,2,0:0:0:0:
231,28,51505,1,8,0:0:0:0:
141,61,51671,6,0,P|102:76|56:77,1,73.4999977569581,12|0,0:0|0:0,0:0:0:0:
15,157,52005,1,8,0:0:0:0:
107,179,52171,1,2,0:0:0:0:
191,133,52338,1,8,0:0:0:0:
281,162,52505,2,0,P|313:174|364:174,1,73.4999977569581,8|8,0:0|0:0,0:0:0:0:
338,34,52838,2,0,P|369:49|395:78,1,73.4999977569581,2|0,0:0|0:0,0:0:0:0:
464,220,53171,5,4,0:0:0:0:
331,342,53505,2,8,P|251:318|171:330,2,146.999995513916,8|8|8,0:0|0:0|0:0,0:0:0:0:
448,190,54505,2,0,P|436:130|452:58,2,110.249996635437,8|2|8,0:0|0:0|0:0,0:0:0:0:
504,266,55171,1,8,0:0:0:0:
408,277,55338,1,2,0:0:0:0:
316,140,55505,1,2,0:0:0:0:
236,88,55671,1,0,0:0:0:0:
139,125,55838,6,0,L|146:198,1,73.4999977569581,12|0,0:0|0:0,0:0:0:0:
117,237,56088,2,0,L|124:310,1,73.4999977569581,2|0,0:0|0:0,0:0:0:0:
162,338,56338,1,8,0:0:0:0:
162,338,56505,2,0,P|200:325|254:326,1,73.4999977569581,8|0,0:0|0:0,0:0:0:0:
292,247,56838,1,2,0:0:0:0:
285,151,57005,1,0,0:0:0:0:
233,71,57171,6,0,L|249:19,3,36.749998878479,2|2|2|2,0:0|0:0|0:0|0:0,0:0:0:0:
118,38,57505,2,0,L|125:75,3,36.749998878479,2|2|2|2,0:0|0:0|0:0|0:0,0:0:0:0:
41,131,57838,2,0,L|6:119,3,36.749998878479,2|2|2|2,0:0|0:0|0:0|0:0,0:0:0:0:
5,243,58171,2,0,L|41:235,1,36.749998878479,2|2,0:0|0:0,0:0:0:0:
161,211,58338,5,6,0:0:0:0:
271,366,58671,1,4,0:0:0:0:
459,331,59005,1,4,0:0:0:0:
503,247,59171,1,6,0:0:0:0:
459,163,59338,1,2,0:0:0:0:
487,71,59505,2,0,L|411:63,1,73.4999977569581,10|2,0:0|0:0,0:0:0:0:
298,137,59838,6,0,P|226:169|130:129,1,181.999991668702,6|0,0:0|0:0,0:0:0:0:
102,21,60338,1,2,0:0:0:0:
218,49,60505,1,2,0:0:0:0:
334,25,60671,1,2,0:0:0:0:
447,59,60838,2,0,P|431:119|451:179,1,90.9999958343508,2|0,0:0|0:0,0:0:0:0:
484,304,61171,6,0,P|488:259|372:195,1,181.999991668702,12|2,0:0|0:0,0:0:0:0:
300,271,61671,1,2,0:0:0:0:
259,159,61838,2,0,L|244:69,1,90.9999958343508,2|0,0:0|0:0,0:0:0:0:
151,143,62171,2,0,L|165:232,1,90.9999958343508,2|0,0:0|0:0,0:0:0:0:
171,351,62505,6,8,P|99:331|-5:367,2,181.999991668702
282,310,63338,1,2,0:0:0:0:
318,197,63505,2,0,L|438:189,1,90.9999958343508,2|0,0:0|0:0,0:0:0:0:
325,95,63838,6,0,P|242:128|219:217,1,181.999991668702,12|0,0:0|0:0,0:0:0:0:
178,322,64338,1,2,0:0:0:0:
291,288,64505,1,2,0:0:0:0:
401,327,64671,1,2,0:0:0:0:
425,311,64755,1,2,0:0:0:0:
449,295,64838,2,0,P|433:243|445:183,1,90.9999958343508,2|0,0:0|0:0,0:0:0:0:
496,27,65171,6,0,P|511:69|509:115,1,90.9999958343508,12|0,0:0|0:0,0:0:0:0:
393,91,65505,2,0,P|329:79|193:99,1,181.999991668702,2|2,0:0|0:0,0:0:0:0:
104,44,66005,1,2,0:0:0:0:
104,44,66171,1,0,0:0:0:0:
75,158,66338,1,2,0:0:0:0:
180,211,66505,6,0,P|168:251|188:327,1,90.9999958343508,8|0,0:0|0:0,0:0:0:0:
288,263,66838,2,0,P|348:247|484:271,1,181.999991668702,2|2,0:0|0:0,0:0:0:0:
503,150,67338,1,2,0:0:0:0:
503,150,67505,1,2,0:0:0:0:
452,43,67671,1,2,0:0:0:0:
290,73,67838,5,12,0:0:0:0:
170,118,68005,1,12,0:0:0:0:
51,78,68171,1,12,0:0:0:0:
13,330,68505,5,12,0:0:0:0:
112,250,68671,1,12,0:0:0:0:
239,248,68838,1,12,0:0:0:0:
412,140,69171,5,8,0:0:0:0:
488,232,69338,1,2,0:0:0:0:
404,316,69505,1,10,0:0:0:0:
328,224,69671,1,8,0:0:0:0:
216,192,69838,2,0,L|172:200,2,45.4999979171754,2|2|2,0:0|0:0|0:0,0:0:0:0:
224,164,70088,1,2,0:0:0:0:
232,140,70171,1,8,0:0:0:0:
240,112,70255,1,2,0:0:0:0:
248,84,70338,1,2,0:0:0:0:
256,56,70421,1,0,0:0:0:0:
264,28,70505,6,0,P|184:48|76:32,1,181.999991668702,6|0,0:0|0:0,0:0:0:0:
115,150,71005,1,2,0:0:0:0:
72,258,71171,1,2,0:0:0:0:
137,159,71338,1,2,0:0:0:0:
194,263,71505,1,2,0:0:0:0:
123,355,71671,1,2,0:0:0:0:
258,372,71838,6,0,P|325:348|443:361,1,181.999991668702,4|0,0:0|0:0,0:0:0:0:
371,256,72338,1,2,0:0:0:0:
257,221,72505,1,2,0:0:0:0:
339,137,72671,1,0,0:0:0:0:
473,12,72838,2,0,L|451:101,1,90.9999958343508,2|0,0:0|0:0,0:0:0:0:
498,208,73171,6,8,P|506:268|426:360,2,181.999991668702,8|8|8,0:0|0:0|0:0,0:0:0:0:
386,248,74005,1,2,0:0:0:0:
274,216,74171,2,0,P|254:260|250:336,1,90.9999958343508,2|0,0:0|0:0,0:0:0:0:
130,328,74505,6,0,P|162:256|154:144,1,181.999991668702,12|0,0:0|0:0,0:0:0:0:
90,56,75005,1,2,0:0:0:0:
206,72,75171,2,0,L|330:60,1,90.9999958343508,2|2,0:0|0:0,0:0:0:0:
318,80,75421,1,2,0:0:0:0:
342,92,75505,1,2,0:0:0:0:
370,92,75588,1,2,0:0:0:0:
394,80,75671,1,2,0:0:0:0:
410,56,75755,1,2,0:0:0:0:
418,32,75838,6,0,L|426:164,1,90.9999958343508,4|0,0:0|0:0,0:0:0:0:
399,330,76171,2,0,L|394:240,1,90.9999958343508,2|0,0:0|0:0,0:0:0:0:
476,325,76505,1,2,0:0:0:0:
318,255,76671,1,2,0:0:0:0:
227,332,76838,2,0,P|179:324|115:348,1,90.9999958343508,2|0,0:0|0:0,0:0:0:0:
2,225,77171,6,0,P|45:235|90:228,1,90.9999958343508,4|2,0:0|0:0,0:0:0:0:
47,116,77505,1,2,0:0:0:0:
121,24,77671,1,2,0:0:0:0:
172,131,77838,2,0,L|276:127,1,90.9999958343508,2|0,0:0|0:0,0:0:0:0:
368,71,78171,2,0,L|472:67,1,90.9999958343508,2|0,0:0|0:0,0:0:0:0:
412,186,78505,5,6,0:0:0:0:
452,286,78671,1,2,0:0:0:0:
344,270,78838,2,8,P|272:274|168:330,2,167.999994873047
412,186,79671,1,8,0:0:0:0:
456,86,79838,5,2,0:0:0:0:
348,98,80005,1,2,0:0:0:0:
244,62,80171,2,0,P|204:78|128:78,1,83.9999974365235,8|0,0:0|0:0,0:0:0:0:
64,38,80505,2,0,L|84:226,1,167.999994873047,8|2,0:0|0:0,0:0:0:0:
100,226,80921,1,2,0:0:0:0:
120,246,81005,1,2,0:0:0:0:
140,262,81088,1,2,0:0:0:0:
164,278,81171,6,0,P|204:266|265:286,1,83.9999974365235,6|0,0:0|0:0,0:0:0:0:
342,325,81505,2,0,L|352:204,1,83.9999974365235,2|2,0:0|0:0,0:0:0:0:
420,69,81838,2,0,L|414:153,1,83.9999974365235,10|8,0:0|0:0,0:0:0:0:
498,85,82171,1,10,0:0:0:0:
338,133,82338,1,10,0:0:0:0:
256,59,82505,6,0,P|212:67|160:59,1,83.9999974365235,6|0,0:0|0:0,0:0:0:0:
77,9,82838,1,2,0:0:0:0:
94,117,83005,1,2,0:0:0:0:
46,213,83171,2,8,P|110:201|194:213,2,125.999996154785
50,321,83838,6,0,B|214:273|138:381|330:313,1,251.999992309571,14|2,0:0|0:0,0:0:0:0:
396,280,84505,2,0,L|404:344,2,41.9999987182618,2|2|2,0:0|0:0|0:0,0:0:0:0:
392,252,84755,1,2,0:0:0:0:
388,224,84838,1,2,0:0:0:0:
384,196,84921,1,2,0:0:0:0:
380,172,85005,1,12,0:0:0:0:
248,28,85338,6,8,L|260:104,1,70,12|12,0:0|0:0,0:0:0:0:
216,184,85671,1,2,0:0:0:0:
260,272,85838,1,2,0:0:0:0:
160,268,86005,1,2,0:0:0:0:
140,256,86088,1,2,0:0:0:0:
120,244,86171,2,0,L|109:174,1,70,8|0,0:0|0:0,0:0:0:0:
33,34,86505,6,0,L|44:104,1,70,4|2,0:0|0:0,0:0:0:0:
128,56,86838,2,0,P|164:64|228:60,1,70
292,41,87171,1,2,0:0:0:0:
386,69,87338,1,0,0:0:0:0:
476,32,87505,1,2,0:0:0:0:
298,81,87671,6,0,P|329:133|328:214,1,140,2|0,0:0|0:0,0:0:0:0:
284,297,88171,1,0,0:0:0:0:
195,339,88338,2,0,L|125:342,1,70,10|0,0:0|0:0,0:0:0:0:
56,271,88672,1,2,0:0:0:0:
149,241,88839,1,2,0:0:0:0:
200,158,89005,1,2,0:0:0:0:
284,210,89171,6,0,P|296:166|288:118,1,70,2|0,0:0|0:0,0:0:0:0:
392,118,89505,2,0,P|384:78|396:22,2,70,2|0|0,0:0|0:0|0:0,0:0:0:0:
475,168,90005,1,2,0:0:0:0:
417,246,90171,1,0,0:0:0:0:
432,342,90338,6,0,P|380:326|276:330,1,140,2|2,0:0|0:0,0:0:0:0:
276,310,90755,1,0,0:0:0:0:
256,294,90838,1,2,0:0:0:0:
240,278,90921,1,0,0:0:0:0:
220,262,91005,2,0,P|216:306|200:342,1,70,8|0,0:0|0:0,0:0:0:0:
123,277,91338,1,8,0:0:0:0:
129,179,91504,1,0,0:0:0:0:
68,104,91671,1,8,0:0:0:0:
60,76,91754,1,8,0:0:0:0:
52,48,91838,6,0,L|130:39,1,70,4|0,0:0|0:0,0:0:0:0:
212,80,92171,2,0,L|290:71,1,70
364,20,92505,1,2,0:0:0:0:
360,116,92671,1,0,0:0:0:0:
428,188,92838,1,2,0:0:0:0:
384,276,93005,6,0,P|324:260|236:276,1,140,2|0,0:0|0:0,0:0:0:0:
284,180,93505,1,0,0:0:0:0:
236,96,93671,2,0,L|228:16,1,70,8|0,0:0|0:0,0:0:0:0:
308,84,94005,1,2,0:0:0:0:
156,28,94171,1,2,0:0:0:0:
64,60,94338,1,8,0:0:0:0:
64,60,94421,1,8,0:0:0:0:
64,60,94505,6,0,L|56:304,1,224,8|2,0:0|0:0,0:0:0:0:
56,308,95255,1,0,0:0:0:0:
80,304,95338,1,2,0:0:0:0:
104,304,95421,1,0,0:0:0:0:
128,308,95505,1,2,0:0:0:0:
152,316,95588,1,0,0:0:0:0:
176,328,95671,1,8,0:0:0:0:
176,160,96005,5,8,0:0:0:0:
272,24,96338,1,8,0:0:0:0:
396,136,96671,2,0,L|444:132,2,28,2|0|2,0:0|0:0|0:0,0:0:0:0:
372,136,96921,1,2,0:0:0:0:
348,144,97005,1,2,0:0:0:0:
328,160,97088,1,0,0:0:0:0:
312,180,97171,5,4,0:0:0:0:
256,192,97255,12,4,99671,0:0:0:0:
236,56,100171,5,2,0:0:0:0:
