osu file format v14

[General]
AudioFilename: audio.mp3
AudioLeadIn: 0
PreviewTime: 50669
Countdown: 0
SampleSet: Soft
StackLeniency: 0.7
Mode: 0
LetterboxInBreaks: 0
WidescreenStoryboard: 0

[Editor]
DistanceSpacing: 1.2
BeatDivisor: 4
GridSize: 4
TimelineZoom: 1.1

[Metadata]
Title:1st Love Story
TitleUnicode:1st Love Story <TV size>
Artist:Luce Twinkle Wink
ArtistUnicode:Luce Twinkle Wink☆
Creator:AliomLoung
Version:Hard
Source:ネトゲの嫁は女の子じゃないと思った?
Tags:Netoge no Yome wa Onnanoko ja Nai to Omotta? opening Karen ZZHBOY
BeatmapID:960303
BeatmapSetID:447245

[Difficulty]
HPDrainRate:6
CircleSize:4
OverallDifficulty:6
ApproachRate:7
SliderMultiplier:1.5
SliderTickRate:1

[Events]
//Background and Video events
Video,0,"optc.flv"
0,0,"23595601761_9c6414ca2f_o1.jpg",0,0
//Break Periods
//Storyboard Layer 0 (Background)
//Storyboard Layer 1 (Fail)
//Storyboard Layer 2 (Pass)
//Storyboard Layer 3 (Foreground)
//Storyboard Sound Samples

[TimingPoints]
1142,436.363636363636,4,2,1,50,1,0
14669,-100,4,1,0,50,0,0
15105,-100,4,2,1,55,0,0
21651,-76.9230769230769,4,1,0,55,0,0
22087,-100,4,2,1,60,0,0
50669,-133.333333333333,4,2,1,60,0,0
51323,-100,4,1,0,50,0,0
51432,-100,4,2,1,60,0,0
51760,-100,4,2,1,70,0,1
64851,-100,4,2,1,70,0,0
65287,-100,4,1,0,70,0,0
65396,-100,4,2,1,70,0,0
65723,-100,4,2,1,70,0,1
78814,-100,4,2,1,70,0,0
79687,-100,4,2,1,70,0,1
86669,-100,4,2,1,70,0,1
89287,-100,4,2,1,5,0,0

[Colours]
Combo1 : 255,255,117
Combo2 : 85,170,255
Combo3 : 117,255,186
Combo4 : 255,147,201
Combo5 : 255,129,68

[HitObjects]
56,160,1142,6,0,P|89:83|33:29,1,150,2|8,0:3|0:1,0:0:0:0:
56,160,2014,2,0,L|137:154,1,75,2|0,0:3|0:0,0:0:0:0:
176,76,2451,1,8,0:1:0:0:
252,124,2669,2,0,P|256:208|252:300,1,150,0|2,0:0|0:3,0:0:0:0:
180,324,3323,5,8,0:1:0:0:
168,236,3541,1,0,0:0:0:0:
96,288,3760,2,0,L|12:300,1,75
168,236,4196,2,0,L|248:240,1,75,8|0,0:1|0:0,0:0:0:0:
297,311,4632,6,0,P|333:243|299:169,1,150,2|8,0:3|0:1,0:0:0:0:
255,105,5287,1,0,0:0:0:0:
196,172,5505,2,0,L|121:172,2,75,0|0|8,0:0|0:0|0:1,0:0:0:0:
58,237,6160,6,0,P|31:171|85:89,1,150,2|0,0:3|0:0,0:0:0:0:
148,78,6814,2,0,P|183:82|253:67,1,75,8|0,0:1|0:0,0:0:0:0:
307,46,7251,2,0,P|309:178|307:216,1,150,2|2,0:3|0:3,0:0:0:0:
10,306,8123,6,0,B|56:291|56:291|104:320|156:293,1,150,4|0,0:0|0:0,0:0:0:0:
200,217,8778,1,0,0:0:0:0:
106,217,8996,2,0,P|101:174|114:127,1,75
195,128,9432,1,8,0:1:0:0:
259,64,9651,6,0,P|334:73|289:113,1,150,2|0,0:3|0:0,0:0:0:0:
264,183,10305,1,2,0:3:0:0:
341,228,10523,2,0,P|333:277|352:330,1,75
422,269,10960,2,0,L|486:219,2,75,0|8|0,0:0|0:1|0:0,0:0:0:0:
253,303,11614,6,0,P|179:329|94:296,1,150,4|8,0:0|0:1,0:0:0:0:
27,279,12269,2,0,P|21:319|41:365,2,75,6|0|0,0:0|0:0|0:0,0:0:0:0:
88,213,12923,1,8,0:1:0:0:
30,144,13141,6,0,B|-8:105|8:45|8:45|79:38,1,150,2|0,0:0|0:0,0:0:0:0:
126,90,13796,2,0,L|217:82,1,75,2|0,0:0|0:0,0:0:0:0:
348,58,14232,2,0,L|277:36,1,75,2|0,0:3|0:0,0:0:0:0:
200,83,14669,1,8,0:0:0:0:
279,274,15105,6,0,L|279:124,1,150,4|2,0:0|0:0,0:0:0:0:
200,83,15760,1,0,0:0:0:0:
125,133,15978,2,0,P|124:212|119:236,1,75,8|0,0:0|0:0,0:0:0:0:
40,314,16414,2,0,P|37:277|40:240,1,75,2|0,0:0|0:0,0:0:0:0:
30,150,16851,5,8,0:0:0:0:
64,67,17069,1,0,0:0:0:0:
125,133,17287,2,0,L|226:114,1,75,2|0,0:0|0:0,0:0:0:0:
230,35,17723,2,0,P|276:76|286:114,1,75,8|0,0:0|0:0,0:0:0:0:
272,176,18160,2,0,P|319:166|354:135,1,75,2|0,0:0|0:0,0:0:0:0:
421,111,18596,6,0,L|422:36,1,75,4|0,0:0|0:0,0:0:0:0:
421,111,19032,1,2,0:0:0:0:
482,177,19251,2,0,P|416:147|319:158,1,150,12|10,0:0|0:0,0:0:0:0:
321,238,19905,1,8,0:0:0:0:
254,177,20123,6,0,P|211:192|106:139,1,150,12|2,0:0|0:0,0:0:0:0:
57,88,20778,1,8,0:0:0:0:
25,172,20996,1,8,0:0:0:0:
25,172,21105,1,0,0:0:0:0:
25,172,21214,2,0,P|24:223|35:276,1,75,2|0,0:0|0:0,0:0:0:0:
40,335,21651,6,0,B|103:321|117:254|117:254|169:239|208:284,1,194.999991073609,8|4,0:0|0:0,0:0:0:0:
355,123,22523,6,0,P|404:131|430:122,1,75,2|0,0:0|0:0,0:0:0:0:
477,48,22960,2,0,L|462:197,1,150,8|2,0:0|0:0,0:0:0:0:
479,285,23614,1,0,0:0:0:0:
395,317,23832,6,0,L|379:244,1,75,8|0,0:0|0:0,0:0:0:0:
384,153,24269,1,2,0:0:0:0:
460,106,24487,2,0,P|466:64|455:31,2,75,0|8|0,0:0|0:0|0:0,0:0:0:0:
375,74,25141,1,2,0:0:0:0:
305,131,25360,6,0,P|201:137|150:118,1,150
70,140,26014,2,0,L|78:236,1,75,2|0,0:0|0:0,0:0:0:0:
159,123,26451,2,0,L|165:48,1,75,8|0,0:0|0:0,0:0:0:0:
253,33,26887,1,2,0:0:0:0:
296,111,27105,6,0,P|355:106|399:117,1,75,0|8,0:0|0:0,0:0:0:0:
416,185,27541,2,0,P|379:190|341:187,1,75,0|2,0:0|0:0,0:0:0:0:
251,189,27978,1,0,0:0:0:0:
296,111,28197,1,8,0:0:0:0:
296,266,28414,1,0,0:0:0:0:
420,259,28632,2,0,L|416:185,1,75,2|0,0:0|0:0,0:0:0:0:
479,327,29069,6,0,P|420:297|346:341,1,150,4|2,0:0|0:0,0:0:0:0:
261,342,29723,1,0,0:0:0:0:
171,337,29941,2,0,P|98:338|87:331,1,75,8|0,0:0|0:0,0:0:0:0:
134,255,30378,2,0,L|116:160,1,75,2|0,0:0|0:0,0:0:0:0:
64,85,30814,6,0,L|34:154,1,75,8|0,0:0|0:0,0:0:0:0:
45,243,31251,1,2,0:0:0:0:
134,255,31469,2,0,P|220:245|288:260,1,150
347,318,32123,1,2,0:0:0:0:
410,254,32341,6,0,B|409:205|401:163|401:163|408:99,1,150,4|0,0:0|0:0,0:0:0:0:
334,51,32996,1,2,0:0:0:0:
249,81,33214,2,0,L|169:60,1,75,0|8,0:0|0:0,0:0:0:0:
95,124,33651,2,0,L|194:148,1,75,0|2,0:0|0:0,0:0:0:0:
254,166,34087,6,0,B|282:236|243:275|243:275|209:249,1,150,4|0,0:0|0:0,0:0:0:0:
131,224,34741,1,2,0:0:0:0:
168,142,34960,1,0,0:0:0:0:
107,73,35178,2,0,L|32:83,2,75,8|8|2,0:0|0:0|0:0,0:0:0:0:
195,60,35832,1,0,0:0:0:0:
275,101,36051,6,0,P|337:117|382:40,2,150,8|2|8,0:0|0:0|0:0,0:0:0:0:
195,60,37141,1,0,0:0:0:0:
198,150,37360,2,0,L|199:245,1,75,2|0,0:0|0:0,0:0:0:0:
162,307,37796,6,0,B|115:273|115:273|115:164,1,150,8|2,0:0|0:0,0:0:0:0:
57,111,38451,1,0,0:0:0:0:
30,197,38669,2,0,L|30:272,1,75,8|0,0:0|0:0,0:0:0:0:
81,345,39105,2,0,P|127:341|180:351,1,75,2|0,0:0|0:0,0:0:0:0:
242,322,39541,6,0,B|229:276|188:260|188:260|200:195,1,150,8|2,0:0|0:0,0:0:0:0:
175,109,40196,1,0,0:0:0:0:
263,124,40414,2,0,L|362:121,1,75,8|0,0:0|0:0,0:0:0:0:
410,205,40851,2,0,L|336:203,1,75,2|0,0:0|0:0,0:0:0:0:
245,213,41287,5,4,0:0:0:0:
263,124,41505,1,0,0:0:0:0:
310,288,41723,1,2,0:0:0:0:
335,202,41941,2,0,L|352:128,1,75,0|8,0:0|0:0,0:0:0:0:
442,134,42378,2,0,L|425:60,1,75,0|2,0:0|0:0,0:0:0:0:
337,43,42814,6,0,B|277:54|219:21|164:56,1,150,4|0,0:0|0:0,0:0:0:0:
134,117,43469,2,0,P|145:171|119:212,1,75,2|0,0:0|0:0,0:0:0:0:
56,223,43905,2,0,L|240:237,1,150,8|2,0:0|0:0,0:0:0:0:
278,181,44560,1,0,0:0:0:0:
283,270,44778,5,8,0:0:0:0:
364,231,44996,2,0,P|373:267|359:319,2,75,0|2|0,0:0|0:0|0:0,0:0:0:0:
358,140,45651,1,0,0:0:0:0:
278,181,45869,1,0,0:0:0:0:
251,95,46087,2,0,P|243:53|254:19,1,75,2|0,0:0|0:0,0:0:0:0:
358,140,46523,6,0,P|367:183|351:234,1,75,4|0,0:0|0:0,0:0:0:0:
335,299,46960,1,2,0:0:0:0:
249,326,47178,2,0,B|176:324|142:335|142:335|88:304,1,150,2|0,0:3|0:0,0:0:0:0:
47,245,47832,2,0,L|37:162,1,75,2|0,0:0|0:0,0:0:0:0:
72,51,48269,6,0,P|145:79|214:55,1,150,4|2,0:0|0:0,0:0:0:0:
440,50,49141,2,0,P|371:77|301:57,1,150,4|2,0:0|0:0,0:0:0:0:
255,135,49796,1,0,0:0:0:0:
165,131,50014,6,0,B|166:183|201:207|201:207|189:258|199:289,1,150,4|0,0:3|0:0,0:0:0:0:
252,340,50669,2,0,B|311:341|334:320|334:320|386:332,1,140.625005364418
404,304,51323,2,0,P|407:267|405:230,1,75,8|0,0:0|0:0,0:0:0:0:
346,78,51760,6,0,L|166:83,1,150,4|2,0:0|0:0,0:0:0:0:
107,69,52414,1,0,0:0:0:0:
108,158,52632,2,0,P|104:201|109:241,1,75,8|0,0:0|0:0,0:0:0:0:
195,329,53069,2,0,P|200:292|194:256,1,75,2|0,0:0|0:0,0:0:0:0:
206,166,53505,6,0,L|387:158,1,150,8|2,0:0|0:0,0:0:0:0:
434,203,54160,2,0,P|443:166|439:130,1,75,0|8,0:0|0:0,0:0:0:0:
370,71,54596,1,0,0:0:0:0:
285,101,54814,1,2,0:0:0:0:
355,159,55032,1,0,0:0:0:0:
358,249,55251,6,0,P|275:257|197:253,1,150,8|2,0:0|0:0,0:0:0:0:
128,294,55905,1,0,0:0:0:0:
128,294,56014,1,0,0:0:0:0:
128,294,56123,2,0,P|119:252|128:216,1,75,8|0,0:0|0:0,0:0:0:0:
153,135,56560,1,2,0:0:0:0:
240,25,56778,6,0,P|286:76|242:129,1,150
205,211,57432,1,2,0:0:0:0:
153,135,57651,1,0,0:0:0:0:
63,136,57869,2,0,B|44:233|44:233|53:307,1,150,12|6,0:0|0:0,0:0:0:0:
140,282,58523,1,0,0:0:0:0:
289,331,58741,6,0,P|252:337|216:332,1,75,4|0,0:0|0:0,0:0:0:0:
140,282,59178,1,2,0:0:0:0:
132,192,59396,2,0,P|136:152|128:88,1,75
176,40,59832,1,0,0:0:0:0:
248,96,60051,1,2,0:0:0:0:
304,28,60269,6,0,L|284:200,1,150
217,281,60923,2,0,L|204:208,1,75,2|0,0:0|0:0,0:0:0:0:
216,120,61360,1,8,0:0:0:0:
286,176,61578,2,0,P|328:168|360:176,1,75,0|2,0:0|0:0,0:0:0:0:
424,236,62014,1,0,0:0:0:0:
282,302,62232,6,0,B|214:310|173:289|173:289|108:306,1,150,4|2,0:0|0:0,0:0:0:0:
132,208,62887,2,0,P|96:218|60:230,2,75,4|8|0,0:0|0:0|0:0,0:0:0:0:
192,141,63541,1,2,0:0:0:0:
240,217,63760,6,0,P|336:227|395:216,1,150,4|0,0:0|0:0,0:0:0:0:
446,78,64414,2,0,P|435:113|444:149,1,75,2|0,0:0|0:0,0:0:0:0:
475,235,64851,1,8,0:0:0:0:
421,307,65069,1,0,0:0:0:0:
421,307,65287,2,0,L|313:312,1,75,8|0,0:0|0:0,0:0:0:0:
256,304,65723,6,0,B|264:245|313:227|313:227|267:175,1,150,4|2,0:0|0:0,0:0:0:0:
195,220,66378,1,0,0:0:0:0:
202,130,66596,2,0,P|199:72|204:37,1,75,8|0,0:0|0:0,0:0:0:0:
279,115,67032,2,0,P|283:152|280:189,1,75,2|0,0:0|0:0,0:0:0:0:
314,273,67469,6,0,B|240:288|219:255|163:284,1,150,8|2,0:0|0:0,0:0:0:0:
76,281,68123,1,0,0:0:0:0:
41,197,68341,1,8,0:0:0:0:
130,188,68560,2,0,L|114:114,2,75,0|2|0,0:0|0:0|0:0,0:0:0:0:
184,60,69214,6,0,P|119:25|51:50,1,150,8|2,0:0|0:0,0:0:0:0:
30,138,69869,2,0,P|34:177|31:223,2,75,0|8|0,0:0|0:0|0:0,0:0:0:0:
113,104,70523,1,2,0:0:0:0:
190,150,70741,6,0,P|251:177|276:95,1,150
245,35,71396,2,0,P|294:28|350:43,1,75,2|0,0:0|0:0,0:0:0:0:
367,107,71832,2,0,P|378:178|362:285,1,150,8|6,0:0|0:0,0:0:0:0:
316,327,72487,1,0,0:0:0:0:
208,262,72705,6,0,P|203:299|207:336,1,75,4|0,0:0|0:0,0:0:0:0:
267,198,73141,2,0,P|270:160|266:123,1,75,2|0,0:0|0:0,0:0:0:0:
197,65,73578,1,8,0:0:0:0:
181,153,73796,1,0,0:0:0:0:
266,123,74014,1,2,0:0:0:0:
94,124,74232,6,0,P|100:195|180:246,1,150,4|4,0:0|0:0,0:0:0:0:
243,213,74887,2,0,P|280:203|317:214,1,75,2|4,0:0|0:0,0:0:0:0:
378,275,75323,2,0,L|401:368,2,75,8|0|2,0:0|0:0|0:0,0:0:0:0:
441,211,75978,1,0,0:0:0:0:
484,290,76196,6,0,L|488:140,1,150,4|2,0:0|0:0,0:0:0:0:
400,117,76851,2,0,B|339:108|300:124|300:124|251:124,1,150,4|0,0:0|0:0,0:0:0:0:
252,124,77396,1,0,0:0:0:0:
252,124,77505,1,2,0:0:0:0:
147,37,77723,6,0,B|208:28|247:44|247:44|295:44,1,150,4|0,0:0|0:0,0:0:0:0:
385,34,78378,1,2,0:0:0:0:
452,92,78596,1,0,0:0:0:0:
385,152,78814,2,0,P|394:187|386:224,1,75,8|0,0:0|0:0,0:0:0:0:
302,333,79251,2,0,P|293:296|304:260,1,75,2|0,0:0|0:0,0:0:0:0:
293,171,79687,6,0,P|218:163|144:173,1,150,4|2,0:0|0:0,0:0:0:0:
76,232,80341,1,0,0:0:0:0:
58,143,80560,2,0,L|78:69,1,75,8|0,0:0|0:0,0:0:0:0:
167,61,80996,1,2,0:0:0:0:
228,126,81214,6,0,B|291:131|331:105|331:105|389:133,1,150,4|0,0:0|0:0,0:0:0:0:
450,164,81869,1,2,0:0:0:0:
390,231,82087,2,0,P|394:294|378:336,1,75,4|8,0:0|0:0,0:0:0:0:
304,285,82523,2,0,L|216:274,1,75,0|2,0:0|0:0,0:0:0:0:
256,188,82960,1,0,0:0:0:0:
341,80,83178,6,0,P|374:147|322:234,1,150,4|2,0:0|0:0,0:0:0:0:
163,213,83832,2,0,P|139:145|171:80,1,150,4|0,0:0|0:0,0:0:0:0:
172,78,84378,1,0,0:0:0:0:
172,78,84487,1,2,0:0:0:0:
256,46,84705,6,0,L|256:196,1,150,4|0,0:0|0:0,0:0:0:0:
211,274,85360,1,2,0:0:0:0:
300,274,85578,1,0,0:0:0:0:
334,190,85796,2,0,P|336:133|324:89,1,75,8|0,0:0|0:0,0:0:0:0:
179,115,86232,2,0,P|174:152|178:190,1,75,2|0,0:0|0:0,0:0:0:0:
256,287,86669,5,2,0:3:0:0:
256,192,86778,12,0,89287,0:0:0:0:
