osu file format v14

[General]
AudioFilename: audio.mp3
AudioLeadIn: 0
PreviewTime: 50669
Countdown: 0
SampleSet: Soft
StackLeniency: 0.7
Mode: 0
LetterboxInBreaks: 0
WidescreenStoryboard: 0

[Editor]
DistanceSpacing: 1.1
BeatDivisor: 4
GridSize: 4
TimelineZoom: 1.1

[Metadata]
Title:1st Love Story
TitleUnicode:1st Love Story <TV size>
Artist:Luce Twinkle Wink
ArtistUnicode:Luce Twinkle Wink☆
Creator:AliomLoung
Version:Easy
Source:ネトゲの嫁は女の子じゃないと思った?
Tags:Netoge no Yome wa Onnanoko ja Nai to Omotta? opening Karen ZZHBOY
BeatmapID:960302
BeatmapSetID:447245

[Difficulty]
HPDrainRate:2
CircleSize:3
OverallDifficulty:2
ApproachRate:3
SliderMultiplier:1
SliderTickRate:1

[Events]
//Background and Video events
Video,0,"optc.flv"
0,0,"23595601761_9c6414ca2f_o1.jpg",0,0
//Break Periods
2,15305,20647
//Storyboard Layer 0 (Background)
//Storyboard Layer 1 (Fail)
//Storyboard Layer 2 (Pass)
//Storyboard Layer 3 (Foreground)
//Storyboard Sound Samples

[TimingPoints]
1142,436.363636363636,4,2,1,50,1,0
14669,-100,4,1,0,50,0,0
15105,-100,4,2,1,50,0,0
22087,-100,4,2,1,65,0,0
51323,-100,4,1,0,65,0,0
51760,-100,4,2,1,70,0,1
64851,-100,4,2,1,70,0,0
65723,-100,4,2,1,70,0,1
78814,-100,4,2,1,70,0,0
79687,-100,4,2,1,60,0,1
86669,-100,4,2,1,40,0,1
89287,-100,4,2,1,5,0,0

[Colours]
Combo1 : 255,255,117
Combo2 : 85,170,255
Combo3 : 117,255,186
Combo4 : 255,147,201
Combo5 : 255,129,68

[HitObjects]
136,294,1142,6,0,P|184:234|96:152,1,200,2|2,0:3|0:3,0:0:0:0:
88,44,2451,1,8,0:1:0:0:
196,64,2887,2,0,P|256:76|352:52,2,150,0|2|8,0:0|0:3|0:1,0:0:0:0:
88,44,4632,6,0,P|80:108|96:156,1,100,0|8,0:0|0:1,0:0:0:0:
196,176,5505,2,0,P|204:248|200:332,2,150,0|2|8,0:0|0:3|0:1,0:0:0:0:
213,67,7251,1,2,0:3:0:0:
316,31,7687,1,8,0:1:0:0:
374,123,8123,6,0,B|441:83|492:102|492:102|492:190,1,200,4|0,0:0|0:0,0:0:0:0:
385,304,9651,2,0,B|318:344|267:325|267:325|267:249,1,200,4|0,0:0|0:0,0:0:0:0:
366,117,11178,1,8,0:1:0:0:
256,121,11614,6,0,P|199:111|146:131,1,100,4|0,0:0|0:0,0:0:0:0:
138,173,12269,2,0,P|134:229|140:287,1,100,2|0,0:3|0:0,0:0:0:0:
240,309,13141,2,0,B|309:316|309:316|401:300,1,150,4|2,0:3|0:0,0:0:0:0:
403,193,14232,1,2,0:3:0:0:
333,107,14669,1,0,0:0:0:0:
258,187,15105,1,4,0:0:0:0:
192,44,22087,5,4,0:0:0:0:
104,108,22523,2,0,P|104:192|108:224,2,100,2|8|2,0:0|0:0|0:0,0:0:0:0:
192,44,23832,2,0,P|252:48|308:40,1,100,8|2,0:0|0:0,0:0:0:0:
396,76,24705,2,0,L|420:180,1,100,8|2,0:0|0:0,0:0:0:0:
492,256,25578,6,0,B|424:312|344:260|344:260|312:296,1,200,8|8,0:0|0:0,0:0:0:0:
214,327,26887,1,2,0:0:0:0:
106,303,27323,2,0,P|76:273|106:131,1,200,8|8,0:0|0:0,0:0:0:0:
192,68,28632,1,2,0:0:0:0:
296,103,29069,6,0,L|402:93,1,100,4|2,0:0|0:0,0:0:0:0:
465,178,29941,2,0,L|343:187,1,100,8|2,0:0|0:0,0:0:0:0:
314,283,30814,1,8,0:0:0:0:
213,327,31251,2,0,P|148:324|80:256,1,150,2|0,0:0|0:0,0:0:0:0:
184,220,32341,6,0,L|170:63,2,150,4|2|0,0:0|0:0|0:0,0:0:0:0:
288,256,34087,2,0,L|276:96,1,150,4|2,0:0|0:0,0:0:0:0:
379,146,35178,2,0,P|386:216|386:216,2,50,8|2|2,0:0|0:0|0:0,0:0:0:0:
443,56,36051,6,0,P|485:121|488:158,2,100,4|2|8,0:0|0:0|0:0,0:0:0:0:
379,146,37360,1,2,0:0:0:0:
334,46,37796,2,0,P|274:42|214:46,1,100,8|2,0:0|0:0,0:0:0:0:
263,150,38669,2,0,P|213:154|163:150,1,100,8|2,0:0|0:0,0:0:0:0:
114,52,39541,6,0,B|58:34|22:48|22:48|8:116,2,150,8|0|2,0:0|0:0|0:0,0:0:0:0:
140,158,41287,2,0,B|140:211|140:211|148:255|148:255|144:307,2,150,12|0|2,0:0|0:0|0:0,0:0:0:0:
204,70,43032,6,0,B|304:62|304:62|336:114,1,150,8|0,0:0|0:0,0:0:0:0:
340,158,43905,2,0,P|336:226|340:274,1,100,8|2,0:0|0:0,0:0:0:0:
440,302,44778,2,0,P|442:252|438:202,2,100,8|2|8,0:0|0:0|0:0,0:0:0:0:
337,343,46087,1,2,0:0:0:0:
232,307,46523,6,0,B|182:280|182:280|133:297|133:297|96:272|42:299,2,200,4|8|4,0:0|0:0|0:0,0:0:0:0:
441,240,49141,1,2,0:3:0:0:
335,47,50014,2,0,B|331:122|291:135|291:135|215:67|167:155|97:90,1,300,4|8,0:3|0:0,0:0:0:0:
19,164,51760,6,0,L|26:270,1,100,4|2,0:0|0:0,0:0:0:0:
120,320,52632,2,0,L|112:216,2,100,8|2|8,0:0|0:0|0:0,0:0:0:0:
228,340,53941,1,2,0:0:0:0:
308,264,54378,2,0,L|416:264,2,100,8|2|8,0:0|0:0|0:0,0:0:0:0:
272,160,55687,5,2,0:0:0:0:
192,236,56123,2,0,P|162:164|220:62,1,200,8|8,0:0|0:0,0:0:0:0:
325,43,57432,2,0,P|373:46|427:39,1,100,2|12,0:0|0:0,0:0:0:0:
483,132,58305,1,6,0:0:0:0:
377,161,58741,6,0,P|360:233|376:306,2,150,12|0|2,0:0|0:0|0:0,0:0:0:0:
320,68,60487,2,0,P|240:72|204:60,1,100,8|2,0:0|0:0,0:0:0:0:
112,76,61360,2,0,L|90:286,1,200,8|4,0:0|0:0,0:0:0:0:
176,348,62669,5,2,0:0:0:0:
224,248,63105,2,0,B|244:188|208:148|244:88,2,150,8|4|2,0:0|0:0|0:0,0:0:0:0:
312,316,64851,2,0,P|380:300|404:312,1,100,8|2,0:0|0:3,0:0:0:0:
429,204,65723,6,0,P|502:152|426:96,1,200,12|8,0:0|0:0,0:0:0:0:
341,44,67032,1,2,0:0:0:0:
300,146,67469,2,0,L|198:139,1,100,8|2,0:0|0:0,0:0:0:0:
109,77,68341,2,0,P|90:136|99:182,1,100,8|2,0:0|0:0,0:0:0:0:
105,282,69214,5,8,0:0:0:0:
200,227,69651,1,2,0:0:0:0:
260,318,70087,2,0,P|311:330|360:314,1,100,8|2,0:0|0:0,0:0:0:0:
423,230,70960,2,0,L|442:79,2,150,8|0|6,0:0|0:0|0:0,0:0:0:0:
410,339,72705,5,12,0:0:0:0:
309,293,73141,2,0,B|292:232|241:235|241:235|202:287|153:266,1,200,2|2,0:0|0:0,0:0:0:0:
59,324,74451,2,0,P|44:272|52:222,2,100,8|2|8,0:0|0:0|0:0,0:0:0:0:
153,266,75760,2,0,P|157:213|134:156,1,100,2|4,0:0|0:0,0:0:0:0:
81,77,76632,6,0,B|110:49|142:51|142:51|177:87|237:61,2,150,2|0|8,0:0|0:0|0:0,0:0:0:0:
42,180,78378,2,0,P|39:232|43:295,1,100,2|8,0:0|0:0,0:0:0:0:
135,336,79251,1,2,0:0:0:0:
244,334,79687,6,0,P|333:334|349:332,1,100,4|2,0:0|0:0,0:0:0:0:
284,239,80560,2,0,P|234:235|184:237,1,100,8|2,0:0|0:0,0:0:0:0:
117,324,81432,2,0,P|75:243|128:145,1,200,8|8,0:0|0:0,0:0:0:0:
198,74,82741,1,2,0:0:0:0:
260,164,83178,6,0,P|324:176|368:144,1,100,4|2,0:0|0:0,0:0:0:0:
404,144,83832,2,0,L|416:256,1,100,4|0,0:0|0:0,0:0:0:0:
328,312,84705,2,0,P|252:316|168:312,1,150,4|2,0:0|0:0,0:0:0:0:
136,212,85796,1,8,0:0:0:0:
204,124,86232,1,4,0:0:0:0:
256,192,86669,12,0,89287,0:0:0:0:
