osu file format v14

[General]
AudioFilename: audio.mp3
AudioLeadIn: 0
PreviewTime: 129698
Countdown: 0
SampleSet: Soft
StackLeniency: 0.7
Mode: 0
LetterboxInBreaks: 0
WidescreenStoryboard: 0

[Editor]
DistanceSpacing: 1.3
BeatDivisor: 4
GridSize: 4
TimelineZoom: 1.299999

[Metadata]
Title:1st Love Story
TitleUnicode:1st Love Story
Artist:Luce Twinkle Wink
ArtistUnicode:Luce Twinkle Wink☆
Creator:Meyrink
Version:Gaia's Hard
Source:ネトゲの嫁は女の子じゃないと思った?
Tags:Netoge no Yome wa Onnanoko ja Nai to Omotta ? ルーチェ・トゥインクル・ウィンク And you thought there is never a girl online NetoYome Net Game Opening Theme cloudsplash16 Little Gaia 藤林聖子 大久保薫 錦織めぐみ 桧垣果穂 宇佐美幸乃 板山紗織 深沢紗希
BeatmapID:1108954
BeatmapSetID:468904

[Difficulty]
HPDrainRate:5.5
CircleSize:4
OverallDifficulty:6
ApproachRate:7
SliderMultiplier:1.45
SliderTickRate:1

[Events]
//Background and Video events
0,0,"MyAngelAko.png",0,0
//Break Periods
//Storyboard Layer 0 (Background)
//Storyboard Layer 1 (Fail)
//Storyboard Layer 2 (Pass)
//Storyboard Layer 3 (Foreground)
//Storyboard Sound Samples

[TimingPoints]
1626,436.363636363636,4,2,17,50,1,0
1626,-133.333333333333,4,2,17,50,0,0
8607,-133.333333333333,4,2,1,50,0,0
9044,-133.333333333333,4,2,17,50,0,0
12098,-111.111111111111,4,2,16,70,0,0
12535,-111.111111111111,4,2,17,70,0,0
12753,-111.111111111111,4,2,16,70,0,0
13407,-111.111111111111,4,2,17,70,0,0
13625,-111.111111111111,4,2,16,70,0,0
15153,-111.111111111111,4,2,1,70,0,0
15589,-100,4,2,16,70,0,0
17116,-100,4,2,17,70,0,0
17553,-100,4,2,16,70,0,0
20607,-100,4,2,17,70,0,0
21044,-100,4,2,16,70,0,0
21698,-86.9565217391304,4,2,16,70,0,0
22571,-100,4,2,16,70,0,0
24098,-100,4,2,17,70,0,0
24535,-100,4,2,16,70,0,0
29553,-100,4,2,16,60,0,0
43516,-100,4,2,16,70,0,0
58789,-76.9230769230769,4,2,1,70,0,0
59225,-100,4,2,16,80,0,1
60753,-100,4,2,17,80,0,1
61407,-100,4,2,16,80,0,1
61625,-100,4,2,17,80,0,1
61735,-100,4,2,16,80,0,1
64244,-100,4,2,17,80,0,1
64680,-100,4,2,16,80,0,1
65335,-86.9565217391304,4,2,16,80,0,1
66207,-100,4,2,16,80,0,1
67735,-100,4,2,17,80,0,1
68171,-100,4,2,16,80,0,1
68607,-100,4,2,17,80,0,1
69044,-100,4,2,16,80,0,1
72753,-100,4,2,16,80,0,0
73189,-100,4,2,16,80,0,1
74716,-100,4,2,17,80,0,1
75371,-100,4,2,16,80,0,1
75589,-100,4,2,17,80,0,1
75698,-100,4,2,16,80,0,1
78207,-100,4,2,17,80,0,1
78644,-100,4,2,16,80,0,1
79298,-100,4,2,16,80,0,1
80171,-100,4,2,16,80,0,1
85844,-100,4,2,16,50,0,1
87153,-100,4,2,16,70,0,0
88680,-100,4,2,17,70,0,0
89116,-100,4,2,16,70,0,0
92171,-100,4,2,17,70,0,0
92607,-100,4,2,16,70,0,0
93262,-86.9565217391304,4,2,16,70,0,0
94135,-100,4,2,16,70,0,0
95662,-100,4,2,17,70,0,0
96316,-100,4,2,16,70,0,0
96535,-100,4,2,17,70,0,0
96753,-100,4,2,16,70,0,0
101116,-100,4,2,16,60,0,0
106135,-100,4,2,17,60,0,0
106789,-100,4,2,16,60,0,0
107007,-100,4,2,17,60,0,0
107225,-100,4,2,16,60,0,0
107444,-100,4,2,17,60,0,0
107662,-100,4,2,16,60,0,0
115080,-100,4,2,16,70,0,0
130353,-76.9230769230769,4,2,1,70,0,0
130789,-100,4,2,16,80,0,1
132316,-100,4,2,17,80,0,1
132971,-100,4,2,16,80,0,1
133189,-100,4,2,17,80,0,1
133298,-100,4,2,16,80,0,1
135807,-100,4,2,17,80,0,1
136244,-100,4,2,16,80,0,1
136898,-86.9565217391304,4,2,16,80,0,1
137771,-100,4,2,16,80,0,1
139298,-100,4,2,17,80,0,1
139953,-100,4,2,16,80,0,1
144316,-100,4,2,16,80,0,0
144753,-100,4,2,16,80,0,1
146280,-100,4,2,17,80,0,1
146935,-100,4,2,16,80,0,1
147153,-100,4,2,17,80,0,1
147262,-100,4,2,16,80,0,1
149771,-100,4,2,17,80,0,1
150425,-100,4,2,16,80,0,1
150862,-86.9565217391304,4,2,16,80,0,1
151735,-100,4,2,16,80,0,1
158716,-100,4,2,16,60,0,0
169189,-100,4,2,16,70,0,0
172680,-100,4,2,16,80,0,0
178571,-83.3333333333333,4,2,16,80,0,0
179444,-100,4,2,16,80,0,0
187298,-100,4,2,16,40,0,0
188280,-100,4,2,16,10,0,0
188389,-133.333333333333,4,2,17,50,0,0
197989,-100,4,2,17,50,0,0
198862,-133.333333333333,4,2,16,60,0,0
200389,-133.333333333333,4,2,17,60,0,0
201044,-133.333333333333,4,2,16,60,0,0
201262,-133.333333333333,4,2,17,60,0,0
201916,-133.333333333333,4,2,16,60,0,0
202353,-111.111111111111,4,2,16,70,0,0
202789,-111.111111111111,4,2,17,70,0,0
203007,-111.111111111111,4,2,16,70,0,0
203662,-111.111111111111,4,2,17,70,0,0
203880,-111.111111111111,4,2,16,70,0,0
204535,-111.111111111111,4,2,16,40,0,0
205407,-76.9230769230769,4,2,1,70,0,0
205844,-100,4,2,16,80,0,1
207371,-100,4,2,17,80,0,1
208025,-100,4,2,16,80,0,1
208244,-100,4,2,17,80,0,1
208353,-100,4,2,16,80,0,1
210862,-100,4,2,17,80,0,1
211516,-100,4,2,16,80,0,1
211953,-86.9565217391304,4,2,16,80,0,1
212825,-100,4,2,16,80,0,1
219371,-100,4,2,16,80,0,0
219807,-100,4,2,16,80,0,1
226789,-100,4,2,17,70,0,0
230280,-100,4,2,16,30,0,0

[Colours]
Combo1 : 222,166,230
Combo2 : 255,128,128
Combo3 : 138,173,255
Combo4 : 255,220,113

[HitObjects]
176,32,1626,6,0,L|160:148,1,108.750004148483,4|8,0:0|0:0,0:0:0:0:
24,240,2498,2,0,P|83:228|136:220,1,108.750004148483,2|8,0:0|0:0,0:0:0:0:
216,212,3153,2,0,P|240:264|204:312,1,108.750004148483,2|0,0:0|0:0,0:0:0:0:
264,372,3807,2,0,P|296:363|336:356,1,54.3750020742417,10|0,0:0|0:0,0:0:0:0:
348,284,4244,2,0,P|423:297|480:304,1,108.750004148483,2|8,0:0|0:0,0:0:0:0:
500,144,5116,6,0,P|443:157|368:168,1,108.750004148483,2|8,0:0|0:0,0:0:0:0:
288,52,5989,2,0,L|308:164,1,108.750004148483,2|8,0:0|0:0,0:0:0:0:
228,196,6644,2,0,P|205:187|108:164,1,108.750004148483,2|0,0:0|0:0,0:0:0:0:
44,148,7298,2,0,L|52:201,1,54.3750020742417,10|0,0:0|0:0,0:0:0:0:
124,244,7735,2,0,L|100:360,1,108.750004148483,2|2,0:0|0:0,0:0:0:0:
28,380,8389,1,2,0:0:0:0:
128,368,8607,6,0,P|185:352|244:344,1,108.750004148483,6|8,0:0|0:0,0:0:0:0:
292,288,9262,1,0,0:0:0:0:
292,288,9480,2,0,P|311:322|316:348,1,54.3750020742417,2|0,0:0|0:0,0:0:0:0:
388,368,9916,1,8,0:0:0:0:
388,368,10135,2,0,P|397:325|408:260,1,108.750004148483,2|2,0:0|0:0,0:0:0:0:
468,204,10789,1,8,0:0:0:0:
468,204,11007,2,0,P|428:180|352:204,1,108.750004148483,2|0,0:0|0:0,0:0:0:0:
284,184,11662,2,0,L|224:164,1,54.3750020742417,10|0,0:0|0:0,0:0:0:0:
208,72,12098,6,0,P|136:84|64:100,1,130.499996017456,6|8,0:0|0:0,0:0:0:0:
28,240,12753,2,0,P|84:260|132:188,1,130.499996017456,6|0,0:0|0:0,0:0:0:0:
188,152,13407,1,10,0:0:0:0:
284,232,13625,2,0,L|260:370,1,130.499996017456,6|0,0:0|0:0,0:0:0:0:
360,336,14280,2,0,L|412:352,3,32.624999004364,2|2|2|2,0:0|0:0|0:0|0:0,0:0:0:0:
424,320,14716,2,0,L|480:316,3,32.624999004364,2|2|2|2,0:0|0:0|0:0|0:0,0:0:0:0:
488,288,15153,2,0,P|500:244|464:192,1,97.8749970130921,8|0,1:1|0:0,0:0:0:0:
468,156,15589,6,0,P|401:168|320:176,1,145,6|8,0:0|0:0,0:0:0:0:
268,112,16244,1,0,0:0:0:0:
268,112,16353,1,0,0:0:0:0:
268,112,16462,2,0,P|204:96|168:104,1,72.5,2|0,0:0|0:0,0:0:0:0:
124,144,16898,1,8,0:0:0:0:
216,216,17116,2,0,L|200:368,1,145,4|0,0:0|0:0,0:0:0:0:
112,368,17771,2,0,P|108:338|100:292,1,72.5,8|0,0:0|0:0,0:0:0:0:
76,260,18098,1,0,0:0:0:0:
76,260,18207,2,0,L|84:176,1,72.5,2|0,0:0|0:0,0:0:0:0:
16,132,18644,2,0,L|28:52,1,72.5,8|0,0:0|0:0,0:0:0:0:
108,28,19080,6,0,B|200:56|200:56|264:40,1,145,2|8,0:0|0:0,0:0:0:0:
336,52,19735,1,0,0:0:0:0:
336,52,19844,1,0,0:0:0:0:
336,52,19953,2,0,P|327:96|320:152,1,72.5,2|0,0:0|0:0,0:0:0:0:
252,172,20389,1,8,0:0:0:0:
340,264,20607,2,0,P|412:244|428:160,1,145,4|0,0:0|0:0,0:0:0:0:
340,140,21262,2,0,L|348:200,3,36.25,8|0|0|0,0:0|0:0|0:0|0:0,0:0:0:0:
296,192,21698,6,0,P|258:182|152:160,1,125.062502385378,6|0,0:0|0:0,0:0:0:0:
132,184,22135,2,0,P|147:231|152:276,1,83.375001590252,12|2,0:0|0:0,0:0:0:0:
44,320,22571,6,0,P|17:239|9:163,1,145,6|8,0:0|0:0,0:0:0:0:
40,100,23225,1,0,0:0:0:0:
40,100,23335,1,0,0:0:0:0:
40,100,23444,2,0,L|124:112,1,72.5,2|0,0:0|0:0,0:0:0:0:
176,52,23880,1,8,0:0:0:0:
216,168,24098,2,0,P|281:156|364:140,1,145,4|0,0:0|0:0,0:0:0:0:
408,68,24753,1,8,0:0:0:0:
488,104,24971,1,0,0:0:0:0:
488,104,25189,2,0,L|472:208,1,72.5,2|0,0:0|0:0,0:0:0:0:
412,232,25625,2,0,L|428:312,1,72.5,8|0,0:0|0:0,0:0:0:0:
448,340,25953,1,0,0:0:0:0:
448,340,26062,6,0,P|400:308|300:336,1,145,6|8,0:0|0:0,0:0:0:0:
176,348,26716,2,0,B|128:364|128:364|82:353|36:336,1,145,6|2,0:0|0:0,0:0:0:0:
4,224,27371,1,8,0:0:0:0:
4,224,27589,2,0,P|40:184|144:192,1,145,6|2,0:0|0:0,0:0:0:0:
224,152,28244,2,0,P|218:187|216:232,1,72.5,8|2,0:0|0:0,0:0:0:0:
232,272,28571,1,2,0:0:0:0:
232,272,28680,2,0,L|320:260,1,72.5,2|2,0:0|0:0,0:0:0:0:
376,192,29116,2,0,L|460:200,1,72.5,8|2,0:0|0:0,0:0:0:0:
488,96,29553,6,0,P|416:44|344:80,1,145,6|8,0:0|0:0,0:0:0:0:
180,92,30425,2,0,P|173:59|160:16,2,72.5,2|0|8,0:0|0:0|0:0,0:0:0:0:
120,156,31080,2,0,P|92:148|12:232,1,145
72,276,31735,2,0,P|59:316|52:360,1,72.5,8|0,0:0|0:0,0:0:0:0:
140,340,32171,2,0,P|214:330|296:316,1,145,2|8,0:0|0:0,0:0:0:0:
312,236,32825,1,0,0:0:0:0:
348,156,33044,6,0,B|360:268|360:268|388:304,2,145,2|8|2,0:0|0:0|0:0,0:0:0:0:
308,80,34135,1,0,0:0:0:0:
352,4,34353,1,8,0:0:0:0:
352,4,34571,2,0,P|280:44|196:24,1,145
96,16,35225,2,0,P|117:60|132:104,1,72.5,8|0,0:0|0:0,0:0:0:0:
132,192,35662,2,0,P|165:175|216:144,1,72.5,2|0,0:0|0:0,0:0:0:0:
288,80,36098,1,8,0:0:0:0:
280,168,36316,1,0,0:0:0:0:
328,272,36535,6,0,P|410:262|480:252,1,145,6|8,0:0|0:0,0:0:0:0:
380,108,37407,2,0,P|358:76|344:24,2,72.5,2|0|8,0:0|0:0|0:0,0:0:0:0:
328,180,38062,2,0,P|268:174|168:160,1,145
112,112,38716,1,8,0:0:0:0:
192,192,38935,2,0,P|216:248|172:328,1,145
48,308,39589,1,8,0:0:0:0:
48,308,39807,6,0,P|24:252|68:172,1,145,4|0,0:0|0:0,0:0:0:0:
112,112,40462,2,0,P|88:99|40:84,1,72.5,8|0,0:0|0:0,0:0:0:0:
180,52,40898,2,0,P|214:41|247:25,2,72.5,2|0|8,0:0|0:0|0:0,0:0:0:0:
212,156,41553,2,0,P|304:136|356:188,1,145,4|0,0:0|0:0,0:0:0:0:
428,160,42207,2,0,L|416:248,1,72.5,12|0,0:0|0:0,0:0:0:0:
344,280,42644,2,0,P|356:322|364:352,2,72.5,2|2|8,0:0|0:0|0:0,0:0:0:0:
264,224,43298,1,2,0:0:0:0:
264,224,43407,1,2,0:0:0:0:
264,224,43516,6,0,P|192:224|164:308,2,145,6|8|2,0:0|0:0|0:0,0:0:0:0:
340,184,44607,1,0,0:0:0:0:
288,112,44825,2,0,P|283:80|280:24,1,72.5,8|0,0:0|0:0,0:0:0:0:
164,8,45262,2,0,P|156:52|152:88,1,72.5,2|0,0:0|0:0,0:0:0:0:
72,108,45698,2,0,P|82:153|92:204,1,72.5,8|0,0:0|0:0,0:0:0:0:
72,264,46135,2,0,P|112:255|148:244,1,72.5,2|0,0:0|0:0,0:0:0:0:
228,228,46571,2,0,P|222:264|216:328,1,72.5,8|0,0:0|0:0,0:0:0:0:
284,360,47007,6,0,P|360:352|384:272,1,145,2|8,0:0|0:0,0:0:0:0:
336,228,47662,1,0,0:0:0:0:
336,228,47880,2,0,P|339:193|348:148,1,72.5,2|0,0:0|0:0,0:0:0:0:
348,52,48316,2,0,P|316:66|272:81,1,72.5,8|0,0:0|0:0,0:0:0:0:
188,128,48753,2,0,P|215:147|251:178,2,72.5,6|0|8,0:0|0:0|0:0,0:0:0:0:
80,36,49407,2,0,P|40:56|48:156,1,145,4|4,0:0|0:0,0:0:0:0:
108,200,50062,1,8,0:0:0:0:
108,200,50280,6,0,L|92:348,1,145,4|0,0:0|0:0,0:0:0:0:
176,372,50935,2,0,P|212:364|252:348,1,72.5,8|0,0:0|0:0,0:0:0:0:
324,312,51371,2,0,P|401:326|476:336,1,145,2|8,0:0|0:0,0:0:0:0:
484,248,52025,2,0,P|412:234|340:224,1,145
292,152,52680,2,0,P|287:122|272:64,1,72.5,8|0,0:0|0:0,0:0:0:0:
204,36,53116,2,0,P|167:38|120:52,1,72.5,2|0,0:0|0:0,0:0:0:0:
100,128,53553,2,0,P|65:120|4:116,1,72.5,8|0,0:0|0:0,0:0:0:0:
24,262,53989,6,0,P|72:211|142:215,1,145,6|8,0:0|0:0,0:0:0:0:
212,164,54644,2,0,P|196:242|184:324,1,145
124,368,55298,2,0,P|110:336|100:292,1,72.5,8|0,0:0|0:0,0:0:0:0:
244,212,55735,2,0,P|292:260|280:356,1,145,6|8,0:0|0:0,0:0:0:0:
372,368,56389,1,0,0:0:0:0:
372,368,56498,1,0,0:0:0:0:
372,368,56607,2,0,P|409:354|464:332,1,72.5,6|0,0:0|0:0,0:0:0:0:
476,264,57044,2,0,P|465:242|456:216,3,36.25,2|2|2|2,0:0|0:0|0:0|0:0,0:0:0:0:
460,188,57480,5,6,0:0:0:0:
280,24,58135,2,0,P|288:79|296:168,1,145
196,220,58789,6,0,B|148:196|92:240|36:200,1,141.374993528366,8|0,0:1|0:0,0:0:0:0:
28,180,59225,6,0,B|44:292|44:292|92:328,1,145,6|8,0:0|0:0,0:0:0:0:
124,376,59880,1,0,0:0:0:0:
124,376,59989,1,0,0:0:0:0:
124,376,60098,2,0,P|164:359|200:348,1,72.5,2|0,0:0|0:0,0:0:0:0:
220,268,60535,1,8,0:0:0:0:
320,236,60753,2,0,P|416:272|468:284,1,145,6|2,0:0|0:0,0:0:0:0:
508,212,61407,2,0,P|503:186|484:124,1,72.5,8|2,0:0|0:0,0:0:0:0:
468,100,61735,1,0,0:0:0:0:
468,100,61844,2,0,P|438:117|392:128,1,72.5,2|0,0:0|0:0,0:0:0:0:
316,124,62280,2,0,P|291:105|252:60,1,72.5,8|0,0:0|0:0,0:0:0:0:
196,20,62716,6,0,P|184:110|176:184,1,145,2|8,0:0|0:0,0:0:0:0:
96,188,63371,1,0,0:0:0:0:
96,188,63480,1,0,0:0:0:0:
96,188,63589,2,0,P|103:233|112:276,1,72.5,2|0,0:0|0:0,0:0:0:0:
56,328,64025,1,8,0:0:0:0:
184,356,64244,2,0,P|257:343|344:328,1,145,4|0,0:0|0:0,0:0:0:0:
408,260,64898,2,0,P|392:252|340:236,1,72.5,8|0,0:0|0:0,0:0:0:0:
308,204,65225,1,0,0:0:0:0:
308,204,65335,6,0,P|292:120|332:92,1,125.062502385378,6|0,0:0|0:0,0:0:0:0:
352,80,65771,2,0,P|380:128|368:172,1,83.375001590252,12|2,0:0|0:0,0:0:0:0:
232,184,66207,6,0,L|76:160,1,145,6|8,0:0|0:0,0:0:0:0:
20,216,66862,1,0,0:0:0:0:
20,216,66971,1,0,0:0:0:0:
20,216,67080,2,0,P|16:256|32:288,1,72.5,2|0,0:0|0:0,0:0:0:0:
64,364,67516,1,8,0:0:0:0:
148,336,67735,2,0,P|208:316|284:348,1,145,6|0,0:0|0:0,0:0:0:0:
332,276,68389,1,8,0:0:0:0:
332,276,68607,2,0,P|404:272|460:208,1,145,6|0,0:0|0:0,0:0:0:0:
508,148,69262,2,0,L|428:136,1,72.5,8|0,0:0|0:0,0:0:0:0:
332,52,69698,6,0,B|344:160|344:160|380:204,1,145,6|8,0:0|0:0,0:0:0:0:
236,140,70353,2,0,P|184:152|172:240,1,145,6|2,0:0|0:0,0:0:0:0:
248,320,71007,1,8,0:0:0:0:
248,320,71225,2,0,B|352:304|352:304|380:332,1,145,6|2,0:0|0:0,0:0:0:0:
472,284,71880,2,0,P|480:255|484:200,1,72.5,8|2,0:0|0:0,0:0:0:0:
504,80,72316,2,0,L|432:104,1,72.5,2|2,0:0|0:0,0:0:0:0:
342,202,72753,2,0,L|272:184,1,72.5,8|0,0:0|0:0,0:0:0:0:
208,80,73189,6,0,P|160:128|72:120,1,145,6|8,0:0|0:0,0:0:0:0:
24,188,73844,1,0,0:0:0:0:
24,188,73953,1,0,0:0:0:0:
24,188,74062,2,0,P|32:239|40:280,1,72.5,2|0,0:0|0:0,0:0:0:0:
108,308,74498,1,8,0:0:0:0:
212,232,74716,2,0,P|293:245|380:256,1,145,6|2,0:0|0:0,0:0:0:0:
412,188,75371,2,0,P|403:143|388:96,1,72.5,8|2,0:0|0:0,0:0:0:0:
368,84,75698,1,0,0:0:0:0:
368,84,75807,2,0,P|329:97|288:104,1,72.5,2|0,0:0|0:0,0:0:0:0:
220,140,76244,2,0,P|192:125|140:104,1,72.5,8|0,0:0|0:0,0:0:0:0:
72,24,76680,6,0,P|36:72|68:172,1,145,2|8,0:0|0:0,0:0:0:0:
32,252,77335,1,0,0:0:0:0:
32,252,77444,1,0,0:0:0:0:
32,252,77553,2,0,P|79:242|120:236,1,72.5,2|0,0:0|0:0,0:0:0:0:
160,304,77989,1,8,0:0:0:0:
160,304,78207,2,0,P|238:308|312:312,1,145,4|0,0:0|0:0,0:0:0:0:
384,244,78862,2,0,P|378:209|352:152,1,72.5,8|0,0:0|0:0,0:0:0:0:
280,56,79298,6,0,B|264:144|264:144|232:116,1,108.75,6|0,0:0|0:0,0:0:0:0:
216,128,79735,2,0,P|184:116|136:120,1,72.5,12|2,0:0|0:0,0:0:0:0:
32,224,80171,6,0,P|128:232|184:188,1,145,6|8,0:0|0:0,0:0:0:0:
248,240,80825,1,0,0:0:0:0:
248,240,80935,1,0,0:0:0:0:
248,240,81044,2,0,L|228:316,1,72.5,2|0,0:0|0:0,0:0:0:0:
280,380,81480,1,8,0:0:0:0:
368,284,81698,2,0,P|436:280|468:360,1,145,6|4,0:0|0:0,0:0:0:0:
456,240,82353,1,8,0:0:0:0:
456,240,82571,2,0,P|444:179|428:76,1,145,6|0,0:0|0:0,0:0:0:0:
324,24,83225,2,0,P|300:52|304:116,1,72.5,8|0,0:0|0:0,0:0:0:0:
312,128,83553,1,0,0:0:0:0:
312,128,83662,6,0,B|216:112|216:112|184:52,1,145,6|8,0:0|0:0,0:0:0:0:
84,32,84316,2,0,B|68:128|68:128|24:156,1,145,6|2,0:0|0:0,0:0:0:0:
4,236,84971,1,8,0:0:0:0:
84,312,85189,2,0,L|240:284,1,145,6|0,0:0|0:0,0:0:0:0:
288,224,85844,2,0,L|328:240,3,36.25,8|8|8|8,0:0|0:0|0:0|0:0,0:0:0:0:
352,268,86280,2,0,L|392:264,3,36.25,8|8|8|8,0:0|0:0|0:0|0:0,0:0:0:0:
424,240,86716,2,0,P|448:196|408:128,1,108.75,8|0,0:0|0:0,0:0:0:0:
424,104,87153,6,0,L|272:80,1,145,6|8,0:0|0:0,0:0:0:0:
204,44,87807,1,0,0:0:0:0:
204,44,87916,1,0,0:0:0:0:
204,44,88025,2,0,P|166:55|104:68,1,72.5,2|0,0:0|0:0,0:0:0:0:
48,44,88462,1,8,0:0:0:0:
4,156,88680,2,0,P|64:144|136:212,1,145,4|0,0:0|0:0,0:0:0:0:
144,276,89335,2,0,P|109:270|64:248,1,72.5,8|0,0:0|0:0,0:0:0:0:
32,256,89662,1,0,0:0:0:0:
32,256,89771,2,0,L|48:356,1,72.5,2|0,0:0|0:0,0:0:0:0:
184,368,90207,2,0,L|172:296,1,72.5,8|0,0:0|0:0,0:0:0:0:
252,188,90644,6,0,P|304:184|304:280,1,145,2|8,0:0|0:0,0:0:0:0:
312,348,91298,1,0,0:0:0:0:
312,348,91407,1,0,0:0:0:0:
312,348,91516,2,0,P|354:341|396:332,1,72.5,2|0,0:0|0:0,0:0:0:0:
488,272,91953,1,8,0:0:0:0:
432,204,92171,2,0,P|424:156|412:56,1,145,4|0,0:0|0:0,0:0:0:0:
336,16,92825,2,0,L|312:56,3,36.25,8|0|0|0,0:0|0:0|0:0|0:0,0:0:0:0:
280,72,93262,6,0,P|207:57|140:48,1,125.062502385378,6|0,0:0|0:0,0:0:0:0:
120,64,93698,2,0,B|144:104|136:164,1,83.375001590252,12|2,0:0|0:0,0:0:0:0:
36,216,94135,6,0,P|104:176|176:212,1,145,6|8,0:0|0:0,0:0:0:0:
204,272,94789,1,0,0:0:0:0:
204,272,94898,1,0,0:0:0:0:
204,272,95007,2,0,P|195:317|164:356,1,72.5,2|0,0:0|0:0,0:0:0:0:
120,276,95444,1,8,0:0:0:0:
240,232,95662,2,0,B|344:244|344:244|368:288,1,145,6|2,0:0|0:0,0:0:0:0:
420,344,96316,2,0,P|430:318|448:268,1,72.5,8|2,0:0|0:0,0:0:0:0:
480,180,96753,2,0,P|438:191|400:204,1,72.5,2|0,0:0|0:0,0:0:0:0:
328,144,97189,2,0,P|307:142|240:136,1,72.5,8|0,0:0|0:0,0:0:0:0:
152,32,97625,6,0,B|176:92|132:112|156:180,1,145,6|8,0:0|0:0,0:0:0:0:
252,264,98280,2,0,B|204:252|204:252|156:264|156:264|80:248,1,145,6|2,0:0|0:0,0:0:0:0:
40,204,98935,1,8,0:0:0:0:
40,344,99153,2,0,P|92:328|180:368,1,145,6|2,0:0|0:0,0:0:0:0:
268,296,99807,2,0,L|360:280,1,72.5,8|2,0:0|0:0,0:0:0:0:
364,248,100135,1,2,0:0:0:0:
364,248,100244,2,0,L|460:264,1,72.5,2|2,0:0|0:0,0:0:0:0:
492,168,100680,2,0,L|420:156,1,72.5,8|2,0:0|0:0,0:0:0:0:
332,60,101116,6,0,P|308:104|212:88,1,145,6|8,0:0|0:0,0:0:0:0:
92,216,101989,2,0,P|50:225|8:232,2,72.5,2|0|8,0:0|0:0|0:0,0:0:0:0:
172,180,102644,2,0,B|156:288|156:288|124:316,1,145
64,380,103298,2,0,P|56:345|50:310,1,72.5,8|0,0:0|0:0,0:0:0:0:
228,312,103735,2,0,P|221:347|213:382,2,72.5,2|0|8,0:0|0:0|0:0,0:0:0:0:
292,252,104389,1,0,0:0:0:0:
372,324,104607,6,0,B|479:306|479:306|496:252,1,145,2|8,0:0|0:0,0:0:0:0:
500,184,105262,1,0,0:0:0:0:
500,184,105480,2,0,P|466:193|408:208,1,72.5,2|0,0:0|0:0,0:0:0:0:
364,148,105916,1,8,0:0:0:0:
364,148,106135,2,0,P|324:120|224:152,1,145,6|6,0:0|0:0,0:0:0:0:
176,252,106789,2,0,P|167:226|156:168,1,72.5,8|6,0:0|0:0,0:0:0:0:
96,68,107225,2,0,P|138:86|180:100,1,72.5,2|6,0:0|0:0,0:0:0:0:
308,104,107662,1,8,0:0:0:0:
296,192,107880,1,0,0:0:0:0:
193,257,108098,6,0,P|135:243|25:217,1,145,6|8,0:0|0:0,0:0:0:0:
12,56,108971,2,0,P|16:103|24:140,2,72.5,2|0|8,0:0|0:0|0:0,0:0:0:0:
84,8,109625,2,0,P|95:88|100:164,1,145
52,224,110280,1,8,0:0:0:0:
120,276,110498,2,0,B|226:262|226:262|256:212,1,145
296,156,111153,1,8,0:0:0:0:
412,224,111371,6,0,P|424:296|344:348,1,145,4|0,0:0|0:0,0:0:0:0:
304,296,112025,2,0,P|304:269|332:220,1,72.5,8|0,0:0|0:0,0:0:0:0:
400,184,112462,2,0,L|384:108,1,72.5,2|0,0:0|0:0,0:0:0:0:
364,28,112898,1,8,0:0:0:0:
276,112,113116,2,0,L|120:88,1,145,4|0,0:0|0:0,0:0:0:0:
52,52,113771,2,0,P|44:96|60:144,1,72.5,12|2,0:0|0:0,0:0:0:0:
80,152,114098,1,2,0:0:0:0:
80,152,114207,2,0,L|72:244,1,72.5,2|2,0:0|0:0,0:0:0:0:
16,292,114644,1,12,0:0:0:0:
76,356,114862,1,2,0:0:0:0:
76,356,114971,1,2,0:0:0:0:
76,356,115080,6,0,P|150:366|224:372,2,145,6|8|2,0:0|0:0|0:0,0:0:0:0:
28,284,116171,1,0,0:0:0:0:
84,216,116389,2,0,P|79:182|72:136,1,72.5,8|0,0:0|0:0,0:0:0:0:
60,32,116825,2,0,P|92:60|128:80,1,72.5,2|0,0:0|0:0,0:0:0:0:
184,168,117262,2,0,P|216:152|260:140,1,72.5,8|0,0:0|0:0,0:0:0:0:
376,96,117698,2,0,P|362:144|348:184,1,72.5,2|0,0:0|0:0,0:0:0:0:
260,232,118135,2,0,P|275:278|284:312,1,72.5,8|0,0:0|0:0,0:0:0:0:
196,376,118571,6,0,P|152:332|52:344,1,145,2|8,0:0|0:0,0:0:0:0:
12,260,119225,1,0,0:0:0:0:
12,260,119444,2,0,L|0:184,1,72.5,2|0,0:0|0:0,0:0:0:0:
60,128,119880,2,0,P|66:89|72:36,1,72.5,8|0,0:0|0:0,0:0:0:0:
184,0,120316,2,0,P|224:12|220:108,1,145,6|8,0:0|0:0,0:0:0:0:
144,200,120971,2,0,P|218:192|308:176,1,145,4|4,0:0|0:0,0:0:0:0:
336,108,121625,1,8,0:0:0:0:
420,204,121844,6,0,P|395:281|380:360,1,145,4|0,0:0|0:0,0:0:0:0:
312,292,122498,2,0,P|274:299|236:320,1,72.5,8|0,0:0|0:0,0:0:0:0:
164,352,122935,2,0,P|88:348|76:264,1,145,2|8,0:0|0:0,0:0:0:0:
4,232,123589,2,0,L|148:248,1,145
228,212,124244,2,0,P|224:168|192:140,1,72.5,8|0,0:0|0:0,0:0:0:0:
164,72,124680,2,0,L|256:60,1,72.5,2|0,0:0|0:0,0:0:0:0:
308,12,125116,2,0,P|355:19|396:28,1,72.5,8|0,0:0|0:0,0:0:0:0:
488,96,125553,6,0,P|424:116|432:200,1,145,6|8,0:0|0:0,0:0:0:0:
396,304,126207,2,0,B|356:328|356:328|248:308,1,145
176,284,126862,2,0,P|183:326|188:364,1,72.5,8|0,0:0|0:0,0:0:0:0:
84,244,127298,2,0,P|94:174|104:88,1,145,6|8,0:0|0:0,0:0:0:0:
164,36,127953,1,0,0:0:0:0:
164,36,128062,1,0,0:0:0:0:
164,36,128171,2,0,P|222:51|240:64,1,72.5,6|0,0:0|0:0,0:0:0:0:
304,108,128607,2,0,L|372:92,3,36.25,2|0|0|0,0:0|0:0|0:0|0:0,0:0:0:0:
384,92,129044,5,6,0:0:0:0:
168,236,129698,2,0,B|266:203|266:203|244:256,1,145
344,364,130353,6,0,P|316:332|364:260,1,141.374993528366,8|0,0:1|0:0,0:0:0:0:
392,228,130789,6,0,B|404:184|404:184|372:64,1,145,6|8,0:0|0:0,0:0:0:0:
324,20,131444,1,0,0:0:0:0:
324,20,131553,1,0,0:0:0:0:
324,20,131662,2,0,P|297:56|292:88,1,72.5,2|0,0:0|0:0,0:0:0:0:
300,168,132098,1,8,0:0:0:0:
216,196,132316,2,0,P|151:187|60:168,1,145,6|2,0:0|0:0,0:0:0:0:
12,236,132971,2,0,P|23:277|40:308,1,72.5,8|2,0:0|0:0,0:0:0:0:
76,320,133298,1,0,0:0:0:0:
76,320,133407,2,0,P|114:313|172:300,1,72.5,2|0,0:0|0:0,0:0:0:0:
228,272,133844,2,0,P|271:282|304:288,1,72.5,8|0,0:0|0:0,0:0:0:0:
356,352,134280,6,0,P|345:312|324:204,1,145,2|8,0:0|0:0,0:0:0:0:
360,132,134935,1,0,0:0:0:0:
360,132,135044,1,0,0:0:0:0:
360,132,135153,2,0,P|396:121|448:112,1,72.5,2|0,0:0|0:0,0:0:0:0:
492,52,135589,1,8,0:0:0:0:
320,56,135807,2,0,P|275:51|160:44,1,145,6|0,0:0|0:0,0:0:0:0:
84,24,136462,2,0,P|96:75|104:104,1,72.5,8|0,0:0|0:0,0:0:0:0:
84,132,136789,1,0,0:0:0:0:
84,132,136898,6,0,B|76:178|72:212|72:212|104:248,1,125.062502385378,6|0,0:0|0:0,0:0:0:0:
112,280,137335,2,0,L|16:268,1,83.375001590252,12|2,0:0|0:0,0:0:0:0:
100,372,137771,6,0,P|168:360|204:280,1,145,6|8,0:0|0:0,0:0:0:0:
272,248,138425,1,0,0:0:0:0:
272,248,138535,1,0,0:0:0:0:
272,248,138644,2,0,P|312:260|348:264,1,72.5,2|0,0:0|0:0,0:0:0:0:
416,216,139080,1,8,0:0:0:0:
492,160,139298,2,0,P|448:128|340:156,1,145,6|2,0:0|0:0,0:0:0:0:
292,88,139953,2,0,P|253:100|204:112,1,72.5,8|0,0:0|0:0,0:0:0:0:
184,84,140280,1,0,0:0:0:0:
184,84,140389,2,0,L|84:72,1,72.5,2|0,0:0|0:0,0:0:0:0:
48,136,140825,2,0,P|59:176|68:224,1,72.5,8|0,0:0|0:0,0:0:0:0:
136,316,141262,6,0,P|145:248|156:164,1,145,6|8,0:0|0:0,0:0:0:0:
232,64,141916,2,0,B|260:96|260:96|244:208,1,145,6|2,0:0|0:0,0:0:0:0:
180,252,142571,1,8,0:0:0:0:
264,340,142789,2,0,P|308:316|412:312,1,145,6|2,0:0|0:0,0:0:0:0:
464,212,143444,2,0,P|429:224|380:228,1,72.5,8|2,0:0|0:0,0:0:0:0:
284,152,143880,2,0,P|294:186|304:236,1,72.5,2|2,0:0|0:0,0:0:0:0:
192,180,144316,2,0,P|168:176|116:172,1,72.5,8|2,0:0|0:0,0:0:0:0:
24,280,144753,6,0,P|109:268|184:260,1,145,6|8,0:0|0:0,0:0:0:0:
252,280,145407,1,0,0:0:0:0:
252,280,145516,1,0,0:0:0:0:
252,280,145625,2,0,P|246:250|228:200,1,72.5,2|0,0:0|0:0,0:0:0:0:
168,152,146062,1,8,0:0:0:0:
272,192,146280,2,0,P|316:172|324:80,1,145,6|2,0:0|0:0,0:0:0:0:
392,28,146935,2,0,P|413:68|424:108,1,72.5,8|2,0:0|0:0,0:0:0:0:
444,128,147262,1,0,0:0:0:0:
444,128,147371,2,0,L|432:228,1,72.5,2|0,0:0|0:0,0:0:0:0:
448,288,147807,2,0,P|424:279|356:268,1,72.5,8|0,0:0|0:0,0:0:0:0:
296,344,148244,6,0,P|228:368|132:368,1,145,2|8,0:0|0:0,0:0:0:0:
92,312,148898,1,0,0:0:0:0:
92,312,149007,1,0,0:0:0:0:
92,312,149116,2,0,L|100:220,1,72.5,2|0,0:0|0:0,0:0:0:0:
60,160,149553,1,8,0:0:0:0:
180,88,149771,2,0,P|212:156|172:236,1,145,6|2,0:0|0:0,0:0:0:0:
220,300,150425,2,0,P|251:288|296:268,1,72.5,8|0,0:0|0:0,0:0:0:0:
392,144,150862,6,0,L|372:276,1,125.062502385378,6|0,0:0|0:0,0:0:0:0:
388,300,151298,2,0,P|424:278|472:268,1,83.375001590252,12|2,0:0|0:0,0:0:0:0:
376,380,151735,6,0,P|320:373|208:360,1,145,6|8,0:0|0:0,0:0:0:0:
168,304,152389,1,0,0:0:0:0:
168,304,152498,1,0,0:0:0:0:
168,304,152607,2,0,P|161:270|156:220,1,72.5,2|0,0:0|0:0,0:0:0:0:
160,112,153044,1,8,0:0:0:0:
224,196,153262,2,0,P|148:216|84:184,1,145,4|4,0:0|0:0,0:0:0:0:
44,116,153916,1,8,0:0:0:0:
96,44,154135,2,0,P|172:24|236:56,1,145,4|0,0:0|0:0,0:0:0:0:
260,128,154789,2,0,P|248:172|244:216,1,72.5,8|0,0:0|0:0,0:0:0:0:
276,232,155116,1,0,0:0:0:0:
276,232,155225,6,0,B|380:208|380:208|440:236,1,145,6|8,0:0|0:0,0:0:0:0:
492,328,155880,2,0,P|435:314|320:312,1,145,6|2,0:0|0:0,0:0:0:0:
276,356,156535,1,8,0:0:0:0:
176,272,156753,2,0,P|148:220|212:148,1,145,6|2,0:0|0:0,0:0:0:0:
304,116,157407,2,0,P|293:164|284:208,1,72.5,8|2,0:0|0:0,0:0:0:0:
184,104,157844,2,0,L|172:28,1,72.5,2|2,0:0|0:0,0:0:0:0:
308,4,158280,2,0,L|319:75,1,72.5,8|2,0:0|0:0,0:0:0:0:
392,124,158716,6,0,P|448:140|448:228,1,145,6|8,0:0|0:0,0:0:0:0:
380,260,159371,1,0,0:0:0:0:
416,340,159589,2,0,P|454:334|504:324,1,72.5,2|0,0:0|0:0,0:0:0:0:
352,256,160025,2,0,L|276:248,1,72.5,8|0,0:0|0:0,0:0:0:0:
200,176,160462,2,0,B|184:280|184:280|212:328,1,145,2|8,0:0|0:0,0:0:0:0:
120,368,161116,1,0,0:0:0:0:
120,368,161335,2,0,P|79:356|48:308,1,72.5,2|0,0:0|0:0,0:0:0:0:
40,252,161771,2,0,L|56:172,1,72.5,8|0,0:0|0:0,0:0:0:0:
72,96,162207,5,2,0:0:0:0:
232,24,162644,2,0,P|244:62|252:104,1,72.5,8|0,0:0|0:0,0:0:0:0:
248,180,163080,2,0,P|278:166|316:148,1,72.5,2|0,0:0|0:0,0:0:0:0:
400,132,163516,2,0,P|388:194|384:240,1,108.75,8|0,0:0|0:0,0:0:0:0:
408,276,163953,2,0,B|305:271|305:271|276:320,1,145,2|8,0:0|0:0,0:0:0:0:
212,356,164607,2,0,P|140:336|136:256,1,145
84,200,165262,1,8,0:0:0:0:
220,236,165480,6,0,P|306:227|380:216,1,145,4|0,0:0|0:0,0:0:0:0:
412,144,166135,1,8,0:0:0:0:
364,72,166353,1,0,0:0:0:0:
364,72,166571,2,0,P|337:105|320:144,1,72.5,2|0,0:0|0:0,0:0:0:0:
280,208,167007,1,8,0:0:0:0:
280,208,167225,2,0,P|268:133|252:52,1,145,4|0,0:0|0:0,0:0:0:0:
172,96,167880,2,0,P|144:87|80:80,1,72.5,8|0,0:0|0:0,0:0:0:0:
60,156,168316,2,0,P|95:161|130:171,1,72.5,2|0,0:0|0:0,0:0:0:0:
184,240,168753,2,0,P|156:296|96:296,1,108.75,8|0,0:0|0:0,0:0:0:0:
96,340,169189,6,0,B|201:327|201:327|240:368,1,145,6|8,0:0|0:0,0:0:0:0:
284,256,169844,2,0,P|276:214|260:104,1,145,6|2,0:0|0:0,0:0:0:0:
292,32,170498,1,8,0:0:0:0:
144,44,170716,2,0,P|130:148|124:204,1,145,6|2,0:0|0:0,0:0:0:0:
84,292,171371,2,0,P|122:281|164:272,1,72.5,8|0,0:0|0:0,0:0:0:0:
212,208,171807,1,2,0:0:0:0:
284,256,172025,1,2,0:0:0:0:
364,224,172244,2,0,P|361:260|356:296,1,72.5,8|2,0:0|0:0,0:0:0:0:
288,164,172680,6,0,P|340:128|440:160,1,145,6|8,0:0|0:0,0:0:0:0:
456,220,173335,1,0,0:0:0:0:
456,220,173444,1,0,0:0:0:0:
456,220,173553,2,0,P|453:256|448:292,1,72.5,2|0,0:0|0:0,0:0:0:0:
356,296,173989,2,0,P|361:260|364:224,1,72.5,8|0,0:0|0:0,0:0:0:0:
288,164,174425,2,0,P|210:174|140:180,1,145,2|8,0:0|0:0,0:0:0:0:
76,124,175080,1,0,0:0:0:0:
16,188,175298,2,0,P|34:223|48:260,1,72.5,2|0,0:0|0:0,0:0:0:0:
108,332,175735,2,0,P|113:305|128:252,1,72.5,8|0,0:0|0:0,0:0:0:0:
160,148,176171,6,0,P|152:76|72:40,1,145,2|8,0:0|0:0,0:0:0:0:
16,80,176825,1,0,0:0:0:0:
16,80,176935,1,0,0:0:0:0:
16,80,177044,2,0,P|34:110|65:127,1,72.5,2|0,0:0|0:0,0:0:0:0:
160,184,177480,2,0,L|252:168,1,72.5,8|0,0:0|0:0,0:0:0:0:
248,88,177916,2,0,L|400:108,1,145,6|8,0:0|0:0,0:0:0:0:
480,204,178571,6,0,P|461:252|448:300,1,86.9999973449708,4|2,0:0|0:0,0:0:0:0:
336,224,179007,2,0,P|328:186|323:127,1,86.9999973449708,4|8,0:0|0:0,0:0:0:0:
232,208,179444,6,0,P|188:184|104:244,1,145,4|0,0:0|0:0,0:0:0:0:
76,320,180098,2,0,P|114:312|160:308,1,72.5,8|0,0:0|0:0,0:0:0:0:
180,280,180425,1,0,0:0:0:0:
180,280,180535,2,0,P|231:287|264:296,1,72.5,2|0,0:0|0:0,0:0:0:0:
312,352,180971,1,8,0:0:0:0:
400,364,181189,2,0,P|460:336|476:264,1,145
484,176,181844,2,0,L|400:196,1,72.5,8|0,0:0|0:0,0:0:0:0:
376,172,182171,1,0,0:0:0:0:
376,172,182280,2,0,L|288:160,1,72.5,2|0,0:0|0:0,0:0:0:0:
220,136,182716,2,0,P|229:180|240:224,1,72.5,8|0,0:0|0:0,0:0:0:0:
152,284,183153,6,0,P|100:284|68:212,1,108.75,6|0,0:0|0:0,0:0:0:0:
40,208,183589,2,0,L|52:116,1,72.5,8|0,0:0|0:0,0:0:0:0:
112,76,184025,2,0,P|92:60|32:52,1,72.5,2|0,0:0|0:0,0:0:0:0:
148,149,184462,2,0,L|232:133,1,72.5,8|0,0:0|0:0,0:0:0:0:
244,100,184789,1,0,0:0:0:0:
244,100,184898,2,0,B|352:112|352:112|384:168,1,145,6|8,0:0|0:0,0:0:0:0:
436,232,185553,1,0,0:0:0:0:
436,232,185662,1,0,0:0:0:0:
436,232,185771,2,0,B|327:245|327:245|296:300,1,145,6|8,0:0|0:0,0:0:0:0:
356,352,186425,1,0,0:0:0:0:
356,352,186535,1,0,0:0:0:0:
356,352,186644,5,6,0:0:0:0:
140,208,187298,1,8,0:0:0:0:
140,208,187407,1,8,0:0:0:0:
140,208,187516,2,0,L|200:184,3,36.25,8|8|8|8,0:0|0:0|0:0|0:0,0:0:0:0:
204,160,187953,2,0,P|267:169|332:176,1,108.75,8|0,0:0|0:0,0:0:0:0:
340,156,188389,5,2,0:0:0:0:
256,192,188498,12,0,190135,0:0:0:0:
304,80,191880,6,0,P|288:148|280:204,1,108.750004148483,4|8,0:0|0:0,0:0:0:0:
200,328,192753,2,0,P|195:280|180:208,1,108.750004148483,2|8,0:0|0:0,0:0:0:0:
116,176,193407,2,0,P|48:176|16:228,1,108.750004148483,2|2,0:0|0:0,0:0:0:0:
60,276,194062,2,0,P|86:268|120:252,1,54.3750020742417,8|0,0:0|0:0,0:0:0:0:
184,144,194498,2,0,P|247:163|292:172,1,108.750004148483,2|8,0:0|0:0,0:0:0:0:
388,44,195371,6,0,P|444:68|456:128,2,108.750004148483,6|8|2,0:0|0:0|0:0,0:0:0:0:
328,100,196462,2,0,L|340:172,1,54.3750020742417,2|8,0:0|0:0,0:0:0:0:
408,196,196898,2,0,P|399:248|392:320,1,108.750004148483,2|2,0:0|0:0,0:0:0:0:
432,376,197553,1,8,0:0:0:0:
240,276,197989,6,0,P|186:286|128:296,1,108.75,6|0,0:0|0:0,0:0:0:0:
104,272,198425,2,0,P|76:263|16:232,1,72.5,2|0,0:0|0:0,0:0:0:0:
0,136,198862,6,0,P|28:132|68:116,1,54.3750020742417,4|0,0:0|0:0,0:0:0:0:
124,76,199298,1,2,0:0:0:0:
124,76,200171,1,2,0:0:0:0:
196,25,200389,2,0,P|212:85|180:141,1,108.750004148483,2|0,0:0|0:0,0:0:0:0:
124,172,201044,1,2,0:0:0:0:
172,240,201262,2,0,L|292:224,1,108.750004148483,2|0,0:0|0:0,0:0:0:0:
360,212,201916,2,0,P|356:248|352:280,1,54.3750020742417,2|0,0:0|0:0,0:0:0:0:
252,144,202353,6,0,P|256:94|268:4,1,130.499996017456,6|8,0:0|0:0,0:0:0:0:
124,76,203007,2,0,P|164:104|136:192,1,130.499996017456,6|0,0:0|0:0,0:0:0:0:
72,156,203662,1,8,0:0:0:0:
56,284,203880,2,0,P|148:270|196:264,1,130.499996017456,6|2,0:0|0:0,0:0:0:0:
252,212,204535,2,0,L|292:228,3,32.624999004364,8|8|8|8,0:0|0:0|0:0|0:0,0:0:0:0:
316,248,204971,2,0,L|368:240,3,32.624999004364,8|8|8|8,0:0|0:0|0:0|0:0,0:0:0:0:
388,224,205407,6,0,P|408:168|352:100,1,141.374993528366,8|0,0:1|0:0,0:0:0:0:
340,68,205844,6,0,L|192:84,1,145,6|8,0:0|0:0,0:0:0:0:
128,28,206498,1,0,0:0:0:0:
128,28,206607,1,0,0:0:0:0:
128,28,206716,2,0,P|112:59|108:108,1,72.5,2|0,0:0|0:0,0:0:0:0:
32,140,207153,1,8,0:0:0:0:
96,232,207371,2,0,B|128:248|128:248|248:228,1,145,6|2,0:0|0:0,0:0:0:0:
296,168,208025,2,0,P|270:159|220:148,1,72.5,8|2,0:0|0:0,0:0:0:0:
200,112,208353,1,0,0:0:0:0:
200,112,208462,2,0,P|205:76|220:43,1,72.5,2|0,0:0|0:0,0:0:0:0:
296,0,208898,2,0,L|308:80,1,72.5,8|0,0:0|0:0,0:0:0:0:
412,116,209335,6,0,P|395:196|384:264,1,145,2|8,0:0|0:0,0:0:0:0:
304,292,209989,1,0,0:0:0:0:
360,360,210207,2,0,P|395:355|440:344,1,72.5,2|0,0:0|0:0,0:0:0:0:
472,268,210644,1,8,0:0:0:0:
292,200,210862,2,0,P|238:193|136:180,1,145,6|2,0:0|0:0,0:0:0:0:
76,132,211516,2,0,P|69:96|56:62,1,72.5,8|0,0:0|0:0,0:0:0:0:
48,20,211844,1,0,0:0:0:0:
48,20,211953,6,0,B|72:44|112:52|112:52|136:32|192:24,1,125.062502385378,6|0,0:0|0:0,0:0:0:0:
208,32,212389,2,0,P|189:73|176:132,1,83.375001590252,12|2,0:0|0:0,0:0:0:0:
181,254,212825,6,0,P|251:256|292:200,1,145,6|8,0:0|0:0,0:0:0:0:
264,116,213480,1,0,0:0:0:0:
380,88,213698,2,0,P|370:135|364:176,1,72.5,2|0,0:0|0:0,0:0:0:0:
396,240,214135,1,8,0:0:0:0:
456,340,214353,2,0,P|432:304|320:316,1,145,4|4,0:0|0:0,0:0:0:0:
216,344,215007,1,8,0:0:0:0:
216,344,215225,2,0,B|164:356|116:364|116:364|60:344,1,145,4|0,0:0|0:0,0:0:0:0:
0,252,215880,2,0,P|36:243|80:236,1,72.5,8|0,0:0|0:0,0:0:0:0:
128,140,216316,6,0,P|178:189|176:260,1,145,6|8,0:0|0:0,0:0:0:0:
24,144,216971,2,0,P|41:75|103:42,1,145,6|2,0:0|0:0,0:0:0:0:
184,76,217625,1,8,0:0:0:0:
316,32,217844,2,0,B|300:140|300:140|248:184,1,145,6|2,0:0|0:0,0:0:0:0:
168,96,218498,2,0,P|181:148|188:184,1,72.5,8|2,0:0|0:0,0:0:0:0:
144,288,218935,2,0,P|176:272|208:252,1,72.5,2|2,0:0|0:0,0:0:0:0:
344,200,219371,2,0,P|319:196|252:188,1,72.5,8|2,0:0|0:0,0:0:0:0:
88,200,219807,6,0,P|48:240|64:344,1,145,6|8,0:0|0:0,0:0:0:0:
124,368,220462,1,0,0:0:0:0:
124,368,220571,1,0,0:0:0:0:
124,368,220680,2,0,L|220:352,1,72.5,2|0,0:0|0:0,0:0:0:0:
268,308,221116,1,8,0:0:0:0:
176,204,221335,2,0,P|183:145|192:48,1,145,4|4,0:0|0:0,0:0:0:0:
116,16,221989,1,8,0:0:0:0:
224,136,222207,2,0,P|306:121|376:112,1,145,4|0,0:0|0:0,0:0:0:0:
444,160,222862,2,0,P|432:203|424:244,1,72.5,8|0,0:0|0:0,0:0:0:0:
444,268,223189,1,0,0:0:0:0:
444,268,223298,6,0,B|340:268|340:268|296:224,1,145,6|8,0:0|0:0,0:0:0:0:
224,136,223953,2,0,P|264:204|208:268,1,145,6|2,0:0|0:0,0:0:0:0:
168,200,224607,1,8,0:0:0:0:
80,304,224825,2,0,P|165:295|244:288,1,145,6|2,0:0|0:0,0:0:0:0:
144,200,225480,2,0,P|96:204|48:208,1,72.5,8|2,0:0|0:0,0:0:0:0:
116,48,225916,2,0,P|107:96|104:124,1,72.5,2|2,0:0|0:0,0:0:0:0:
280,96,226353,2,0,P|233:100|184:104,1,72.5,8|2,0:0|0:0,0:0:0:0:
256,192,226789,5,6,0:0:0:0:
256,192,226898,12,0,230280,0:0:0:0:
