osu file format v14

[General]
AudioFilename: audio.mp3
AudioLeadIn: 0
PreviewTime: 129698
Countdown: 0
SampleSet: Soft
StackLeniency: 0.7
Mode: 0
LetterboxInBreaks: 0
WidescreenStoryboard: 0

[Editor]
Bookmarks: 1626,191880,198862,230280
DistanceSpacing: 1.2
BeatDivisor: 4
GridSize: 4
TimelineZoom: 3.099999

[Metadata]
Title:1st Love Story
TitleUnicode:1st Love Story
Artist:Luce Twinkle Wink
ArtistUnicode:Luce Twinkle Wink☆
Creator:Meyrink
Version:Insane
Source:ネトゲの嫁は女の子じゃないと思った?
Tags:Netoge no Yome wa Onnanoko ja Nai to Omotta ? ルーチェ・トゥインクル・ウィンク And you thought there is never a girl online NetoYome Net Game Opening Theme cloudsplash16 Little Gaia 藤林聖子 大久保薫 錦織めぐみ 桧垣果穂 宇佐美幸乃 板山紗織 深沢紗希
BeatmapID:1002808
BeatmapSetID:468904

[Difficulty]
HPDrainRate:7
CircleSize:4
OverallDifficulty:8
ApproachRate:8.2
SliderMultiplier:1.8
SliderTickRate:1

[Events]
//Background and Video events
0,0,"MyAngelAko.png",0,0
//Break Periods
2,192080,198112
//Storyboard Layer 0 (Background)
//Storyboard Layer 1 (Fail)
//Storyboard Layer 2 (Pass)
//Storyboard Layer 3 (Foreground)
//Storyboard Sound Samples

[TimingPoints]
1626,436.363636363636,4,2,1,50,1,0
1626,-133.333333333333,4,2,1,50,0,0
12098,-111.111111111111,4,2,1,70,0,0
15589,-100,4,2,1,70,0,0
29553,-100,4,2,1,60,0,0
43516,-100,4,2,1,70,0,0
57480,-133.333333333333,4,2,1,70,0,0
58789,-66.6666666666667,4,2,1,70,0,0
59225,-100,4,2,1,80,0,1
65335,-83.3333333333333,4,2,1,80,0,1
66207,-100,4,2,1,80,0,1
72753,-100,4,2,1,80,0,0
73189,-100,4,2,1,80,0,1
79298,-83.3333333333333,4,2,1,80,0,1
80171,-100,4,2,1,80,0,1
86716,-83.3333333333333,4,2,1,80,0,1
87153,-100,4,2,1,70,0,0
101116,-100,4,2,1,60,0,0
115080,-100,4,2,1,70,0,0
129044,-133.333333333333,4,2,1,70,0,0
130353,-66.6666666666667,4,2,1,70,0,0
130789,-100,4,2,1,80,0,1
136898,-83.3333333333333,4,2,1,80,0,1
137771,-100,4,2,1,80,0,1
144316,-100,4,2,1,80,0,0
144753,-100,4,2,1,80,0,1
150862,-83.3333333333333,4,2,1,80,0,1
151735,-100,4,2,1,80,0,1
158716,-111.111111111111,4,2,1,60,0,0
169189,-100,4,2,1,70,0,0
172244,-83.3333333333333,4,2,1,70,0,0
172571,-83.3333333333333,4,2,1,10,0,0
172680,-100,4,2,1,80,0,0
188389,-133.333333333333,4,2,1,50,0,0
198862,-133.333333333333,4,2,1,60,0,0
202353,-111.111111111111,4,2,1,70,0,0
204535,-100,4,2,1,50,0,0
205407,-66.6666666666667,4,2,1,70,0,0
205844,-100,4,2,1,80,0,1
211953,-83.3333333333333,4,2,1,80,0,1
212825,-100,4,2,1,80,0,1
219371,-100,4,2,1,80,0,0
219807,-100,4,2,1,80,0,1
226789,-100,4,2,1,70,0,0
230280,-100,4,2,1,30,0,0

[Colours]
Combo1 : 222,166,230
Combo2 : 255,128,128
Combo3 : 138,173,255
Combo4 : 255,220,113

[HitObjects]
502,203,1626,6,0,P|429:205|355:229,1,135.000005149842,6|0,0:0|0:0,0:0:0:0:
304,97,2498,2,0,L|293:169,1,67.5000025749208,2|0,0:0|0:0,0:0:0:0:
278,259,2935,1,0,0:0:0:0:
395,181,3153,1,2,0:0:0:0:
262,20,3589,2,0,P|222:63|226:139,1,135.000005149842,2|0,0:0|0:0,0:0:0:0:
276,258,4244,2,0,P|241:249|187:245,1,67.5000025749208,2|0,0:0|0:0,0:0:0:0:
69,184,4680,2,0,P|102:175|136:171,1,67.5000025749208
338,200,5116,6,0,P|360:256|328:324,1,135.000005149842,2|0,0:0|0:0,0:0:0:0:
388,384,5771,1,0,0:0:0:0:
388,384,5989,2,0,P|343:364|249:362,1,135.000005149842,2|0,0:0|0:0,0:0:0:0:
124,281,6644,2,0,P|192:281|254:256,1,135.000005149842,2|0,0:0|0:0,0:0:0:0:
338,200,7298,1,0,0:0:0:0:
338,200,7516,1,2,0:0:0:0:
445,273,7735,2,0,B|455:236|455:236|447:184|447:184|465:130,1,135.000005149842,2|2,0:0|0:0,0:0:0:0:
331,54,8389,1,0,0:0:0:0:
368,136,8607,6,0,P|305:141|251:93,1,135.000005149842,4|0,0:0|0:0,0:0:0:0:
156,30,9262,2,0,P|145:62|138:96,1,67.5000025749208,0|2,0:0|0:0,0:0:0:0:
152,195,9698,2,0,P|110:182|75:179,1,67.5000025749208
17,259,10135,2,0,P|85:263|149:282,1,135.000005149842,2|0,0:0|0:0,0:0:0:0:
236,336,10789,1,0,0:0:0:0:
152,195,11007,1,2,0:0:0:0:
375,169,11444,1,0,0:0:0:0:
282,248,11662,1,2,0:0:0:0:
398,287,11880,1,0,0:0:0:0:
236,336,12098,6,2,P|190:268|205:190,1,161.999995056153,6|0,0:0|0:0,0:0:0:0:
330,162,12753,2,0,P|376:226|363:304,1,161.999995056153,4|2,0:0|0:0,0:0:0:0:
448,142,13407,1,0,0:0:0:0:
282,248,13625,6,0,B|228:238|228:238|174:248|174:248|116:237,1,161.999995056153,4|8,0:0|0:0,0:0:0:0:
44,124,14280,1,8,0:0:0:0:
36,288,14498,1,2,0:0:0:0:
36,288,14607,1,8,0:0:0:0:
36,288,14716,2,0,P|23:244|23:197,1,80.9999975280763,0|4,0:0|3:3,0:0:0:0:
151,74,15153,2,0,L|135:161,1,80.9999975280763,8|2,0:0|0:0,0:0:0:0:
130,193,15480,1,2,0:0:0:0:
130,193,15589,6,0,P|189:226|286:170,1,180,4|8,0:0|0:0,0:0:0:0:
328,77,16244,1,0,0:0:0:0:
328,77,16353,1,0,0:0:0:0:
328,77,16462,1,2,0:0:0:0:
382,224,16680,1,0,0:0:0:0:
502,125,16898,2,0,P|457:127|412:135,1,90,8|2,0:0|0:0,0:0:0:0:
272,219,17335,6,0,P|268:170|262:128,1,90,0|2,0:0|0:0,0:0:0:0:
170,47,17771,1,8,0:0:0:0:
125,171,17989,1,2,0:0:0:0:
125,171,18098,1,0,0:0:0:0:
125,171,18207,1,0,0:0:0:0:
69,81,18425,1,2,0:0:0:0:
235,151,18644,1,8,0:0:0:0:
80,252,18862,1,0,0:0:0:0:
184,78,19080,6,0,P|254:63|322:138,1,180,2|8,0:0|0:0,0:0:0:0:
277,278,19735,1,0,0:0:0:0:
277,278,19844,1,0,0:0:0:0:
277,278,19953,1,2,0:0:0:0:
237,146,20171,1,0,0:0:0:0:
164,308,20389,1,8,0:0:0:0:
326,195,20607,6,0,P|376:203|426:202,1,90,2|0,0:0|0:0,0:0:0:0:
503,302,21044,2,0,P|459:302|414:310,1,90,2|8,0:0|0:0,0:0:0:0:
218,345,21480,1,2,0:0:0:0:
218,345,21589,1,0,0:0:0:0:
218,345,21698,2,0,P|188:278|212:215,1,135,4|0,0:0|0:0,0:0:0:0:
226,114,22135,2,0,P|235:158|245:214,1,90,4|0,0:0|0:0,0:0:0:0:
304,361,22571,6,0,P|217:341|127:336,1,180,4|8,0:0|0:0,0:0:0:0:
9,218,23225,1,0,0:0:0:0:
9,218,23335,1,0,0:0:0:0:
9,218,23444,2,0,P|19:262|26:311,1,90,2|0,0:0|0:0,0:0:0:0:
111,146,23880,1,8,0:0:0:0:
147,291,24098,1,2,0:0:0:0:
177,102,24316,5,0,0:0:0:0:
88,226,24535,1,2,0:0:0:0:
25,101,24753,1,8,0:0:0:0:
201,207,24971,2,0,P|247:202|306:199,1,90,2|0,0:0|0:0,0:0:0:0:
337,321,25407,2,0,P|293:318|248:313,1,90,2|8,0:0|0:0,0:0:0:0:
147,291,25844,1,0,0:0:0:0:
147,291,25953,1,2,0:0:0:0:
147,291,26062,5,4,0:0:0:0:
291,200,26280,1,0,0:0:0:0:
142,133,26498,1,8,0:0:0:0:
262,282,26716,2,0,P|291:198|292:108,1,180,4|0,0:0|0:0,0:0:0:0:
124,48,27371,1,8,0:0:0:0:
124,48,27480,1,0,0:0:0:0:
124,48,27589,6,0,P|71:82|81:195,1,180,4|0,0:0|0:0,0:0:0:0:
172,293,28244,2,0,L|262:282,1,90,8|0,0:0|3:0,0:0:0:0:
297,277,28571,1,0,3:0:0:0:
297,277,28680,1,2,0:0:0:0:
388,167,28898,5,0,0:0:0:0:
388,167,29007,1,0,0:0:0:0:
388,167,29116,2,0,L|395:220,1,45,8|0,0:0|0:0,0:0:0:0:
479,307,29335,2,0,L|488:254,1,45,4|2,0:3|0:0,0:0:0:0:
473,121,29553,6,0,P|379:154|287:148,1,180,4|8,0:0|0:0,0:0:0:0:
190,73,30207,1,0,0:0:0:0:
300,150,30425,1,2,0:0:0:0:
270,28,30644,1,0,0:0:0:0:
193,201,30862,1,8,0:0:0:0:
388,167,31080,6,0,P|433:172|477:182,1,90,2|0,0:0|0:0,0:0:0:0:
430,357,31516,2,0,P|424:312|411:269,1,90,2|8,0:0|0:0,0:0:0:0:
300,150,31953,1,2,0:0:0:0:
272,275,32171,1,0,0:0:0:0:
388,167,32389,1,0,0:0:0:0:
222,108,32607,1,8,0:0:0:0:
352,296,32825,6,0,P|288:353|206:325,1,180,2|0,0:0|0:0,0:0:0:0:
153,202,33480,1,8,0:0:0:0:
29,305,33698,2,0,P|76:299|132:282,1,90,2|0,0:0|0:0,0:0:0:0:
228,210,34135,1,0,0:0:0:0:
159,357,34353,1,8,0:0:0:0:
59,217,34571,6,0,P|55:172|43:128,1,90,2|0,0:0|0:0,0:0:0:0:
150,3,35007,2,0,P|139:46|134:91,1,90,2|8,0:0|0:0,0:0:0:0:
153,202,35444,1,2,0:0:0:0:
220,56,35662,1,0,0:0:0:0:
321,181,35880,1,2,0:0:0:0:
132,106,36098,2,0,P|176:94|220:87,1,90,8|2,0:0|0:0,0:0:0:0:
361,105,36535,6,0,P|409:175|370:251,1,180,4|8,0:0|0:0,0:0:0:0:
297,353,37189,1,0,0:0:0:0:
321,181,37407,1,2,0:0:0:0:
392,362,37625,1,0,0:0:0:0:
262,247,37844,1,8,0:0:0:0:
467,262,38062,6,0,P|425:269|379:278,1,90,2|0,0:0|0:0,0:0:0:0:
209,336,38498,2,0,P|252:343|297:352,1,90,2|8,0:0|0:0,0:0:0:0:
321,181,38935,2,0,P|235:163|176:225,1,180,2|2,0:0|0:0,0:0:0:0:
137,345,39589,1,8,0:0:0:0:
0,235,39807,6,0,B|62:224|62:224|116:237|116:237|188:221,1,180,4|0,0:0|0:0,0:0:0:0:
321,181,40462,1,8,0:0:0:0:
227,106,40680,1,2,0:0:0:0:
227,106,40789,1,2,0:0:0:0:
227,106,40898,1,0,0:0:0:0:
222,216,41116,1,2,0:0:0:0:
328,64,41335,1,8,0:0:0:0:
426,217,41553,6,0,P|335:200|249:188,1,180,4|2,0:0|0:0,0:0:0:0:
108,122,42207,1,8,0:0:0:0:
196,272,42425,1,2,0:0:0:0:
32,322,42644,1,0,0:0:0:0:
158,200,42862,1,2,0:0:0:0:
209,374,43080,1,8,0:0:0:0:
126,333,43298,5,2,0:0:0:0:
126,333,43407,1,2,0:0:0:0:
126,333,43516,2,0,P|175:290|241:285,1,135,4|0,0:0|0:0,0:0:0:0:
267,213,43953,2,0,L|290:300,1,90,8|0,0:0|0:0,0:0:0:0:
314,375,44280,1,0,0:0:0:0:
314,375,44389,1,2,0:0:0:0:
397,215,44607,1,0,0:0:0:0:
504,343,44825,1,10,0:0:0:0:
327,294,45044,1,0,0:0:0:0:
488,201,45262,6,0,P|482:153|474:113,1,90,2|0,0:0|0:0,0:0:0:0:
303,34,45698,2,0,L|296:78|289:122,1,90,8|0,0:0|0:0,0:0:0:0:
366,274,46135,2,0,P|325:255|275:239,1,90,2|0,0:0|0:0,0:0:0:0:
176,142,46571,2,0,P|134:156|93:174,1,90,8|0,0:0|0:0,0:0:0:0:
1,290,47007,6,0,P|90:300|177:321,1,180,2|8,0:0|0:0,0:0:0:0:
285,377,47662,1,0,0:0:0:0:
229,221,47880,1,2,0:0:0:0:
372,302,48098,1,0,0:0:0:0:
372,302,48207,1,0,0:0:0:0:
372,302,48316,2,0,P|324:293|282:289,1,90,8|0,0:0|0:0,0:0:0:0:
184,156,48753,5,4,0:0:0:0:
145,308,48971,1,2,0:0:0:0:
280,201,49189,1,8,0:0:0:0:
322,361,49407,2,0,L|414:348,1,90,2|0,0:0|0:0,0:0:0:0:
512,265,49844,2,0,L|422:248,1,90,2|8,0:3|0:0,0:0:0:0:
286,99,50280,6,0,P|308:186|327:274,1,180,4|0,0:0|0:0,0:0:0:0:
443,157,50935,1,8,0:0:0:0:
399,339,51153,1,0,0:0:0:0:
399,339,51262,1,0,0:0:0:0:
399,339,51371,1,2,0:0:0:0:
346,183,51589,1,0,0:0:0:0:
494,295,51807,1,8,0:0:0:0:
296,275,52025,6,0,P|253:286|209:295,1,90,2|0,0:0|0:0,0:0:0:0:
43,352,52462,2,0,P|87:363|131:372,1,90,2|8,0:0|0:0,0:0:0:0:
225,196,52898,1,2,0:0:0:0:
225,196,53007,1,0,0:0:0:0:
225,196,53116,1,0,0:0:0:0:
299,365,53335,1,2,0:0:0:0:
324,192,53553,1,8,0:0:0:0:
159,281,53771,1,0,0:0:0:0:
96,86,53989,6,0,P|182:103|274:119,1,180,4|8,0:0|0:0,0:0:0:0:
418,233,54644,1,2,0:0:0:0:
275,282,54862,1,0,0:0:0:0:
333,165,55080,1,2,0:0:0:0:
395,356,55298,2,0,P|439:345|482:332,1,90,8|2,0:0|0:0,0:0:0:0:
504,192,55735,6,0,P|433:142|351:171,1,180,4|8,0:0|0:0,0:0:0:0:
256,245,56389,1,0,0:0:0:0:
256,245,56498,1,2,0:0:0:0:
256,245,56607,2,0,P|249:198|242:155,1,90,4|0,0:0|0:0,0:0:0:0:
215,25,57044,1,8,0:0:0:0:
366,36,57262,1,2,0:0:0:0:
366,36,57371,1,0,0:0:0:0:
366,36,57480,6,0,P|358:107|350:185,1,135.000005149842,4|0,0:0|0:0,0:0:0:0:
319,268,58025,1,8,0:0:0:0:
319,268,58135,2,0,L|386:256,1,67.5000025749208,2|2,0:3|0:3,0:0:0:0:
479,168,58571,1,2,0:0:0:0:
319,268,58789,6,0,B|261:261|222:275|222:275|193:239|203:168,1,202.500007724762,8|0,0:0|0:0,0:0:0:0:
84,121,59225,6,0,P|93:165|100:209,1,90,4|0,0:0|0:0,0:0:0:0:
132,384,59662,2,0,P|139:339|148:295,1,90,8|0,0:0|0:0,0:0:0:0:
160,271,59989,1,8,0:0:0:0:
160,271,60098,1,2,0:0:0:0:
284,150,60316,1,0,0:0:0:0:
362,293,60535,1,8,0:0:0:0:
174,222,60753,6,0,P|222:232|263:240,1,90,2|0,0:0|0:0,0:0:0:0:
455,162,61189,2,0,P|412:171|367:180,1,90,2|8,0:0|0:0,0:0:0:0:
216,83,61625,1,2,0:0:0:0:
216,83,61735,1,0,0:0:0:0:
216,83,61844,1,0,0:0:0:0:
300,227,62062,1,2,0:0:0:0:
139,284,62280,1,8,0:0:0:0:
208,178,62498,1,0,0:0:0:0:
292,348,62716,6,0,P|376:371|440:313,1,180,2|8,0:0|0:0,0:0:0:0:
297,160,63371,1,2,0:0:0:0:
297,160,63480,1,0,0:0:0:0:
297,160,63589,2,0,P|257:168|205:178,1,90
353,285,64025,1,8,0:0:0:0:
474,187,64244,6,0,P|490:100|443:25,1,180,2|0,0:0|0:0,0:0:0:0:
277,212,64898,1,8,0:0:0:0:
317,74,65116,1,2,0:0:0:0:
351,268,65335,6,0,P|277:254|177:238,1,161.999995056153,4|0,0:0|0:0,0:0:0:0:
102,185,65771,2,0,L|108:239|114:293,1,107.999996704102,4|0,0:0|0:0,0:0:0:0:
259,361,66207,6,0,P|271:271|285:182,1,180,4|8,0:0|0:0,0:0:0:0:
198,61,66862,1,0,0:0:0:0:
198,61,66971,1,0,0:0:0:0:
198,61,67080,1,2,0:0:0:0:
244,249,67298,1,0,0:0:0:0:
146,150,67516,1,8,0:0:0:0:
120,339,67735,6,0,P|78:329|33:317,1,90,2|0,0:0|0:0,0:0:0:0:
244,249,68171,2,0,P|256:292|266:336,1,90,2|8,0:0|0:0,0:0:0:0:
127,209,68607,1,2,0:0:0:0:
127,209,68716,1,0,0:0:0:0:
127,209,68825,1,0,0:0:0:0:
264,117,69044,1,0,0:0:0:0:
266,336,69262,1,8,0:0:0:0:
214,218,69480,1,0,0:0:0:0:
465,248,69698,6,0,B|397:280|397:280|285:258,1,180,4|8,0:0|0:0,0:0:0:0:
364,63,70353,2,0,P|370:107|375:152,1,90,4|0,0:0|0:0,0:0:0:0:
363,304,70789,1,4,0:3:0:0:
363,304,71007,1,8,0:0:0:0:
470,160,71225,6,0,P|379:176|283:189,1,180,4|0,0:0|0:0,0:0:0:0:
186,279,71880,1,8,0:0:0:0:
109,127,72098,1,2,0:0:0:0:
282,73,72316,5,8,0:0:0:0:
183,200,72535,1,2,0:0:0:0:
112,37,72753,5,8,0:0:0:0:
280,156,72971,1,2,0:0:0:0:
70,279,73189,6,0,P|139:223|226:232,1,180,4|8,0:0|0:0,0:0:0:0:
350,300,73844,1,0,0:0:0:0:
350,300,73953,1,8,0:0:0:0:
350,300,74062,2,0,P|338:248|328:204,1,90,2|0,0:0|0:0,0:0:0:0:
381,79,74498,1,8,0:0:0:0:
240,138,74716,6,0,P|197:149|153:159,1,90,2|0,0:0|0:0,0:0:0:0:
26,251,75153,2,0,P|70:263|113:273,1,90,2|8,0:0|0:0,0:0:0:0:
261,280,75589,1,0,0:0:0:0:
261,280,75698,1,0,0:0:0:0:
261,280,75807,1,2,0:0:0:0:
184,188,76025,1,0,0:0:0:0:
111,356,76244,1,8,0:0:0:0:
85,185,76462,1,2,0:0:0:0:
197,346,76680,6,0,P|280:367|346:307,1,180,2|8,0:0|0:0,0:0:0:0:
481,311,77335,1,0,0:0:0:0:
481,311,77444,1,0,0:0:0:0:
481,311,77553,1,2,0:0:0:0:
380,159,77771,1,0,0:0:0:0:
345,308,77989,1,8,0:0:0:0:
467,143,78207,6,0,P|370:130|283:120,1,180,2|0,0:0|0:0,0:0:0:0:
177,67,78862,1,8,0:0:0:0:
291,223,79080,1,2,0:0:0:0:
97,252,79298,6,0,B|113:205|110:169|110:169|146:173|188:157,1,161.999995056153,4|0,0:0|0:0,0:0:0:0:
267,117,79735,2,0,P|281:170|291:223,1,107.999996704102,4|0,0:0|0:0,0:0:0:0:
150,330,80171,6,0,P|64:339|5:275,1,180,4|8,0:0|0:0,0:0:0:0:
89,105,80825,1,0,0:0:0:0:
89,105,80935,1,0,0:0:0:0:
89,105,81044,2,0,P|97:148|104:195,1,90,2|0,0:0|0:0,0:0:0:0:
128,338,81480,1,8,0:0:0:0:
285,202,81698,1,2,0:0:0:0:
199,75,81916,5,0,0:0:0:0:
186,248,82135,1,2,0:0:0:0:
359,288,82353,1,8,0:0:0:0:
202,158,82571,1,2,0:0:0:0:
158,360,82789,1,0,0:0:0:0:
269,253,83007,1,0,0:0:0:0:
82,185,83225,2,0,L|89:229|96:273,1,90,8|0,0:0|0:0,0:0:0:0:
293,365,83662,5,4,0:0:0:0:
174,250,83880,1,2,0:0:0:0:
335,194,84098,1,8,0:0:0:0:
195,330,84316,2,0,L|376:312,1,180,4|0,0:0|0:0,0:0:0:0:
266,194,84971,1,8,0:0:0:0:
465,291,85189,6,0,P|372:279|277:270,1,180,4|8,0:0|0:0,0:0:0:0:
221,114,85844,1,8,0:0:0:0:
160,250,86062,2,0,L|143:195,1,45,8|0,0:0|0:0,0:0:0:0:
90,155,86280,2,0,L|104:197,1,45,8|0,0:0|0:0,0:0:0:0:
112,322,86498,1,2,0:0:0:0:
112,322,86607,1,0,0:3:0:0:
112,322,86716,6,0,P|190:330|243:273,1,161.999995056153,8|0,0:0|0:0,0:0:0:0:
272,180,87153,6,0,P|282:263|293:358,1,180,4|8,0:0|0:0,0:0:0:0:
454,247,87807,1,0,0:0:0:0:
454,247,87916,1,8,0:0:0:0:
454,247,88025,1,2,0:0:0:0:
349,151,88244,1,0,0:0:0:0:
381,327,88462,2,0,P|425:344|473:356,1,90,8|2,0:0|0:0,0:0:0:0:
509,145,88898,6,0,P|466:156|424:172,1,90,0|2,0:0|0:0,0:0:0:0:
321,262,89335,1,8,0:0:0:0:
355,69,89553,1,2,0:0:0:0:
355,69,89662,1,0,0:0:0:0:
355,69,89771,1,0,0:0:0:0:
264,182,89989,1,2,0:0:0:0:
228,41,90207,1,8,0:0:0:0:
358,166,90425,1,0,0:0:0:0:
491,28,90644,6,0,P|477:116|464:205,1,180,2|8,0:0|0:0,0:0:0:0:
380,306,91298,1,0,0:0:0:0:
380,306,91407,1,8,0:0:0:0:
380,306,91516,1,2,0:0:0:0:
366,169,91735,1,0,0:0:0:0:
482,320,91953,1,8,0:0:0:0:
302,242,92171,6,0,P|259:252|214:260,1,90,2|0,0:0|0:0,0:0:0:0:
124,339,92607,2,0,P|168:349|213:357,1,90,2|8,0:0|0:0,0:0:0:0:
382,295,93044,1,2,0:0:0:0:
382,295,93153,1,0,0:0:0:0:
382,295,93262,2,0,P|395:233|354:157,1,135,4|0,0:0|0:0,0:0:0:0:
343,60,93698,2,0,L|330:153,1,90,4|0,0:0|0:0,0:0:0:0:
222,269,94135,6,0,P|207:179|190:91,1,180,4|8,0:0|0:0,0:0:0:0:
35,82,94789,1,0,0:0:0:0:
35,82,94898,1,0,0:0:0:0:
35,82,95007,1,2,0:0:0:0:
168,187,95225,1,0,0:0:0:0:
42,268,95444,1,8,0:0:0:0:
122,105,95662,1,2,0:0:0:0:
202,279,95880,5,0,0:0:0:0:
75,181,96098,1,2,0:0:0:0:
21,351,96316,1,8,0:0:0:0:
159,209,96535,2,0,L|247:192,1,90,2|0,0:0|0:0,0:0:0:0:
344,83,96971,2,0,P|300:73|256:66,1,90,2|8,0:0|0:0,0:0:0:0:
99,141,97407,1,2,0:0:0:0:
99,141,97516,1,0,0:0:0:0:
99,141,97625,5,4,0:0:0:0:
179,28,97844,1,0,0:0:0:0:
228,209,98062,1,8,0:0:0:0:
30,86,98280,2,0,P|112:58|180:111,1,180,4|0,0:0|0:0,0:0:0:0:
353,123,98935,1,8,0:0:0:0:
353,123,99044,1,0,0:0:0:0:
353,123,99153,6,0,P|266:138|175:155,1,180,4|0,0:0|0:0,0:0:0:0:
21,262,99807,2,0,P|64:270|110:279,1,90,8|0,0:0|3:0,0:0:0:0:
145,286,100135,1,0,3:0:0:0:
145,286,100244,1,2,0:0:0:0:
273,314,100462,5,0,0:0:0:0:
273,314,100571,1,0,0:0:0:0:
273,314,100680,2,0,L|267:270,1,45,8|0,0:0|0:0,0:0:0:0:
193,159,100898,2,0,L|187:203,1,45,4|2,0:3|0:0,0:0:0:0:
198,384,101116,6,0,P|269:331|357:338,1,180,4|8,0:0|0:0,0:0:0:0:
487,291,101771,1,0,0:0:0:0:
386,160,101989,1,2,0:0:0:0:
327,315,102207,1,0,0:0:0:0:
490,261,102425,1,8,0:0:0:0:
296,204,102644,6,0,L|284:115,1,90,2|0,0:0|0:0,0:0:0:0:
494,57,103080,2,0,L|482:146,1,90,2|8,0:0|0:0,0:0:0:0:
397,246,103516,1,2,0:0:0:0:
358,115,103735,1,0,0:0:0:0:
489,229,103953,1,2,0:0:0:0:
328,311,104171,1,8,0:0:0:0:
512,222,104389,6,0,P|424:208|334:195,1,180,2|0,0:0|0:0,0:0:0:0:
257,51,105044,1,8,0:0:0:0:
155,168,105262,2,0,P|197:160|252:150,1,90,2|0,0:0|0:0,0:0:0:0:
78,72,105698,1,2,0:0:0:0:
38,212,105916,1,8,0:0:0:0:
193,263,106135,6,0,B|249:253|249:253|313:264|313:264|375:249,1,180,2|2,0:0|0:0,0:0:0:0:
451,341,106789,1,8,0:0:0:0:
302,381,107007,1,2,0:0:0:0:
252,210,107225,1,0,0:0:0:0:
413,170,107444,1,2,0:0:0:0:
311,303,107662,2,0,P|266:295|221:288,1,90,8|2,0:0|0:0,0:0:0:0:
20,173,108098,6,0,P|86:115|170:136,1,180,4|8,0:0|0:0,0:0:0:0:
304,164,108753,1,0,0:0:0:0:
223,288,108971,1,2,0:0:0:0:
199,124,109189,1,0,0:0:0:0:
314,265,109407,1,8,0:0:0:0:
149,352,109625,6,0,L|61:336,1,90,2|0,0:0|0:0,0:0:0:0:
48,209,110062,2,0,L|137:225,1,90,2|8,0:0|0:0,0:0:0:0:
322,359,110498,2,0,P|393:309|396:223,1,180,2|2,0:0|0:0,0:0:0:0:
292,113,111153,1,8,0:0:0:0:
147,243,111371,6,0,B|195:278|195:278|315:264,1,180,4|0,0:0|0:0,0:0:0:0:
452,178,112025,1,8,0:0:0:0:
333,128,112244,1,2,0:0:0:0:
333,128,112353,1,2,0:0:0:0:
333,128,112462,1,0,0:0:0:0:
409,293,112680,1,2,0:0:0:0:
227,249,112898,1,8,0:0:0:0:
313,94,113116,6,0,P|323:166|335:281,1,180,4|0,0:0|0:0,0:0:0:0:
175,163,113771,1,8,0:0:0:0:
253,22,113989,1,2,0:0:0:0:
322,178,114207,1,0,0:0:0:0:
159,46,114425,1,2,0:0:0:0:
118,244,114644,1,8,0:0:0:0:
42,140,114862,1,2,0:0:0:0:
42,140,114971,1,2,0:0:0:0:
42,140,115080,6,0,P|108:151|177:163,1,135,4|0,0:0|0:0,0:0:0:0:
252,106,115516,2,0,L|265:196,1,90,8|0,0:0|0:0,0:0:0:0:
276,271,115844,1,0,0:0:0:0:
276,271,115953,1,2,0:0:0:0:
118,244,116171,1,0,0:0:0:0:
252,106,116389,1,10,0:0:0:0:
282,299,116607,1,0,0:0:0:0:
74,144,116825,6,0,P|119:153|161:167,1,90,2|0,0:0|0:0,0:0:0:0:
347,204,117262,2,0,P|303:213|261:228,1,90,8|0,0:0|0:0,0:0:0:0:
105,332,117698,2,0,L|120:233,1,90,2|0,0:0|0:0,0:0:0:0:
257,51,118135,2,0,L|271:139,1,90,8|0,0:0|0:0,0:0:0:0:
207,266,118571,6,0,P|297:252|385:238,1,180,2|8,0:0|0:0,0:0:0:0:
463,75,119225,1,0,0:0:0:0:
354,136,119444,1,2,0:0:0:0:
473,257,119662,1,0,0:0:0:0:
473,257,119771,1,0,0:0:0:0:
473,257,119880,2,0,P|430:247|385:239,1,90,8|0,0:0|0:0,0:0:0:0:
254,152,120316,5,4,0:0:0:0:
324,297,120535,1,2,0:0:0:0:
354,136,120753,1,8,0:0:0:0:
215,239,120971,2,0,P|207:194|201:149,1,90,2|0,0:0|0:0,0:0:0:0:
95,53,121407,2,0,P|87:97|81:142,1,90,2|8,0:3|0:0,0:0:0:0:
141,308,121844,6,0,P|208:249|295:252,1,180,4|0,0:0|0:0,0:0:0:0:
98,184,122498,1,8,0:0:0:0:
239,341,122716,1,0,0:0:0:0:
239,341,122825,1,0,0:0:0:0:
239,341,122935,1,2,0:0:0:0:
184,220,123153,1,0,0:0:0:0:
100,375,123371,1,8,0:0:0:0:
270,253,123589,6,0,L|360:265,1,90,2|0,0:0|0:0,0:0:0:0:
215,131,124025,2,0,L|126:143,1,90,2|8,0:0|0:0,0:0:0:0:
27,210,124462,1,2,0:0:0:0:
27,210,124571,1,0,0:0:0:0:
27,210,124680,1,0,0:0:0:0:
95,57,124898,1,2,0:0:0:0:
198,217,125116,1,8,0:0:0:0:
44,120,125335,1,0,0:0:0:0:
246,21,125553,6,0,P|236:79|218:207,1,180,4|8,0:0|0:0,0:0:0:0:
285,289,126207,1,2,0:0:0:0:
429,183,126425,1,0,0:0:0:0:
329,78,126644,1,2,0:0:0:0:
229,216,126862,2,0,L|324:200,1,90,8|0,0:0|0:0,0:0:0:0:
506,310,127298,6,0,P|447:373|361:363,1,180,4|8,0:0|0:0,0:0:0:0:
198,221,127953,1,0,0:0:0:0:
198,221,128062,1,2,0:0:0:0:
198,221,128171,2,0,P|240:226|292:232,1,90,4|0,0:0|0:0,0:0:0:0:
395,153,128607,1,8,0:0:0:0:
414,287,128825,1,2,0:0:0:0:
414,287,128935,1,0,0:0:0:0:
414,287,129044,6,0,L|395:153,1,135.000005149842,4|0,0:0|0:0,0:0:0:0:
428,77,129589,1,8,0:0:0:0:
428,77,129698,1,2,0:3:0:0:
300,179,129916,1,2,0:3:0:0:
457,265,130135,1,2,0:0:0:0:
334,107,130353,6,0,P|243:117|228:214,1,202.500007724762,8|0,0:0|0:0,0:0:0:0:
199,301,130789,6,0,P|244:292|288:283,1,90,4|0,0:0|0:0,0:0:0:0:
181,139,131225,2,0,L|137:130|93:121,1,90,8|0,0:0|0:0,0:0:0:0:
53,114,131553,1,8,0:0:0:0:
53,114,131662,1,2,0:0:0:0:
199,223,131880,1,0,0:0:0:0:
47,292,132098,1,8,0:0:0:0:
155,382,132316,6,0,P|150:338|141:294,1,90,2|0,0:0|0:0,0:0:0:0:
311,192,132753,2,0,P|302:236|296:280,1,90,2|8,0:0|0:0,0:0:0:0:
199,223,133189,1,2,0:0:0:0:
199,223,133298,1,0,0:0:0:0:
199,223,133407,1,0,0:0:0:0:
349,355,133625,1,2,0:0:0:0:
311,192,133844,1,8,0:0:0:0:
195,325,134062,1,0,0:0:0:0:
217,146,134280,6,0,P|307:138|397:131,1,180,2|8,0:0|0:0,0:0:0:0:
503,248,134935,1,0,0:0:0:0:
503,248,135044,1,0,0:0:0:0:
503,248,135153,1,2,0:0:0:0:
352,210,135371,1,0,0:0:0:0:
465,100,135589,1,8,0:0:0:0:
401,303,135807,6,0,P|313:283|224:270,1,180,2|0,0:0|0:0,0:0:0:0:
301,107,136462,2,0,P|312:152|322:198,1,90,8|2,0:0|0:0,0:0:0:0:
417,384,136898,6,0,P|480:336|479:258,1,161.999995056153,4|0,0:0|0:0,0:0:0:0:
421,186,137335,2,0,L|314:167,1,107.999996704102,4|0,0:0|0:0,0:0:0:0:
225,300,137771,6,0,B|275:325|275:325|397:305,1,180,4|8,0:0|0:0,0:0:0:0:
315,167,138425,1,0,0:0:0:0:
315,167,138535,1,0,0:0:0:0:
315,167,138644,1,2,0:0:0:0:
296,304,138862,1,0,0:0:0:0:
404,156,139080,1,8,0:0:0:0:
216,132,139298,6,0,P|228:178|238:228,1,90,2|0,0:0|0:0,0:0:0:0:
366,353,139735,2,0,P|376:308|387:265,1,90,2|8,0:0|0:0,0:0:0:0:
339,110,140171,1,2,0:0:0:0:
339,110,140280,1,0,0:0:0:0:
339,110,140389,1,0,0:0:0:0:
387,265,140607,1,0,0:0:0:0:
420,94,140825,1,8,0:0:0:0:
251,176,141044,1,0,0:0:0:0:
471,267,141262,6,0,P|428:193|342:197,1,180,4|8,0:0|0:0,0:0:0:0:
166,301,141916,2,0,L|255:287,1,90,4|0,0:0|0:0,0:0:0:0:
387,265,142353,1,4,0:3:0:0:
387,265,142571,1,8,0:0:0:0:
228,100,142789,6,0,L|270:287,1,180,4|0,0:0|0:0,0:0:0:0:
117,209,143444,1,8,0:0:0:0:
272,300,143662,1,2,0:0:0:0:
84,380,143880,5,8,0:0:0:0:
180,277,144098,1,2,0:0:0:0:
0,174,144316,5,8,0:0:0:0:
65,297,144535,1,2,0:0:0:0:
203,173,144753,6,0,P|183:260|164:348,1,180,4|8,0:0|0:0,0:0:0:0:
288,235,145407,1,0,0:0:0:0:
288,235,145516,1,8,0:0:0:0:
288,235,145625,1,2,0:0:0:0:
164,348,145844,1,0,0:0:0:0:
202,163,146062,1,8,0:0:0:0:
275,337,146280,6,0,P|320:344|365:353,1,90,2|0,0:0|0:0,0:0:0:0:
463,222,146716,2,0,P|419:230|375:237,1,90,2|8,0:0|0:0,0:0:0:0:
248,141,147153,1,2,0:0:0:0:
248,141,147262,1,0,0:0:0:0:
248,141,147371,1,0,0:0:0:0:
394,67,147589,1,0,0:0:0:0:
413,229,147807,1,8,0:0:0:0:
330,139,148025,1,0,0:0:0:0:
512,71,148244,6,0,L|500:160|488:249,1,180,2|8,0:0|0:0,0:0:0:0:
423,364,148898,1,0,0:0:0:0:
423,364,149007,1,0,0:0:0:0:
423,364,149116,2,0,P|469:356|518:346,1,90,2|0,0:0|0:0,0:0:0:0:
365,207,149553,1,8,0:0:0:0:
292,339,149771,6,0,P|209:318|117:301,1,180,2|0,0:0|0:0,0:0:0:0:
124,135,150425,1,8,0:0:0:0:
209,272,150644,1,2,0:0:0:0:
52,376,150862,6,0,B|10:334|10:334|34:235,1,161.999995056153,4|0,0:0|0:0,0:0:0:0:
0,168,151298,2,0,P|50:188|102:205,1,107.999996704102,4|0,0:0|0:0,0:0:0:0:
259,81,151735,6,0,P|202:15|116:28,1,180,4|8,0:0|0:0,0:0:0:0:
0,168,152389,1,0,0:0:0:0:
0,168,152498,1,0,0:0:0:0:
0,168,152607,2,0,P|43:160|93:151,1,90,2|0,0:0|0:0,0:0:0:0:
265,212,153044,1,8,0:0:0:0:
171,94,153262,1,2,0:0:0:0:
98,256,153480,5,0,0:0:0:0:
246,164,153698,1,2,0:0:0:0:
272,335,153916,1,8,0:0:0:0:
165,210,154135,1,2,0:0:0:0:
351,143,154353,1,0,0:0:0:0:
158,68,154571,1,0,0:0:0:0:
263,186,154789,2,0,P|270:232|276:276,1,90,8|0,0:0|0:0,0:0:0:0:
220,381,155225,5,4,0:0:0:0:
148,219,155444,1,2,0:0:0:0:
276,275,155662,1,8,0:0:0:0:
97,321,155880,2,0,P|46:249|52:160,1,180,4|0,0:0|0:0,0:0:0:0:
171,70,156535,1,8,0:0:0:0:
148,219,156753,6,0,P|236:196|325:185,1,180,4|0,0:0|0:0,0:0:0:0:
426,65,157407,1,8,0:0:0:0:
345,189,157625,1,0,0:0:0:0:
502,254,157844,1,8,0:0:0:0:
417,144,158062,1,0,0:0:0:0:
338,306,158280,1,8,0:0:0:0:
416,232,158498,5,2,0:0:0:0:
416,232,158607,1,0,0:0:0:0:
416,232,158716,2,0,P|420:272|426:312,1,80.9999975280763,4|0,0:0|0:0,0:0:0:0:
291,204,159153,2,0,P|297:163|301:123,1,80.9999975280763,8|0,0:0|0:0,0:0:0:0:
337,306,159589,2,0,P|257:297|176:290,1,161.999995056153,2|8,0:0|0:0,0:0:0:0:
50,138,160462,6,0,P|130:128|211:121,1,161.999995056153,2|8,0:0|0:0,0:0:0:0:
280,197,161116,1,0,0:0:0:0:
200,268,161335,2,0,P|158:263|119:258,1,80.9999975280763,2|0,0:0|0:0,0:0:0:0:
42,375,161771,2,0,P|82:369|122:365,1,80.9999975280763,8|0,0:0|0:0,0:0:0:0:
255,350,162207,6,0,P|296:283|278:206,1,161.999995056153,2|8,0:0|0:0,0:0:0:0:
281,101,162862,1,0,0:0:0:0:
395,134,163080,2,0,P|388:173|381:218,1,80.9999975280763,2|0,0:0|0:0,0:0:0:0:
377,324,163516,2,0,L|470:306,1,80.9999975280763,8|0,0:0|0:0,0:0:0:0:
480,196,163953,6,0,P|400:211|321:227,1,161.999995056153,2|8,0:0|0:0,0:0:0:0:
230,183,164607,2,0,P|236:143|243:103,1,80.9999975280763,0|2,0:0|0:0,0:0:0:0:
302,28,165044,1,0,0:0:0:0:
302,28,165262,1,8,0:0:0:0:
406,104,165480,6,0,P|437:176|413:252,1,161.999995056153,4|0,0:0|0:0,0:0:0:0:
441,353,166135,1,8,0:0:0:0:
281,331,166353,1,0,0:0:0:0:
281,331,166462,1,0,0:0:0:0:
281,331,166571,2,0,P|321:320|364:312,1,80.9999975280763,2|0,0:0|0:0,0:0:0:0:
487,274,167007,1,8,0:0:0:0:
391,160,167225,6,0,P|356:232|359:313,1,161.999995056153,4|0,0:0|0:0,0:0:0:0:
261,382,167880,1,8,0:0:0:0:
225,245,168098,1,0,0:0:0:0:
175,333,168316,1,2,0:0:0:0:
306,282,168535,1,0,0:0:0:0:
121,203,168753,1,8,0:0:0:0:
262,151,168971,1,2,0:0:0:0:
262,151,169080,1,0,0:0:0:0:
262,151,169189,5,4,0:0:0:0:
205,305,169407,1,2,0:0:0:0:
149,80,169625,1,8,0:0:0:0:
357,198,169844,2,0,L|179:178,1,180,4|0,0:0|0:0,0:0:0:0:
284,96,170498,1,8,0:0:0:0:
74,187,170716,1,4,0:0:0:0:
74,187,171153,5,0,0:0:0:0:
109,300,171371,1,8,0:0:0:0:
240,348,171589,5,0,0:0:0:0:
286,211,171807,1,8,0:0:0:0:
464,154,172025,5,0,0:0:0:0:
502,323,172244,2,0,P|423:309|342:299,1,161.999995056153,12|0,0:0|0:0,0:0:0:0:
268,251,172680,6,0,P|227:262|179:273,1,90,4|0,0:0|0:0,0:0:0:0:
371,191,173116,1,8,0:0:0:0:
260,355,173335,1,0,0:0:0:0:
260,355,173444,1,0,0:0:0:0:
260,355,173553,1,2,0:0:0:0:
196,177,173771,1,0,0:0:0:0:
331,273,173989,1,8,0:0:0:0:
393,104,174207,1,0,0:0:0:0:
228,191,174425,6,0,P|240:276|253:374,1,180,2|8,0:0|0:0,0:0:0:0:
75,252,175080,1,0,0:0:0:0:
144,384,175298,2,0,P|150:337|159:281,1,90,2|0,0:0|0:0,0:0:0:0:
27,142,175735,2,0,P|33:186|39:231,1,90,8|0,0:0|0:0,0:0:0:0:
273,242,176171,6,0,P|187:258|120:202,1,180,2|8,0:0|0:0,0:0:0:0:
183,41,176825,1,0,0:0:0:0:
183,41,176935,1,0,0:0:0:0:
183,41,177044,1,2,0:0:0:0:
213,171,177262,1,0,0:0:0:0:
369,125,177480,1,8,0:0:0:0:
247,272,177698,1,0,0:0:0:0:
163,97,177916,5,4,0:0:0:0:
163,97,178353,1,8,0:0:0:0:
217,244,178571,2,0,P|172:236|124:228,1,90,2|0,0:0|0:0,0:0:0:0:
272,128,179007,2,0,P|316:120|360:112,1,90,2|8,0:0|0:0,0:0:0:0:
512,30,179444,6,0,L|478:207,1,180,4|0,0:0|0:0,0:0:0:0:
340,240,180098,1,8,0:0:0:0:
403,106,180316,1,0,0:0:0:0:
512,284,180535,2,0,P|464:291|423:296,1,90,2|0,0:0|0:0,0:0:0:0:
334,204,180971,1,8,0:0:0:0:
404,382,181189,6,0,P|317:361|228:355,1,180,2|2,0:0|0:0,0:0:0:0:
131,304,181844,1,8,0:0:0:0:
202,163,182062,1,2,0:0:0:0:
202,163,182171,1,0,0:0:0:0:
202,163,182280,1,0,0:0:0:0:
253,268,182498,1,2,0:0:0:0:
92,204,182716,1,8,0:0:0:0:
246,137,182935,1,2,0:0:0:0:
161,51,183153,6,0,P|150:100|145:151,1,90,4|2,0:0|0:0,0:0:0:0:
35,283,183589,2,0,P|76:267|120:255,1,90,8|2,0:0|0:0,0:0:0:0:
301,267,184025,2,0,P|262:243|226:216,1,90,0|2,0:0|0:0,0:0:0:0:
152,115,184462,1,8,0:0:0:0:
295,26,184680,1,0,0:0:0:0:
295,26,184789,1,0,0:0:0:0:
295,26,184898,6,0,P|276:108|262:213,1,180,4|8,0:0|0:0,0:0:0:0:
276,334,185553,1,0,0:0:0:0:
276,334,185662,1,0,0:0:0:0:
276,334,185771,2,0,P|232:322|186:312,1,90,4|0,0:0|0:0,0:0:0:0:
360,226,186207,1,8,0:0:0:0:
489,330,186425,1,2,0:0:0:0:
489,330,186535,1,0,0:0:0:0:
489,329,186644,6,0,P|480:209|361:226,1,270,4|8,0:0|0:0,0:0:0:0:
349,249,187407,1,8,0:0:0:0:
349,249,187516,2,0,P|356:204|364:155,1,90
218,97,187953,2,0,P|225:141|232:185,1,90,8|0,0:0|0:0,0:0:0:0:
249,312,188389,5,2,0:0:0:0:
256,192,188498,12,4,191880,0:0:0:0:
126,198,198862,6,0,P|105:261|129:323,1,135.000005149842,4|8,0:0|0:3,0:0:0:0:
217,185,199516,2,0,P|181:128|119:107,1,135.000005149842,2|0,0:0|0:0,0:0:0:0:
13,125,200171,1,8,0:3:0:0:
115,31,200389,6,0,L|95:164,1,135.000005149842,2|0,0:0|0:0,0:0:0:0:
82,263,201044,1,8,0:3:0:0:
164,320,201262,2,0,P|231:323|285:285,1,135.000005149842,2|0,0:0|0:0,0:0:0:0:
376,219,201916,2,0,P|385:251|392:285,1,67.5000025749208,8|0,0:3|0:0,0:0:0:0:
294,172,202353,6,0,P|353:123|438:148,1,161.999995056153,4|0,0:0|0:0,0:0:0:0:
462,320,203007,2,0,B|410:313|410:313|355:323|355:323|302:313,1,161.999995056153,4|0,0:0|0:0,0:0:0:0:
202,205,203662,1,2,0:0:0:0:
143,342,203880,6,0,P|221:323|302:312,1,161.999995056153,4|0,0:0|0:0,0:0:0:0:
420,128,204535,1,0,0:0:0:0:
430,160,204644,1,8,0:0:0:0:
435,193,204753,1,2,0:0:0:0:
433,228,204862,1,8,0:0:0:0:
420,265,204971,2,0,L|305:242,1,90,2|8,0:0|0:0,0:0:0:0:
117,196,205407,6,0,P|189:133|277:172,1,202.500007724762,8|0,0:0|0:0,0:0:0:0:
331,247,205844,6,0,P|324:291|318:336,1,90,4|0,0:0|0:0,0:0:0:0:
204,220,206280,1,8,0:0:0:0:
289,116,206498,1,0,0:0:0:0:
289,116,206607,1,8,0:0:0:0:
289,116,206716,1,2,0:0:0:0:
117,196,206935,1,0,0:0:0:0:
196,328,207153,1,8,0:0:0:0:
23,213,207371,6,0,P|30:168|41:125,1,90,2|0,0:0|0:0,0:0:0:0:
89,321,207807,2,0,P|46:332|1:339,1,90,2|8,0:0|0:0,0:0:0:0:
117,196,208243,1,2,0:0:0:0:
117,196,208353,1,0,0:0:0:0:
117,196,208462,1,0,0:0:0:0:
173,349,208679,1,0,0:0:0:0:
45,241,208898,1,8,0:0:0:0:
170,122,209116,1,0,0:0:0:0:
272,221,209334,6,0,B|334:243|334:243|442:208,1,180,2|8,0:0|0:0,0:0:0:0:
512,314,209989,1,0,0:0:0:0:
512,314,210098,1,0,0:0:0:0:
512,314,210207,1,2,0:0:0:0:
356,259,210425,1,0,0:0:0:0:
487,141,210643,1,8,0:0:0:0:
408,335,210862,2,0,P|321:343|267:276,1,180,2|0,0:0|0:0,0:0:0:0:
209,140,211516,2,0,P|202:184|194:228,1,90,8|2,0:0|0:0,0:0:0:0:
356,259,211953,6,0,P|343:180|331:97,1,161.999995056153,4|0,0:0|0:0,0:0:0:0:
326,73,212389,2,0,P|381:86|432:97,1,107.999996704102,4|0,0:0|0:0,0:0:0:0:
265,204,212825,6,0,P|178:187|84:171,1,180,4|8,0:0|0:0,0:0:0:0:
21,252,213479,1,2,0:0:0:0:
21,252,213589,1,0,0:0:0:0:
21,252,213698,1,0,0:0:0:0:
115,93,213916,1,0,0:0:0:0:
217,230,214135,1,8,0:0:0:0:
87,171,214353,1,2,0:0:0:0:
202,63,214571,5,0,0:0:0:0:
115,243,214789,1,2,0:0:0:0:
294,299,215007,1,8,0:0:0:0:
213,190,215226,1,2,0:0:0:0:
158,360,215444,1,0,0:0:0:0:
283,219,215662,1,0,0:0:0:0:
377,356,215880,2,4,P|422:348|468:339,1,90,8|0,0:0|0:0,0:0:0:0:
283,219,216316,5,4,0:0:0:0:
247,348,216534,1,2,0:0:0:0:
383,246,216752,1,8,0:0:0:0:
214,95,216970,2,0,B|178:139|178:139|201:264,1,180,4|0,0:0|0:0,0:0:0:0:
238,372,217625,1,8,0:0:0:0:
452,286,217844,6,0,P|365:221|299:241,1,180,4|0,0:0|0:0,0:0:0:0:
172,183,218498,1,8,0:0:0:0:
301,80,218716,1,0,0:0:0:0:
303,237,218935,1,8,0:0:0:0:
303,237,219044,1,0,0:0:0:0:
303,237,219153,1,0,0:0:0:0:
112,115,219371,2,0,P|160:104|216:91,1,90,8|0,0:0|0:0,0:0:0:0:
390,262,219807,6,0,P|324:320|240:299,1,180,4|8,0:0|0:0,0:0:0:0:
132,251,220462,1,0,0:0:0:0:
132,251,220571,1,0,0:0:0:0:
132,251,220680,2,0,P|127:295|124:340,1,90,2|0,0:0|0:0,0:0:0:0:
240,201,221116,1,8,0:0:0:0:
149,136,221335,1,2,0:0:0:0:
241,299,221553,5,0,0:0:0:0:
359,197,221771,1,2,0:0:0:0:
379,352,221989,1,8,0:0:0:0:
240,201,222207,1,2,0:0:0:0:
403,99,222425,1,0,0:0:0:0:
334,274,222644,1,0,0:0:0:0:
182,142,222862,1,8,0:0:0:0:
304,32,223080,1,2,0:0:0:0:
304,32,223189,1,0,0:0:0:0:
304,32,223298,6,0,P|295:112|284:216,1,180,4|8,0:0|0:0,0:0:0:0:
246,366,223953,2,0,B|298:354|355:382|355:382|378:362|388:317,1,180,4|0,0:0|0:0,0:0:0:0:
461,179,224607,1,8,0:0:0:0:
461,179,224716,1,0,0:0:0:0:
461,179,224825,6,0,P|372:197|283:210,1,180,4|0,0:0|0:0,0:0:0:0:
142,170,225480,1,8,0:0:0:0:
228,301,225698,1,0,0:0:0:0:
207,97,225916,1,8,0:0:0:0:
207,97,226025,1,0,0:0:0:0:
207,97,226135,1,0,0:0:0:0:
47,227,226353,1,8,0:0:0:0:
271,158,226571,1,4,0:3:0:0:
259,381,226789,5,4,0:0:0:0:
256,192,226898,12,2,230280,0:0:0:0:
