osu file format v14

[General]
AudioFilename: audio.mp3
AudioLeadIn: 0
PreviewTime: 129698
Countdown: 0
SampleSet: Soft
StackLeniency: 0.7
Mode: 0
LetterboxInBreaks: 0
WidescreenStoryboard: 0

[Editor]
Bookmarks: 1626,188389,191880,198862,230280
DistanceSpacing: 1.05
BeatDivisor: 2
GridSize: 4
TimelineZoom: 1.2

[Metadata]
Title:1st Love Story
TitleUnicode:1st Love Story
Artist:Luce Twinkle Wink
ArtistUnicode:Luce Twinkle Wink☆
Creator:Meyrink
Version:Easy
Source:ネトゲの嫁は女の子じゃないと思った?
Tags:Netoge no Yome wa Onnanoko ja Nai to Omotta ? ルーチェ・トゥインクル・ウィンク And you thought there is never a girl online NetoYome Net Game Opening Theme cloudsplash16 Little Gaia 藤林聖子 大久保薫 錦織めぐみ 桧垣果穂 宇佐美幸乃 板山紗織 深沢紗希
BeatmapID:1346809
BeatmapSetID:468904

[Difficulty]
HPDrainRate:2
CircleSize:3
OverallDifficulty:2
ApproachRate:3
SliderMultiplier:0.899999999999999
SliderTickRate:1

[Events]
//Background and Video events
0,0,"MyAngelAko.png",0,0
//Break Periods
2,192080,197422
//Storyboard Layer 0 (Background)
//Storyboard Layer 1 (Fail)
//Storyboard Layer 2 (Pass)
//Storyboard Layer 3 (Foreground)
//Storyboard Sound Samples

[TimingPoints]
1626,436.363636363636,4,2,1,50,1,0
12098,-100,4,2,1,70,0,0
29553,-100,4,2,1,60,0,0
43516,-100,4,2,1,70,0,0
59225,-100,4,2,1,80,0,1
72753,-100,4,2,1,80,0,0
73189,-100,4,2,1,80,0,1
87153,-100,4,2,1,70,0,0
101116,-100,4,2,1,60,0,0
115080,-100,4,2,1,70,0,0
130789,-100,4,2,1,80,0,1
144316,-100,4,2,1,80,0,0
144753,-100,4,2,1,80,0,1
158716,-100,4,2,1,60,0,0
169189,-100,4,2,1,70,0,0
172680,-100,4,2,1,80,0,0
188389,-100,4,2,1,50,0,0
198862,-100,4,2,1,60,0,0
202353,-100,4,2,1,70,0,0
205844,-100,4,2,1,80,0,1
219371,-100,4,2,1,80,0,0
219807,-100,4,2,1,80,0,1
226789,-100,4,2,1,70,0,0
230280,-100,4,2,1,30,0,0

[Colours]
Combo1 : 222,166,230
Combo2 : 255,128,128
Combo3 : 138,173,255
Combo4 : 255,220,113

[HitObjects]
134,127,1626,6,0,L|166:303,1,180,6|2,0:0|0:0,0:0:0:0:
286,379,3153,2,0,P|300:313|323:248,1,135,2|0,0:0|0:0,0:0:0:0:
384,176,4244,2,0,P|427:184|472:193,1,89.9999999999999,2|0,0:0|0:0,0:0:0:0:
498,284,5116,6,0,P|409:265|321:249,1,180,2|2,0:0|0:0,0:0:0:0:
211,337,6644,2,0,P|143:337|78:352,1,135,2|0,0:0|0:0,0:0:0:0:
11,285,7735,2,0,P|27:243|48:188,1,89.9999999999999,2|2,0:0|0:0,0:0:0:0:
117,142,8607,6,0,B|115:75|73:45|73:45|40:60|6:63,1,180,4|2,0:0|0:0,0:0:0:0:
43,200,10135,2,0,P|134:193|227:196,1,180,2|2,0:0|0:0,0:0:0:0:
326,99,11662,1,2,0:0:0:0:
416,125,12098,6,0,P|431:190|445:256,1,135,6|4,0:0|0:0,0:0:0:0:
296,373,13625,2,0,P|280:308|266:242,1,135,4|8,0:0|0:0,0:0:0:0:
319,163,14716,2,0,P|276:155|223:140,1,89.9999999999999,0|8,0:0|0:0,0:0:0:0:
173,67,15589,6,0,B|107:77|62:43|62:43|27:52|15:82,1,180,4|2,0:0|0:0,0:0:0:0:
18,176,16898,1,8,0:0:0:0:
84,242,17335,2,0,L|228:221,2,135,0|2|8,0:0|0:0|0:0,0:0:0:0:
18,176,19080,6,0,P|30:132|40:84,1,89.9999999999999,2|8,0:0|0:0,0:0:0:0:
102,18,19953,2,0,P|167:36|234:44,2,135,2|2|8,0:0|0:0|0:0,0:0:0:0:
39,88,21698,2,0,P|82:102|130:114,1,89.9999999999999,4|4,0:0|0:0,0:0:0:0:
218,127,22571,6,0,B|278:138|278:138|329:125|329:125|396:139,1,180,4|2,0:0|0:0,0:0:0:0:
475,185,23880,1,8,0:0:0:0:
400,242,24316,2,0,P|406:283|411:335,1,89.9999999999999,0|8,0:0|0:0,0:0:0:0:
502,358,25189,2,0,P|506:314|512:269,1,89.9999999999999,0|8,0:0|0:0,0:0:0:0:
475,185,26062,6,0,P|457:119|447:53,1,135,4|4,0:0|0:0,0:0:0:0:
319,192,27589,2,0,L|294:332,1,135,4|8,0:0|0:0,0:0:0:0:
208,360,28680,2,0,P|204:321|197:266,1,89.9999999999999,2|8,0:0|0:0,0:0:0:0:
228,181,29553,6,0,P|153:230|64:217,1,180,4|2,0:0|0:0,0:0:0:0:
25,134,30862,1,8,0:0:0:0:
71,52,31298,2,0,P|118:60|162:73,1,89.9999999999999,0|8,0:0|0:0,0:0:0:0:
234,128,32171,2,0,P|277:118|321:108,1,89.9999999999999,0|8,0:0|0:0,0:0:0:0:
411,80,33044,6,0,P|399:147|386:213,2,135,0|2|8,0:0|0:0|0:0,0:0:0:0:
338,21,34789,2,0,P|294:29|249:39,1,89.9999999999999,0|8,0:0|0:0,0:0:0:0:
225,130,35662,2,0,P|269:121|313:112,1,89.9999999999999,0|8,0:0|0:0,0:0:0:0:
402,143,36535,6,0,P|440:222|417:307,1,180,4|2,0:0|0:0,0:0:0:0:
336,358,37844,1,8,0:0:0:0:
250,318,38280,2,0,P|208:309|162:303,1,89.9999999999999,0|8,0:0|0:0,0:0:0:0:
117,219,39153,6,0,P|186:204|270:183,2,135,0|4|8,0:0|0:0|0:0,0:0:0:0:
29,255,40898,2,0,P|38:294|47:344,1,89.9999999999999,0|8,0:0|0:0,0:0:0:0:
141,352,41771,2,0,P|229:353|287:289,1,180,0|0,0:0|0:0,0:0:0:0:
305,195,43080,1,8,0:0:0:0:
210,206,43516,6,0,P|203:117|252:43,1,180,4|2,0:0|0:0,0:0:0:0:
420,133,45262,2,0,P|373:137|326:143,1,89.9999999999999,2|8,0:0|0:0,0:0:0:0:
311,235,46135,2,0,P|355:239|400:244,1,89.9999999999999,2|8,0:0|0:0,0:0:0:0:
455,321,47007,6,0,P|395:337|317:363,2,135,2|0|8,0:0|0:0|0:0,0:0:0:0:
495,235,48753,2,0,P|479:166|465:97,2,135,4|2|8,0:0|0:0|0:0,0:0:0:0:
455,321,50498,6,0,B|400:353|400:353|347:335|287:325,1,180,0|2,0:0|0:0,0:0:0:0:
218,259,51807,1,8,0:0:0:0:
142,316,52244,2,0,P|77:325|10:276,2,135,0|2|8,0:0|0:0|0:0,0:0:0:0:
218,259,53989,6,0,L|193:75,1,180,4|0,0:0|0:0,0:0:0:0:
107,42,55298,1,8,0:0:0:0:
33,101,55735,2,0,L|57:279,1,180,4|4,0:0|0:0,0:0:0:0:
230,354,57480,2,0,B|300:316|358:367|358:367|403:303|387:239,1,270,4|8,0:0|0:0,0:0:0:0:
455,177,59225,6,0,P|369:204|280:219,1,180,4|2,0:0|0:0,0:0:0:0:
187,201,60535,1,8,0:0:0:0:
103,157,60971,2,0,P|91:90|84:23,2,135,0|2|8,0:0|0:0|0:0,0:0:0:0:
76,247,62716,6,0,P|121:239|164:232,1,89.9999999999999,2|8,0:0|0:0,0:0:0:0:
223,158,63589,2,0,P|257:100|319:77,2,135,0|2|8,0:0|0:0|0:0,0:0:0:0:
278,234,65334,2,0,P|267:277|254:320,1,89.9999999999999,4|4,0:0|0:0,0:0:0:0:
167,358,66207,6,0,P|256:339|343:320,1,180,4|2,0:0|0:0,0:0:0:0:
387,235,67516,1,8,0:0:0:0:
479,214,67953,2,0,P|465:152|432:88,2,135,0|2|8,0:0|0:0|0:0,0:0:0:0:
444,302,69698,6,0,P|375:320|310:355,1,135,4|4,0:0|0:0,0:0:0:0:
158,248,71225,2,0,P|172:181|191:98,1,135,4|8,0:0|0:0,0:0:0:0:
271,72,72316,2,0,P|277:112|285:160,1,89.9999999999999,8|8,0:0|0:0,0:0:0:0:
325,246,73189,6,0,P|411:259|484:210,1,180,4|2,0:0|0:0,0:0:0:0:
489,116,74498,1,8,0:0:0:0:
396,137,74935,2,0,P|366:76|354:10,2,135,0|0|8,0:0|0:0|0:0,0:0:0:0:
456,209,76680,6,0,L|368:230,1,89.9999999999999,2|8,0:0|0:0,0:0:0:0:
275,213,77553,2,0,P|262:279|233:339,2,135,2|2|8,0:0|0:0|0:0,0:0:0:0:
203,151,79298,2,0,P|158:144|113:140,1,89.9999999999999,4|4,0:0|0:0,0:0:0:0:
46,207,80171,6,0,P|58:274|68:341,2,135,4|0|8,0:0|0:0|0:0,0:0:0:0:
14,117,81916,2,0,P|27:73|43:26,1,89.9999999999999,0|8,0:0|0:0,0:0:0:0:
135,41,82789,2,0,P|121:84|107:126,1,89.9999999999999,0|8,0:0|0:0,0:0:0:0:
163,201,83662,6,0,P|230:210|296:224,1,135,4|4,0:0|0:0,0:0:0:0:
472,294,85189,2,0,P|457:228|449:161,1,135,4|8,0:0|0:0,0:0:0:0:
435,67,86280,2,0,P|392:82|338:99,1,89.9999999999999,8|8,0:0|0:0,0:0:0:0:
267,144,87153,6,0,B|304:168|332:200|332:200|296:286,1,180,4|2,0:0|0:0,0:0:0:0:
235,359,88462,1,8,0:0:0:0:
155,307,88898,2,0,P|89:290|23:297,2,135,0|2|8,0:0|0:0|0:0,0:0:0:0:
235,359,90644,6,0,P|279:347|327:337,1,89.9999999999999,2|8,0:0|0:0,0:0:0:0:
407,295,91516,2,0,P|414:226|425:145,2,135,2|2|8,0:0|0:0|0:0,0:0:0:0:
322,337,93262,2,0,P|316:290|308:245,1,89.9999999999999,4|4,0:0|0:0,0:0:0:0:
223,206,94135,6,0,P|137:219|64:170,1,180,4|2,0:0|0:0,0:0:0:0:
55,74,95444,1,8,0:0:0:0:
133,21,95880,2,0,P|177:37|220:52,1,89.9999999999999,0|8,0:0|0:0,0:0:0:0:
300,96,96753,2,0,P|342:81|384:65,1,89.9999999999999,0|8,0:0|0:0,0:0:0:0:
451,133,97625,6,0,P|387:157|327:187,1,135,4|4,0:0|0:0,0:0:0:0:
402,360,99153,2,0,P|435:302|430:236,1,135,4|8,0:0|0:0,0:0:0:0:
387,151,100244,2,0,P|395:105|404:56,1,89.9999999999999,2|8,0:0|0:0,0:0:0:0:
312,34,101116,6,0,P|298:110|281:211,1,180,4|2,0:0|0:0,0:0:0:0:
203,265,102425,1,8,0:0:0:0:
126,210,102862,2,0,P|82:197|38:190,1,89.9999999999999,0|8,0:0|0:0,0:0:0:0:
0,276,103735,2,0,P|12:317|25:362,1,89.9999999999999,0|8,0:0|0:0,0:0:0:0:
119,356,104607,6,0,P|184:340|251:334,2,135,0|2|8,0:0|0:0|0:0,0:0:0:0:
69,275,106352,2,0,P|78:231|87:186,1,89.9999999999999,0|8,0:0|0:0,0:0:0:0:
167,137,107225,2,0,P|175:181|184:225,1,89.9999999999999,0|8,0:0|0:0,0:0:0:0:
260,281,108098,6,0,B|335:301|335:301|381:276|388:216,1,180,4|2,0:0|0:0,0:0:0:0:
397,123,109407,1,8,0:0:0:0:
302,125,109843,2,0,P|257:119|213:109,1,89.9999999999999,0|8,0:0|0:0,0:0:0:0:
126,147,110716,6,0,P|111:81|95:15,2,135,0|4|8,0:0|0:0|0:0,0:0:0:0:
206,197,112462,2,0,P|200:241|190:285,1,89.9999999999999,0|8,0:0|0:0,0:0:0:0:
138,363,113334,2,0,P|207:309|292:325,1,180,0|0,0:0|0:0,0:0:0:0:
384,349,114643,1,8,0:0:0:0:
459,292,115080,6,0,P|478:205|442:125,1,180,4|2,0:0|0:0,0:0:0:0:
253,134,116825,2,0,P|259:89|263:44,1,89.9999999999999,2|8,0:0|0:0,0:0:0:0:
351,9,117698,2,0,P|355:53|361:98,1,89.9999999999999,2|8,0:0|0:0,0:0:0:0:
345,191,118570,6,0,P|417:175|478:170,2,135,2|0|8,0:0|0:0|0:0,0:0:0:0:
297,272,120316,2,0,P|231:256|164:250,2,135,4|2|8,0:0|0:0|0:0,0:0:0:0:
359,343,122062,6,0,P|346:253|333:164,1,180,0|2,0:0|0:0,0:0:0:0:
267,97,123371,1,8,0:0:0:0:
185,143,123807,2,0,P|121:141|62:105,2,135,0|2|8,0:0|0:0|0:0,0:0:0:0:
267,96,125552,6,0,P|221:174|209:262,1,180,4|0,0:0|0:0,0:0:0:0:
248,347,126861,1,8,0:0:0:0:
153,352,127298,2,0,B|99:352|60:364|60:364|35:331|25:283,1,180,4|4,0:0|0:0,0:0:0:0:
49,98,129043,2,0,B|61:142|59:190|59:190|144:135|232:152,1,270,4|8,0:0|0:0,0:0:0:0:
289,79,130789,6,0,L|261:256,1,180,4|2,0:0|0:0,0:0:0:0:
323,327,132098,1,8,0:0:0:0:
388,258,132535,2,0,P|453:252|506:291,2,135,0|2|8,0:0|0:0|0:0,0:0:0:0:
322,327,134279,6,0,P|278:334|233:336,1,89.9999999999999,2|8,0:0|0:0,0:0:0:0:
156,281,135152,2,0,P|164:213|171:146,2,135,2|2|8,0:0|0:0|0:0,0:0:0:0:
63,300,136898,2,0,P|59:255|54:210,1,89.9999999999999,4|4,0:0|0:0,0:0:0:0:
82,120,137771,6,0,P|141:56|229:66,1,180,4|2,0:0|0:0,0:0:0:0:
298,126,139079,1,8,0:0:0:0:
382,167,139516,2,0,P|444:153|508:120,2,135,0|2|8,0:0|0:0|0:0,0:0:0:0:
322,240,141261,6,0,P|261:209|196:192,1,135,4|4,0:0|0:0,0:0:0:0:
74,48,142789,2,0,L|45:179,1,135,4|8,0:0|0:0,0:0:0:0:
117,239,143879,2,0,P|124:283|131:327,1,89.9999999999999,8|8,0:0|0:0,0:0:0:0:
218,365,144752,6,0,P|234:275|265:192,1,180,4|2,0:0|0:0,0:0:0:0:
341,137,146061,1,8,0:0:0:0:
355,230,146498,2,0,P|425:219|489:204,2,135,0|2|8,0:0|0:0|0:0,0:0:0:0:
267,195,148243,6,0,L|248:107,1,89.9999999999999,2|8,0:0|0:0,0:0:0:0:
154,92,149116,2,0,P|88:76|21:66,2,135,2|2|8,0:0|0:0|0:0,0:0:0:0:
228,150,150862,2,0,P|273:139|316:131,1,89.9999999999999,4|4,0:0|0:0,0:0:0:0:
407,155,151734,6,0,P|416:84|427:14,2,135,4|0|8,0:0|0:0|0:0,0:0:0:0:
386,247,153479,2,0,L|478:229,1,89.9999999999999,0|8,0:0|0:0,0:0:0:0:
467,324,154353,2,0,L|375:342,1,89.9999999999999,0|8,0:0|0:0,0:0:0:0:
297,292,155225,6,0,P|233:269|166:269,1,135,4|4,0:0|0:0,0:0:0:0:
3,173,156753,2,0,P|70:172|133:150,1,135,4|8,0:0|0:0,0:0:0:0:
220,114,157843,2,0,L|228:24,1,89.9999999999999,8|8,0:0|0:0,0:0:0:0:
320,43,158716,6,0,L|328:133,1,89.9999999999999,4|8,0:0|0:0,0:0:0:0:
360,223,159589,2,0,P|404:217|449:215,1,89.9999999999999,2|8,0:0|0:0,0:0:0:0:
481,303,160462,2,0,P|391:306|301:318,1,180,2|2,0:0|0:0,0:0:0:0:
217,274,161771,1,8,0:0:0:0:
134,227,162207,6,0,P|141:156|149:82,2,135,2|0|8,0:0|0:0|0:0,0:0:0:0:
49,269,163953,2,0,L|61:358,2,89.9999999999999,2|8|2,0:0|0:0|0:0,0:0:0:0:
48,127,165480,6,0,P|114:139|180:150,1,135,4|8,0:0|0:0,0:0:0:0:
275,144,166571,1,2,0:0:0:0:
372,246,167225,2,0,P|306:258|240:269,1,135,4|8,0:0|0:0,0:0:0:0:
145,253,168316,2,0,P|142:297|141:342,1,89.9999999999999,2|8,0:0|0:0,0:0:0:0:
233,361,169189,6,0,P|299:349|365:338,1,135,4|4,0:0|0:0,0:0:0:0:
503,208,170716,2,0,P|436:207|379:172,1,135,4|8,0:0|0:0,0:0:0:0:
284,165,171807,2,0,P|292:209|303:252,1,89.9999999999999,8|12,0:0|0:0,0:0:0:0:
381,307,172680,6,0,P|294:294|225:349,1,180,4|2,0:0|0:0,0:0:0:0:
139,310,173989,1,8,0:0:0:0:
45,325,174425,2,0,P|25:260|26:193,2,135,2|0|8,0:0|0:0|0:0,0:0:0:0:
125,374,176171,6,0,P|213:355|302:348,1,180,2|2,0:0|0:0,0:0:0:0:
365,276,177480,1,8,0:0:0:0:
290,218,177916,2,0,L|147:201,1,135,4|2,0:0|0:0,0:0:0:0:
103,123,179007,1,2,0:0:0:0:
8,111,179444,6,0,P|40:52|102:29,1,135,4|8,0:0|0:0,0:0:0:0:
184,75,180535,2,0,L|328:57,2,135,2|2|8,0:0|0:0|0:0,0:0:0:0:
103,123,182280,2,0,P|94:167|89:211,1,89.9999999999999,0|8,0:0|0:0,0:0:0:0:
126,298,183153,6,0,P|60:304|9:263,2,135,4|2|8,0:0|0:0|0:0,0:0:0:0:
188,227,184898,2,0,P|273:206|347:253,1,180,4|4,0:0|0:0,0:0:0:0:
430,297,186207,1,8,0:0:0:0:
504,238,186644,2,0,P|490:148|476:60,1,180,4|0,0:0|0:0,0:0:0:0:
386,32,187953,1,8,0:0:0:0:
256,192,188389,12,4,191880,0:0:0:0:
250,173,198862,5,4,0:0:0:0:
322,234,199298,2,0,B|410:261|410:197|498:231,2,180,8|8|8,0:3|0:3|0:3,0:0:0:0:
167,121,201916,1,8,0:3:0:0:
216,196,202353,6,0,P|254:143|251:77,1,135,4|4,0:0|0:0,0:0:0:0:
86,169,203880,2,0,P|104:233|120:299,1,135,4|0,0:0|0:0,0:0:0:0:
197,354,204971,2,0,P|203:312|215:262,1,89.9999999999999,2|8,0:0|0:0,0:0:0:0:
201,171,205844,6,0,P|288:190|377:204,1,180,4|2,0:0|0:0,0:0:0:0:
441,274,207153,1,8,0:0:0:0:
347,290,207589,2,0,P|284:314|258:385,2,135,2|0|8,0:0|0:0|0:0,0:0:0:0:
441,274,209335,6,0,L|422:186,1,89.9999999999999,2|8,0:0|0:0,0:0:0:0:
335,148,210208,2,0,P|345:81|360:15,2,135,2|2|8,0:0|0:0|0:0,0:0:0:0:
356,240,211954,2,0,P|312:229|268:221,1,89.9999999999999,4|8,0:0|0:0,0:0:0:0:
177,246,212826,6,0,P|111:250|59:209,2,135,4|0|8,0:0|0:0|0:0,0:0:0:0:
215,159,214571,2,0,P|205:114|195:69,1,89.9999999999999,0|8,0:0|0:0,0:0:0:0:
286,42,215444,2,0,P|295:84|304:129,1,89.9999999999999,0|8,0:0|0:0,0:0:0:0:
300,224,216316,6,0,P|364:201|432:189,1,135,4|4,0:0|0:0,0:0:0:0:
495,366,217844,2,0,P|431:343|365:331,1,135,4|8,0:0|0:0,0:0:0:0:
278,368,218935,2,0,P|266:324|258:277,1,89.9999999999999,8|8,0:0|0:0,0:0:0:0:
290,191,219807,6,0,L|432:163,2,135,4|0|8,0:0|0:0|0:0,0:0:0:0:
210,242,221553,2,0,L|116:226,1,89.9999999999999,0|8,0:0|0:0,0:0:0:0:
77,310,222425,2,0,L|165:325,1,89.9999999999999,0|8,0:0|0:0,0:0:0:0:
259,333,223298,6,0,P|301:281|306:215,1,135,4|4,0:0|0:0,0:0:0:0:
237,39,224825,2,0,P|194:90|189:156,1,135,4|8,0:0|0:0,0:0:0:0:
218,246,225916,2,0,P|174:239|129:235,2,89.9999999999999,8|8|4,0:0|0:0|0:0,0:0:0:0:
256,192,227007,12,2,230280,0:0:0:0:
