osu file format v14

[General]
AudioFilename: audio.mp3
AudioLeadIn: 0
PreviewTime: 89
Countdown: 1
SampleSet: Soft
StackLeniency: 0.7
Mode: 0
LetterboxInBreaks: 0
WidescreenStoryboard: 0

[Editor]
Bookmarks: 63623
DistanceSpacing: 1.3
BeatDivisor: 16
GridSize: 32
TimelineZoom: 2.5

[Metadata]
Title:"Papers, Please" Themes
TitleUnicode:"Papers, Please" Themes
Artist:Lucas Pope
ArtistUnicode:Lucas Pope
Creator:Kama
Version:Arstotzkan Main Theme
Source:
Tags:
BeatmapID:2084321
BeatmapSetID:996447

[Difficulty]
HPDrainRate:3
CircleSize:4
OverallDifficulty:8.5
ApproachRate:9.3
SliderMultiplier:2.06
SliderTickRate:1

[Events]
//Background and Video events
0,0,"bg.jpg",0,0
//Break Periods
//Storyboard Layer 0 (Background)
//Storyboard Layer 1 (Fail)
//Storyboard Layer 2 (Pass)
//Storyboard Layer 3 (Foreground)
//Storyboard Sound Samples

[TimingPoints]
89,600,4,2,0,50,1,0
89,-125,4,2,0,50,0,0
4289,-90.9090909090909,4,2,0,50,0,0
4889,-125,4,2,0,50,0,0
9089,-90.9090909090909,4,2,0,50,0,0
9689,594.059405940594,4,2,0,50,1,0
9689,-90.9090909090909,4,2,0,50,0,0
12065,582.52427184466,4,2,0,50,1,0
12065,-90.9090909090909,4,2,0,50,0,0
14540,-125,4,2,0,50,0,0
18472,-90.9090909090909,4,2,0,50,0,0
21385,588.235294117647,4,2,0,50,1,0
23737,-142.857142857143,4,2,0,50,0,1
24326,-142.857142857143,4,2,0,50,0,0
26045,571.428571428571,4,2,0,50,1,0
26045,-142.857142857143,4,2,0,50,0,0
27759,-90.9090909090909,4,2,0,50,0,0
32917,566.037735849057,4,2,0,50,1,0
37430,555.555555555556,4,2,0,50,1,0
37430,-125,4,2,0,50,0,0
39652,-100,4,2,0,50,0,0
41874,560.747663551402,4,2,0,50,1,0
41874,-142.857142857143,4,2,0,50,0,0
42084,-100,4,2,0,50,0,0
42995,-142.857142857143,4,2,0,50,0,0
43205,-100,4,2,0,50,0,0
44116,-142.857142857143,4,2,0,50,0,0
44327,-100,4,2,0,50,0,0
45238,-142.857142857143,4,2,0,50,0,0
45799,-200,4,2,0,50,0,0
46365,550.45871559633,4,2,0,50,1,0
46365,-100,4,2,0,50,0,1
46915,-100,4,2,0,50,0,0
48566,545.454545454546,4,2,0,50,1,0
50747,540.540540540541,4,2,0,50,1,0
52909,535.714285714286,4,2,0,50,1,0
63623,-100,4,2,0,50,0,1
64159,-100,4,2,0,50,0,0
65728,521.739130434783,4,2,0,50,1,0
67832,517.241379310345,4,2,0,50,1,0
71969,512.820512820513,4,2,0,50,1,0
76071,508.474576271186,4,2,0,50,1,0
80138,504.201680672269,4,2,0,50,1,1
80138,-100,4,2,0,50,0,1
84171,495.867768595041,4,2,0,50,1,1
86138,487.80487804878,4,2,0,50,1,1
88089,483.870967741935,4,2,0,50,1,1
90024,480,4,2,0,50,1,1
91944,476.190476190476,4,2,0,50,1,1
93848,472.44094488189,4,2,0,50,1,1
95737,480,4,2,0,50,1,1
96688,483.870967741935,4,2,0,50,1,1
97649,540.540540540541,4,2,0,50,1,1
98740,550.45871559633,4,2,0,50,1,1
99836,600,4,2,0,50,1,0

[HitObjects]
141,76,89,6,0,L|128:245,1,164.8
293,153,1289,2,0,L|306:322,1,164.8
82,169,2489,6,0,P|127:112|234:126,1,164.8
207,241,3689,2,0,P|249:235|304:256,1,82.3999999999999
384,298,4289,6,0,L|392:360,1,56.6500017288209
485,193,4739,2,0,L|477:255,1,56.6500017288209
382,114,5489,1,0,0:0:0:0:
289,109,6089,2,0,P|300:163|397:206,1,164.8
195,78,7289,2,0,P|201:100|194:248,1,164.8
274,277,8489,2,0,L|279:368,1,82.4
378,110,9089,6,0,P|410:100|465:109,1,84.9750025932313
509,203,9539,2,0,P|477:213|434:215,1,70.8125021610261
415,206,9874,2,0,P|386:209|360:218,1,56.6500017288209
171,106,10283,1,0,0:0:0:0:
171,106,10468,1,0,0:0:0:0:
171,106,10691,2,0,L|158:181,1,70.8125021610261
192,202,11025,2,0,L|199:277,1,70.8125021610261
361,364,11471,6,0,P|390:357|432:361,1,70.8125021610261
492,377,11867,1,0,0:0:0:0:
442,238,12065,2,0,L|434:311,1,56.6500017288209
417,307,12429,1,0,0:0:0:0:
272,106,12647,1,0,0:0:0:0:
258,124,12829,2,0,P|211:138|163:125,1,99.1375030254365
70,215,13266,2,0,L|59:289,2,70.8125021610261
309,158,13776,5,0,0:0:0:0:
309,158,13958,1,0,0:0:0:0:
376,230,14395,2,0,L|385:309,1,70.8125021610261
447,359,14686,6,0,P|412:383|363:382,1,82.4
84,276,15560,2,0,P|44:299|84:271,1,164.8
137,109,16725,2,0,B|157:113|157:113|197:147|233:126|233:126|270:102|293:111,1,164.8
380,191,17890,2,0,L|367:279,1,82.4
177,305,18472,6,0,P|201:322|245:322,1,70.8125021610261
308,145,18873,2,0,L|306:223,1,70.8125021610261
370,269,19237,1,0,0:0:0:0:
448,280,19419,1,0,0:0:0:0:
251,65,19637,2,0,P|235:90|193:115,1,70.8125021610261
86,154,20038,2,0,P|89:186|113:217,1,70.8125021610261
161,265,20402,1,0,0:0:0:0:
111,338,20620,1,0,0:0:0:0:
302,103,20839,6,0,L|295:180,1,70.8125021610261
452,204,21203,1,0,0:0:0:0:
416,279,21385,2,0,L|421:346,1,64.375
115,212,21973,2,0,P|145:202|181:205,1,64.375
263,319,22377,1,0,0:0:0:0:
325,276,22561,2,0,L|332:202,1,64.375
98,93,23181,2,0,L|106:160,1,64.375
347,170,23737,6,0,L|351:215,2,45.0624986248017
248,218,24326,2,0,L|244:263,2,45.0624986248017
144,107,24914,2,0,L|148:152,2,45.0624986248017
45,59,25502,2,0,L|41:104,2,45.0624986248017
168,321,26045,6,0,L|172:276,2,45.0624986248017
69,273,26616,2,0,L|65:228,2,45.0624986248017
253,231,27187,2,0,L|249:186,2,45.0624986248017
388,318,27759,6,0,P|417:333|469:315,2,84.9750025932313
312,109,28330,2,0,P|312:146|302:197,1,84.9750025932313
230,252,28723,1,0,0:0:0:0:
119,242,28937,1,0,0:0:0:0:
62,147,29116,1,0,0:0:0:0:
55,136,29294,1,0,0:0:0:0:
182,189,29473,5,0,0:0:0:0:
272,169,29687,1,0,0:0:0:0:
344,219,29866,1,0,0:0:0:0:
355,309,30044,1,0,0:0:0:0:
296,382,30223,1,0,0:0:0:0:
204,376,30402,1,0,0:0:0:0:
103,47,30616,6,0,P|101:81|118:120,1,70.8125021610261
194,267,31008,1,0,0:0:0:0:
213,109,31187,1,0,0:0:0:0:
295,154,31366,1,0,0:0:0:0:
143,175,31544,1,0,0:0:0:0:
279,255,31759,6,0,P|287:280|288:330,1,70.8125021610261
188,368,32152,1,0,0:0:0:0:
122,185,32330,1,0,0:0:0:0:
216,198,32544,1,0,0:0:0:0:
264,115,32759,1,0,0:0:0:0:
283,128,32917,2,0,L|290:206,1,77.25
283,128,33483,6,0,L|290:206,1,77.25
369,280,33907,1,0,0:0:0:0:
435,339,34049,2,0,P|393:364|357:369,1,77.25
103,232,34615,2,0,P|105:268|125:317,1,90.125
261,360,35024,1,0,0:0:0:0:
276,341,35181,2,0,L|280:252,1,77.25
130,104,35747,6,0,P|167:95|211:110,1,77.25
258,166,36136,2,0,L|172:174,1,77.25
126,212,36525,1,0,0:0:0:0:
233,306,36879,1,0,0:0:0:0:
239,320,37056,1,0,0:0:0:0:
414,213,37430,6,0,L|405:280,2,61.8
302,134,37985,2,0,L|311:198,2,61.8
207,271,38541,2,0,L|216:338,2,61.8
84,155,39096,2,0,L|75:219,2,61.8
250,81,39652,6,0,P|281:66|334:72,1,77.25
321,174,40068,1,0,0:0:0:0:
385,240,40207,2,0,L|377:324,1,77.25
266,358,40624,1,0,0:0:0:0:
83,302,40763,2,0,P|126:295|165:297,1,77.25
266,358,41180,1,0,0:0:0:0:
121,173,41318,6,0,P|157:162|201:162,1,77.25
259,234,41700,1,0,0:0:0:0:
274,255,41874,2,0,L|279:314,1,54.074998349762
366,133,42434,1,0,0:0:0:0:
450,218,42645,1,0,0:0:0:0:
381,260,42820,1,0,0:0:0:0:
317,302,42995,2,0,L|323:361,1,54.074998349762
234,222,43556,6,0,L|226:304,1,77.25
144,333,43941,1,0,0:0:0:0:
77,265,44116,2,0,P|103:248|133:244,1,54.074998349762
385,163,44677,1,0,0:0:0:0:
299,227,44888,2,0,L|306:295,1,64.375
227,284,45238,2,0,L|222:337,1,54.074998349762
159,340,45799,2,0,L|165:383,1,38.625
84,162,46359,6,0,L|148:155,1,64.375
289,238,46915,2,0,L|304:309,2,64.375
352,167,47465,2,0,P|379:166|414:184,1,64.375
