osu file format v14

[General]
AudioFilename: audio.mp3
AudioLeadIn: 0
PreviewTime: -1
Countdown: 1
SampleSet: None
StackLeniency: 0.7
Mode: 0
LetterboxInBreaks: 0
WidescreenStoryboard: 1

[Editor]
Bookmarks: 5996,11997,13872,14247,14997,32997,38997
DistanceSpacing: 0.5
BeatDivisor: 4
GridSize: 16
TimelineZoom: 2.4

[Metadata]
Title:Resting
TitleUnicode:Resting
Artist:Lucas Horodynsky
ArtistUnicode:Lucas Horodynsky
Creator:phoneetic
Version:Rabbit
Source:
Tags:
BeatmapID:1863455
BeatmapSetID:882317

[Difficulty]
HPDrainRate:1
CircleSize:4
OverallDifficulty:10
ApproachRate:10
SliderMultiplier:3.59999990463257
SliderTickRate:1

[Events]
//Background and Video events
0,0,"thumbnail0000.png",0,0
//Break Periods
2,27947,32547
//Storyboard Layer 0 (Background)
//Storyboard Layer 1 (Fail)
//Storyboard Layer 2 (Pass)
//Storyboard Layer 3 (Foreground)
//Storyboard Sound Samples

[TimingPoints]
2996.84156828236,375.011543287327,4,1,0,100,1,0

[HitObjects]
128,96,5996,5,0,0:0:0:0:
384,96,6184,1,0,0:0:0:0:
256,32,6371,1,0,0:0:0:0:
256,352,6559,1,0,0:0:0:0:
176,256,6746,5,0,0:0:0:0:
336,128,6934,1,0,0:0:0:0:
176,128,7121,1,0,0:0:0:0:
336,256,7309,1,0,0:0:0:0:
80,32,7496,5,0,0:0:0:0:
432,352,7684,1,0,0:0:0:0:
432,32,7871,1,0,0:0:0:0:
80,352,8059,1,0,0:0:0:0:
176,16,8247,5,0,0:0:0:0:
336,368,8434,1,0,0:0:0:0:
336,16,8622,5,0,0:0:0:0:
176,368,8809,1,0,0:0:0:0:
224,160,8997,1,0,0:0:0:0:
288,224,9184,1,0,0:0:0:0:
176,112,9372,5,0,0:0:0:0:
384,320,9559,1,0,0:0:0:0:
128,64,9747,1,0,0:0:0:0:
448,352,9934,1,0,0:0:0:0:
64,32,10122,5,0,0:0:0:0:
464,16,10309,1,0,0:0:0:0:
116,111,10497,1,0,0:0:0:0:
384,112,10590,1,0,0:0:0:0:
255,353,10684,5,0,0:0:0:0:
112,288,10778,1,0,0:0:0:0:
256,32,10871,1,0,0:0:0:0:
384,288,10965,1,0,0:0:0:0:
336,52,11059,5,0,0:0:0:0:
336,320,11152,1,0,0:0:0:0:
94,192,11246,1,0,0:0:0:0:
160,48,11340,1,0,0:0:0:0:
416,192,11433,5,0,0:0:0:0:
160,319,11527,1,0,0:0:0:0:
116,111,11622,1,0,0:0:0:0:
384,112,11715,1,0,0:0:0:0:
255,353,11809,5,0,0:0:0:0:
112,288,11903,1,0,0:0:0:0:
256,32,11996,1,0,0:0:0:0:
256,192,12747,5,0,0:0:0:0:
256,192,13497,1,0,0:0:0:0:
317,381,13871,1,0,0:0:0:0:
94,309,13965,1,0,0:0:0:0:
94,74,14058,1,0,0:0:0:0:
317,2,14152,1,0,0:0:0:0:
455,192,14246,1,0,0:0:0:0:
256,192,14622,5,0,0:0:0:0:
272,208,14997,1,0,0:0:0:0:
256,176,15184,1,0,0:0:0:0:
240,208,15372,1,0,0:0:0:0:
320,256,15559,1,0,0:0:0:0:
256,128,15746,5,0,0:0:0:0:
192,256,15934,1,0,0:0:0:0:
400,336,16122,1,0,0:0:0:0:
256,48,16309,1,0,0:0:0:0:
112,336,16497,5,0,0:0:0:0:
256,214,16684,1,0,0:0:0:0:
267,180,16871,1,0,0:0:0:0:
233,192,17059,1,0,0:0:0:0:
255,282,17246,1,0,0:0:0:0:
301,146,17433,5,0,0:0:0:0:
165,192,17621,1,0,0:0:0:0:
256,395,17809,1,0,0:0:0:0:
112,64,17997,1,0,0:0:0:0:
400,320,18184,5,0,0:0:0:0:
112,320,18372,1,0,0:0:0:0:
400,64,18559,1,0,0:0:0:0:
255,382,18747,1,0,0:0:0:0:
65,191,18841,5,0,0:0:0:0:
256,1,18934,1,0,0:0:0:0:
446,192,19028,1,0,0:0:0:0:
121,327,19122,1,0,0:0:0:0:
121,57,19216,5,0,0:0:0:0:
391,57,19309,1,0,0:0:0:0:
391,327,19403,1,0,0:0:0:0:
255,382,19497,1,0,0:0:0:0:
256,192,19684,5,0,0:0:0:0:
256,48,19872,1,0,0:0:0:0:
256,336,20059,1,0,0:0:0:0:
256,192,20247,1,0,0:0:0:0:
357,90,20435,5,0,0:0:0:0:
154,293,20622,1,0,0:0:0:0:
256,192,20809,1,0,0:0:0:0:
400,191,20997,1,0,0:0:0:0:
112,192,21184,5,0,0:0:0:0:
256,192,21372,1,0,0:0:0:0:
357,293,21560,1,0,0:0:0:0:
154,90,21747,1,0,0:0:0:0:
256,192,21934,5,0,0:0:0:0:
256,48,22122,1,0,0:0:0:0:
256,336,22309,1,0,0:0:0:0:
48,80,22497,5,0,0:0:0:0:
96,32,22684,1,0,0:0:0:0:
464,304,22872,5,0,0:0:0:0:
416,352,23059,1,0,0:0:0:0:
48,304,23247,5,0,0:0:0:0:
96,352,23434,1,0,0:0:0:0:
464,80,23622,5,0,0:0:0:0:
416,32,23809,1,0,0:0:0:0:
80,80,23997,1,0,0:0:0:0:
96,112,24091,1,0,0:0:0:0:
112,144,24184,2,0,P|208:144|304:64,1,179.999995231629
368,32,24560,5,0,0:0:0:0:
144,352,24747,5,0,0:0:0:0:
368,352,24935,5,0,0:0:0:0:
144,32,25122,5,0,0:0:0:0:
451,191,25310,5,0,0:0:0:0:
60,192,25497,5,0,0:0:0:0:
0,384,25685,5,0,0:0:0:0:
512,0,25872,5,0,0:0:0:0:
512,384,26060,5,0,0:0:0:0:
0,0,26247,5,0,0:0:0:0:
126,201,26435,1,0,0:0:0:0:
312,75,26528,1,0,0:0:0:0:
328,299,26622,1,0,0:0:0:0:
126,201,26716,5,0,0:0:0:0:
312,75,26810,1,0,0:0:0:0:
328,299,26903,1,0,0:0:0:0:
64,96,26997,2,0,B|192:48|464:320|464:320|160:320,1,719.999980926514
80,80,32997,6,0,L|304:80,1,179.999995231629
432,304,33372,6,0,L|208:304,1,179.999995231629
208,112,33747,1,0,0:0:0:0:
304,112,33935,1,0,0:0:0:0:
400,288,34122,1,0,0:0:0:0:
112,288,34310,5,0,0:0:0:0:
144,32,34497,2,0,P|160:160|208:208,1,179.999995231629
368,352,34872,2,0,P|352:224|304:176,1,179.999995231629
16,32,35247,1,0,0:0:0:0:
496,352,35435,5,0,0:0:0:0:
176,80,35622,1,0,0:0:0:0:
336,304,35810,1,0,0:0:0:0:
256,208,35997,1,0,0:0:0:0:
256,176,36185,1,0,0:0:0:0:
256,240,36372,1,0,0:0:0:0:
256,144,36560,1,0,0:0:0:0:
256,272,36747,1,0,0:0:0:0:
256,112,36935,1,0,0:0:0:0:
256,304,37122,1,0,0:0:0:0:
256,80,37310,1,0,0:0:0:0:
160,240,37497,5,0,0:0:0:0:
96,176,37591,1,0,0:0:0:0:
112,96,37685,1,0,0:0:0:0:
192,48,37779,1,0,0:0:0:0:
288,32,37872,5,0,0:0:0:0:
384,32,37966,1,0,0:0:0:0:
432,112,38060,1,0,0:0:0:0:
480,192,38154,1,0,0:0:0:0:
464,288,38247,5,0,0:0:0:0:
384,336,38341,1,0,0:0:0:0:
288,336,38435,1,0,0:0:0:0:
192,336,38529,1,0,0:0:0:0:
144,256,38622,5,0,0:0:0:0:
176,176,38716,1,0,0:0:0:0:
256,208,38810,1,0,0:0:0:0:
224,128,38904,1,0,0:0:0:0:
160,64,38997,5,0,0:0:0:0:
256,192,39747,5,0,0:0:0:0:
256,192,40497,1,0,0:0:0:0:
144,80,40873,1,0,0:0:0:0:
144,80,40966,1,0,0:0:0:0:
144,80,41060,1,0,0:0:0:0:
144,80,41154,6,0,L|192:192,1,89.9999976158143
336,80,41435,1,0,0:0:0:0:
176,304,41623,1,0,0:0:0:0:
336,304,41810,1,0,0:0:0:0:
176,80,41998,5,0,0:0:0:0:
96,32,42185,1,0,0:0:0:0:
416,352,42373,1,0,0:0:0:0:
416,32,42560,1,0,0:0:0:0:
96,352,42748,5,0,0:0:0:0:
482,192,42935,1,0,0:0:0:0:
29,192,43123,1,0,0:0:0:0:
256,192,43310,1,0,0:0:0:0:
256,192,43498,6,0,P|240:48|160:16,1,179.999995231629
256,192,43873,2,0,P|272:336|352:368,1,179.999995231629
256,192,44248,2,0,P|400:208|432:288,1,179.999995231629
256,192,44623,2,0,P|112:176|80:96,1,179.999995231629
256,192,44998,6,0,P|346:78|312:0,1,179.999995231629
256,192,45373,2,0,P|165:305|199:384,1,179.999995231629
256,192,45748,2,0,P|346:305|312:384,1,179.999995231629
256,192,46123,2,0,P|165:78|199:0,1,179.999995231629
128,144,46498,5,0,0:0:0:0:
160,176,46591,1,0,0:0:0:0:
192,208,46685,1,0,0:0:0:0:
240,224,46779,1,0,0:0:0:0:
288,224,46873,5,0,0:0:0:0:
336,208,46966,1,0,0:0:0:0:
368,176,47060,1,0,0:0:0:0:
416,160,47154,1,0,0:0:0:0:
448,176,47248,5,0,0:0:0:0:
480,208,47341,1,0,0:0:0:0:
496,256,47435,1,0,0:0:0:0:
480,304,47529,1,0,0:0:0:0:
448,336,47623,5,0,0:0:0:0:
400,336,47716,1,0,0:0:0:0:
352,320,47810,1,0,0:0:0:0:
320,288,47904,1,0,0:0:0:0:
304,240,47998,5,0,0:0:0:0:
245,210,48091,1,0,0:0:0:0:
245,174,48185,1,0,0:0:0:0:
276,192,48279,1,0,0:0:0:0:
112,352,48373,5,0,0:0:0:0:
96,32,48466,1,0,0:0:0:0:
416,48,48561,1,0,0:0:0:0:
41,210,48654,1,0,0:0:0:0:
256,16,48747,5,0,0:0:0:0:
471,195,48842,1,0,0:0:0:0:
272,368,48935,1,0,0:0:0:0:
240,16,49029,1,0,0:0:0:0:
432,192,49123,5,0,0:0:0:0:
79,191,49217,1,0,0:0:0:0:
256,192,49310,2,0,L|176:128,2,89.9999976158143
272,240,49592,5,0,0:0:0:0:
304,272,49685,1,0,0:0:0:0:
352,272,49779,1,0,0:0:0:0:
400,256,49873,1,0,0:0:0:0:
432,224,49967,5,0,0:0:0:0:
448,176,50060,1,0,0:0:0:0:
432,128,50154,1,0,0:0:0:0:
400,96,50248,1,0,0:0:0:0:
352,80,50342,5,0,0:0:0:0:
304,80,50435,1,0,0:0:0:0:
256,80,50529,1,0,0:0:0:0:
208,96,50623,1,0,0:0:0:0:
176,128,50717,5,0,0:0:0:0:
160,176,50810,1,0,0:0:0:0:
160,224,50904,1,0,0:0:0:0:
176,272,50998,1,0,0:0:0:0:
208,240,51092,5,0,0:0:0:0:
160,224,51185,1,0,0:0:0:0:
112,208,51279,1,0,0:0:0:0:
80,176,51373,1,0,0:0:0:0:
48,208,51467,5,0,0:0:0:0:
48,256,51560,1,0,0:0:0:0:
80,224,51654,1,0,0:0:0:0:
112,192,51748,1,0,0:0:0:0:
144,160,51842,5,0,0:0:0:0:
192,144,51935,1,0,0:0:0:0:
240,128,52029,1,0,0:0:0:0:
288,128,52123,1,0,0:0:0:0:
336,144,52217,5,0,0:0:0:0:
368,176,52310,1,0,0:0:0:0:
400,208,52404,1,0,0:0:0:0:
432,240,52498,1,0,0:0:0:0:
256,32,52685,5,0,0:0:0:0:
256,352,52873,5,0,0:0:0:0:
310,41,53060,5,0,0:0:0:0:
201,342,53248,5,0,0:0:0:0:
358,69,53435,5,0,0:0:0:0:
153,314,53623,5,0,0:0:0:0:
394,111,53810,5,0,0:0:0:0:
117,271,53998,5,0,0:0:0:0:
413,164,54185,5,0,0:0:0:0:
98,219,54373,5,0,0:0:0:0:
413,219,54560,5,0,0:0:0:0:
98,164,54748,5,0,0:0:0:0:
394,272,54935,5,0,0:0:0:0:
117,112,55123,5,0,0:0:0:0:
358,314,55310,5,0,0:0:0:0:
153,69,55498,5,0,0:0:0:0:
310,342,55685,5,0,0:0:0:0:
201,41,55873,5,0,0:0:0:0:
256,351,56060,5,0,0:0:0:0:
256,32,56248,5,0,0:0:0:0:
