osu file format v14

[General]
AudioFilename: audio.mp3
AudioLeadIn: 0
PreviewTime: 22721
Countdown: 0
SampleSet: Normal
StackLeniency: 0.7
Mode: 0
LetterboxInBreaks: 0
WidescreenStoryboard: 1

[Editor]
DistanceSpacing: 1
BeatDivisor: 4
GridSize: 32
TimelineZoom: 1.8

[Metadata]
Title:Honesty (Piano Cover)
TitleUnicode:Honesty (Piano Cover)
Artist:Lucas Horodynsky
ArtistUnicode:Lucas Horodynsky
Creator:-PH
Version:Honest Piano
Source:
Tags:
BeatmapID:1976255
BeatmapSetID:946453

[Difficulty]
HPDrainRate:6
CircleSize:4.6
OverallDifficulty:8
ApproachRate:9.3
SliderMultiplier:2.4
SliderTickRate:1

[Events]
//Background and Video events
0,0,"7.jpg",0,0
//Break Periods
//Storyboard Layer 0 (Background)
//Storyboard Layer 1 (Fail)
//Storyboard Layer 2 (Pass)
//Storyboard Layer 3 (Foreground)
//Storyboard Sound Samples

[TimingPoints]
0,285.714285714286,4,1,1,46,1,0
6571,-50,4,1,1,46,0,0
7142,-200,4,1,1,46,0,0
9142,-100,4,1,1,46,0,0
11428,-200,4,1,1,46,0,0
11857,-100,4,1,1,46,0,0
15266,-400,4,1,1,46,0,0
15857,-100,4,1,1,46,0,0
21301,-83.3333333333333,4,1,1,46,0,0
22011,-66.6666666666667,4,1,1,46,0,0
22721,-100,4,1,1,46,0,0
34082,-133.333333333333,4,1,1,46,0,0
36923,-100,4,1,1,46,0,0
39763,-79.9999999999999,4,1,1,46,0,0

[HitObjects]
40,125,0,5,0,0:0:0:0:
251,67,142,1,0,0:0:0:0:
359,286,285,1,0,0:0:0:0:
61,323,428,2,0,B|157:247|157:247|200:271|295:267|295:267|274:205|350:114|350:114|252:114|243:-50,1,600
75,33,1285,1,0,0:0:0:0:
43,149,1428,6,0,P|121:119|181:140,1,120
341,174,1714,2,0,P|263:204|203:183,1,120
246,14,2000,2,0,P|241:73|269:125,1,120
61,268,2285,2,0,B|137:239|137:239|203:295|296:251,1,240
442,178,2714,6,0,B|366:207|366:207|300:151|207:195,1,240
164,28,3142,6,0,B|100:70|100:70|155:70,1,120
43,264,3428,2,0,B|117:234|209:253|209:253|209:191|253:117|253:117|191:185|68:135,1,480
235,265,4142,5,0,0:0:0:0:
57,84,4285,1,0,0:0:0:0:
458,201,4428,1,0,0:0:0:0:
404,34,4571,5,0,0:0:0:0:
377,295,4714,1,0,0:0:0:0:
388,163,4857,1,0,0:0:0:0:
404,34,5000,2,0,B|332:13|332:13|351:74|261:140|261:140|374:126|353:74|353:74|260:98|136:35|136:35|171:89,1,600
356,221,5857,1,0,0:0:0:0:
110,301,6000,6,0,L|83:172,1,120,0|0,0:0|0:0,0:0:0:0:
227,278,6285,2,0,L|254:149,1,120
335,172,6571,2,0,P|275:79|174:123,1,240
39,293,6857,6,0,B|107:269|124:209|124:209|141:268|220:299,1,240
405,212,7142,1,0,0:0:0:0:
263,212,7285,2,0,P|335:259|406:212,1,180
157,299,7857,5,0,0:0:0:0:
343,176,8000,1,0,0:0:0:0:
94,192,8142,5,0,0:0:0:0:
300,330,8285,1,0,0:0:0:0:
264,111,8428,5,0,0:0:0:0:
198,349,8571,1,0,0:0:0:0:
426,261,8714,5,0,0:0:0:0:
89,297,8857,1,0,0:0:0:0:
187,171,9000,5,0,0:0:0:0:
30,78,9142,6,0,B|100:99|100:99|83:148|38:201|38:201|116:157,1,240
209,251,9571,2,0,B|139:230|139:230|156:181|201:128|201:128|123:172,1,240
253,186,10000,2,0,P|294:133|296:309,1,480
9,277,10714,5,0,0:0:0:0:
292,207,10857,1,0,0:0:0:0:
162,351,11000,1,0,0:0:0:0:
65,120,11143,6,0,P|164:92|219:103,1,120,0|0,0:0|0:0,0:0:0:0:
255,144,11428,2,0,P|156:172|101:161,1,120
140,170,11857,6,0,P|200:167|255:144,1,120
78,314,12142,1,0,0:0:0:0:
306,65,12285,2,0,P|246:68|191:91,1,120
238,333,12571,5,0,0:0:0:0:
121,28,12714,1,0,0:0:0:0:
105,345,12857,5,0,0:0:0:0:
241,33,13000,1,0,0:0:0:0:
269,270,13142,6,0,P|306:202|358:206,1,120
391,142,13428,1,0,0:0:0:0:
391,142,13571,2,0,P|415:234|366:265,1,120
222,194,13857,1,0,0:0:0:0:
57,101,14000,5,0,0:0:0:0:
57,101,14142,1,0,0:0:0:0:
102,61,14214,1,0,0:0:0:0:
160,76,14285,1,8,0:0:0:0:
380,179,14428,5,0,0:0:0:0:
380,179,14571,1,0,0:0:0:0:
380,179,14714,1,0,0:0:0:0:
335,219,14786,1,0,0:0:0:0:
277,204,14857,1,8,0:0:0:0:
311,66,15000,5,0,0:0:0:0:
311,66,15142,1,0,0:0:0:0:
311,66,15285,1,0,0:0:0:0:
356,26,15356,1,0,0:0:0:0:
414,41,15427,1,8,0:0:0:0:
330,335,15571,5,0,0:0:0:0:
89,331,15714,1,0,0:0:0:0:
32,191,15857,6,0,L|114:193,1,60,0|0,0:0|0:0,0:0:0:0:
139,155,16000,5,8,0:0:0:0:
177,110,16071,1,0,0:0:0:0:
235,99,16142,1,0,0:0:0:0:
288,125,16213,1,0,0:0:0:0:
314,177,16285,5,8,0:0:0:0:
302,235,16357,1,0,0:0:0:0:
258,274,16428,1,0,0:0:0:0:
199,277,16500,1,0,0:0:0:0:
147,308,16571,5,8,0:0:0:0:
108,352,16643,1,0,0:0:0:0:
50,363,16714,1,0,0:0:0:0:
0,337,16786,1,0,0:0:0:0:
43,227,16857,6,0,L|13:136,3,60,8|0|0|0,0:0|0:0|0:0|0:0,0:0:0:0:
155,207,17142,5,8,0:0:0:0:
225,210,17214,1,0,0:0:0:0:
285,171,17286,1,8,0:0:0:0:
310,105,17357,1,0,0:0:0:0:
319,176,17428,5,8,0:0:0:0:
341,243,17500,1,0,0:0:0:0:
401,280,17571,1,8,0:0:0:0:
471,272,17642,1,0,0:0:0:0:
401,329,17714,5,8,0:0:0:0:
315,349,17785,1,0,0:0:0:0:
236,304,17857,1,8,0:0:0:0:
209,224,17928,1,0,0:0:0:0:
243,143,18000,5,8,0:0:0:0:
323,106,18071,1,8,0:0:0:0:
407,132,18142,1,8,0:0:0:0:
452,208,18213,1,8,0:0:0:0:
392,196,18285,5,0,0:0:0:0:
333,186,18356,1,0,0:0:0:0:
289,147,18428,1,0,0:0:0:0:
272,90,18500,1,0,0:0:0:0:
268,30,18571,5,8,0:0:0:0:
250,86,18642,1,0,0:0:0:0:
206,125,18714,1,0,0:0:0:0:
148,135,18786,1,0,0:0:0:0:
205,152,18857,5,0,0:0:0:0:
264,162,18929,1,0,0:0:0:0:
308,201,19000,1,0,0:0:0:0:
325,257,19072,1,0,0:0:0:0:
272,229,19143,5,8,0:0:0:0:
245,177,19215,1,0,0:0:0:0:
254,118,19286,1,0,0:0:0:0:
296,76,19357,1,0,0:0:0:0:
313,133,19428,5,0,0:0:0:0:
278,181,19500,1,0,0:0:0:0:
222,200,19571,1,0,0:0:0:0:
165,184,19642,1,0,0:0:0:0:
108,168,19714,5,8,0:0:0:0:
52,187,19785,1,0,0:0:0:0:
17,235,19856,1,0,0:0:0:0:
77,231,19928,1,0,0:0:0:0:
125,197,20000,5,0,0:0:0:0:
147,142,20071,1,0,0:0:0:0:
135,84,20143,1,0,0:0:0:0:
93,43,20214,1,0,0:0:0:0:
150,60,20286,5,8,0:0:0:0:
207,76,20357,1,0,0:0:0:0:
266,73,20429,1,0,0:0:0:0:
321,49,20500,1,0,0:0:0:0:
373,19,20571,5,0,0:0:0:0:
343,70,20642,1,0,0:0:0:0:
338,129,20714,1,0,0:0:0:0:
359,185,20786,1,0,0:0:0:0:
376,243,20857,5,8,0:0:0:0:
347,294,20929,1,0,0:0:0:0:
293,317,21000,1,0,0:0:0:0:
236,302,21071,1,0,0:0:0:0:
219,244,21142,5,0,0:0:0:0:
180,288,21214,1,0,0:0:0:0:
123,304,21285,1,0,0:0:0:0:
66,286,21357,1,0,0:0:0:0:
29,240,21428,5,8,0:0:0:0:
24,182,21500,1,0,0:0:0:0:
51,129,21571,1,0,0:0:0:0:
103,101,21642,1,0,0:0:0:0:
162,110,21714,5,0,0:0:0:0:
221,117,21785,1,0,0:0:0:0:
279,103,21856,1,0,0:0:0:0:
328,69,21928,1,0,0:0:0:0:
300,123,22000,5,8,0:0:0:0:
269,173,22071,1,0,0:0:0:0:
265,233,22143,1,0,0:0:0:0:
288,287,22214,1,0,0:0:0:0:
294,228,22286,5,0,0:0:0:0:
278,170,22357,1,0,0:0:0:0:
234,130,22429,1,8,0:0:0:0:
176,119,22500,1,0,0:0:0:0:
121,140,22571,5,8,0:0:0:0:
85,187,22642,1,0,0:0:0:0:
79,246,22714,1,0,0:0:0:0:
105,299,22785,1,0,0:0:0:0:
119,240,22857,5,0,0:0:0:0:
115,180,22929,1,0,0:0:0:0:
83,131,23000,1,0,0:0:0:0:
30,103,23071,1,0,0:0:0:0:
90,104,23143,5,8,0:0:0:0:
149,100,23215,1,0,0:0:0:0:
206,79,23286,1,0,0:0:0:0:
254,44,23358,1,0,0:0:0:0:
216,90,23428,5,0,0:0:0:0:
181,138,23500,1,0,0:0:0:0:
174,197,23571,1,0,0:0:0:0:
199,251,23643,1,0,0:0:0:0:
247,286,23714,5,8,0:0:0:0:
306,291,23785,1,0,0:0:0:0:
360,266,23856,1,0,0:0:0:0:
393,217,23928,1,0,0:0:0:0:
342,184,24000,5,0,0:0:0:0:
282,178,24071,1,0,0:0:0:0:
226,198,24143,1,0,0:0:0:0:
183,238,24214,1,0,0:0:0:0:
159,294,24285,5,8,0:0:0:0:
199,251,24357,1,0,0:0:0:0:
219,195,24429,1,0,0:0:0:0:
213,135,24500,1,0,0:0:0:0:
173,89,24572,5,0,0:0:0:0:
226,61,24642,1,0,0:0:0:0:
285,53,24714,1,0,0:0:0:0:
343,64,24785,1,0,0:0:0:0:
284,74,24857,5,8,0:0:0:0:
224,70,24929,1,0,0:0:0:0:
167,52,25000,1,0,0:0:0:0:
115,21,25071,1,0,0:0:0:0:
173,7,25143,5,0,0:0:0:0:
223,38,25214,1,0,0:0:0:0:
249,92,25285,1,0,0:0:0:0:
241,150,25357,1,0,0:0:0:0:
203,196,25428,5,8,0:0:0:0:
146,212,25500,1,0,0:0:0:0:
89,196,25571,1,0,0:0:0:0:
51,151,25643,1,0,0:0:0:0:
92,107,25714,5,0,0:0:0:0:
149,91,25785,1,0,0:0:0:0:
205,109,25856,1,0,0:0:0:0:
241,156,25928,1,0,0:0:0:0:
266,210,25999,5,8,0:0:0:0:
302,257,26071,1,0,0:0:0:0:
358,275,26143,1,0,0:0:0:0:
415,259,26214,1,0,0:0:0:0:
461,221,26285,5,0,0:0:0:0:
418,178,26357,1,0,0:0:0:0:
401,121,26428,1,0,0:0:0:0:
409,62,26499,1,0,0:0:0:0:
367,19,26571,5,8,0:0:0:0:
311,0,26642,1,0,0:0:0:0:
252,0,26714,1,0,0:0:0:0:
198,25,26785,1,0,0:0:0:0:
247,59,26857,5,0,0:0:0:0:
266,115,26928,1,0,0:0:0:0:
266,174,27000,1,8,0:0:0:0:
241,228,27071,1,0,0:0:0:0:
224,170,27143,5,8,0:0:0:0:
216,111,27214,1,0,0:0:0:0:
245,60,27285,1,0,0:0:0:0:
300,39,27357,1,0,0:0:0:0:
282,80,27428,5,0,0:0:0:0:
241,98,27499,1,0,0:0:0:0:
196,100,27570,1,0,0:0:0:0:
155,83,27642,1,0,0:0:0:0:
123,51,27713,5,0,0:0:0:0:
141,91,27785,1,0,0:0:0:0:
142,136,27856,1,0,0:0:0:0:
127,179,27928,1,0,0:0:0:0:
110,221,27999,5,0,0:0:0:0:
96,264,28071,1,0,0:0:0:0:
98,308,28143,1,0,0:0:0:0:
115,350,28214,1,0,0:0:0:0:
139,311,28285,5,0,0:0:0:0:
155,269,28357,1,0,0:0:0:0:
149,225,28428,1,0,0:0:0:0:
122,190,28499,1,0,0:0:0:0:
91,156,28571,5,0,0:0:0:0:
64,121,28642,1,0,0:0:0:0:
57,77,28714,1,0,0:0:0:0:
74,35,28785,1,0,0:0:0:0:
118,26,28857,5,0,0:0:0:0:
162,35,28928,1,0,0:0:0:0:
207,32,29000,1,0,0:0:0:0:
249,17,29071,1,0,0:0:0:0:
211,42,29143,5,0,0:0:0:0:
184,76,29214,1,0,0:0:0:0:
175,120,29286,1,0,0:0:0:0:
188,163,29357,1,0,0:0:0:0:
213,125,29428,5,0,0:0:0:0:
217,81,29499,1,0,0:0:0:0:
197,41,29571,1,0,0:0:0:0:
159,19,29642,1,0,0:0:0:0:
211,42,29713,5,0,0:0:0:0:
268,60,29785,1,0,0:0:0:0:
328,57,29856,1,0,0:0:0:0:
381,31,29928,1,0,0:0:0:0:
335,70,29999,5,0,0:0:0:0:
292,110,30071,1,0,0:0:0:0:
284,168,30142,1,0,0:0:0:0:
313,219,30214,1,0,0:0:0:0:
368,241,30285,5,0,0:0:0:0:
424,224,30357,1,0,0:0:0:0:
458,176,30428,1,0,0:0:0:0:
454,117,30499,1,0,0:0:0:0:
415,70,30571,5,0,0:0:0:0:
359,52,30642,1,0,0:0:0:0:
307,82,30713,1,0,0:0:0:0:
287,133,30785,1,0,0:0:0:0:
280,193,30857,5,0,0:0:0:0:
260,248,30928,1,0,0:0:0:0:
207,274,31000,1,0,0:0:0:0:
152,256,31071,1,0,0:0:0:0:
203,226,31143,5,0,0:0:0:0:
263,228,31214,1,0,0:0:0:0:
314,258,31286,1,0,0:0:0:0:
343,310,31357,1,0,0:0:0:0:
343,249,31428,5,0,0:0:0:0:
372,197,31499,1,0,0:0:0:0:
423,167,31571,1,0,0:0:0:0:
483,165,31642,1,0,0:0:0:0:
427,188,31714,5,0,0:0:0:0:
368,191,31786,1,0,0:0:0:0:
315,164,31857,1,0,0:0:0:0:
282,114,31928,1,0,0:0:0:0:
264,40,32000,5,8,0:0:0:0:
96,171,32143,1,0,0:0:0:0:
274,214,32285,5,8,0:0:0:0:
38,91,32428,1,0,0:0:0:0:
383,86,32571,5,8,0:0:0:0:
151,265,32713,1,0,0:0:0:0:
263,16,32857,5,8,0:0:0:0:
461,218,33000,1,0,0:0:0:0:
146,69,33142,5,8,0:0:0:0:
446,23,33285,1,0,0:0:0:0:
406,326,33428,5,8,0:0:0:0:
146,69,33571,1,0,0:0:0:0:
154,363,33714,5,8,0:0:0:0:
407,177,33857,1,0,0:0:0:0:
41,91,33999,5,8,0:0:0:0:
357,21,34142,1,0,0:0:0:0:
394,368,34285,5,8,0:0:0:0:
11,254,34428,1,8,0:0:0:0:
456,202,34571,5,8,0:0:0:0:
32,363,34714,1,8,0:0:0:0:
408,77,34857,5,8,0:0:0:0:
3,26,35000,1,8,0:0:0:0:
478,287,35142,5,8,0:0:0:0:
26,278,35285,1,8,0:0:0:0:
174,261,35428,5,8,0:0:0:0:
105,289,35499,1,8,0:0:0:0:
35,261,35571,1,0,0:0:0:0:
7,191,35642,1,0,0:0:0:0:
35,122,35714,5,8,0:0:0:0:
105,93,35785,1,8,0:0:0:0:
174,122,35856,1,0,0:0:0:0:
202,191,35927,1,0,0:0:0:0:
240,286,35999,5,8,0:0:0:0:
333,323,36071,1,8,0:0:0:0:
428,286,36142,1,8,0:0:0:0:
466,191,36214,1,8,0:0:0:0:
428,98,36285,5,8,0:0:0:0:
333,59,36356,1,8,0:0:0:0:
240,98,36428,1,8,0:0:0:0:
202,191,36500,1,8,0:0:0:0:
173,260,36571,5,8,0:0:0:0:
92,96,36714,1,0,0:0:0:0:
304,119,36857,5,8,0:0:0:0:
74,205,37000,1,0,0:0:0:0:
319,283,37142,5,8,0:0:0:0:
202,53,37285,1,0,0:0:0:0:
153,315,37428,5,8,0:0:0:0:
397,208,37571,1,0,0:0:0:0:
51,132,37714,5,8,0:0:0:0:
382,73,37857,1,0,0:0:0:0:
17,211,38000,5,8,0:0:0:0:
466,112,38142,1,0,0:0:0:0:
63,58,38285,5,8,0:0:0:0:
405,176,38428,1,0,0:0:0:0:
104,365,38571,5,8,0:0:0:0:
251,3,38714,1,0,0:0:0:0:
293,373,38857,5,8,0:0:0:0:
114,6,39000,1,8,0:0:0:0:
402,360,39142,5,8,0:0:0:0:
24,9,39285,1,8,0:0:0:0:
491,363,39428,5,8,0:0:0:0:
3,84,39570,1,8,0:0:0:0:
491,254,39714,5,8,0:0:0:0:
0,197,39857,1,8,0:0:0:0:
196,229,39999,5,8,0:0:0:0:
174,157,40070,1,8,0:0:0:0:
245,135,40142,1,8,0:0:0:0:
267,207,40214,1,8,0:0:0:0:
161,235,40285,5,8,0:0:0:0:
167,122,40356,1,8,0:0:0:0:
279,128,40428,1,8,0:0:0:0:
273,241,40500,1,8,0:0:0:0:
110,227,40571,5,8,0:0:0:0:
176,71,40643,1,8,0:0:0:0:
330,136,40714,1,8,0:0:0:0:
264,292,40785,1,8,0:0:0:0:
44,189,40856,5,8,0:0:0:0:
215,6,40928,1,8,0:0:0:0:
396,174,40999,1,8,0:0:0:0:
225,357,41071,1,8,0:0:0:0:
256,192,41142,12,0,45142,0:0:0:0:
133,384,45428,5,0,0:0:0:0:
133,1,45500,1,0,0:0:0:0:
464,193,45571,1,0,0:0:0:0:
