osu file format v14

[General]
AudioFilename: audio.mp3
AudioLeadIn: 0
PreviewTime: 22721
Countdown: 0
SampleSet: Normal
StackLeniency: 0.2
Mode: 0
LetterboxInBreaks: 0
WidescreenStoryboard: 1

[Editor]
DistanceSpacing: 1
BeatDivisor: 4
GridSize: 32
TimelineZoom: 2.5

[Metadata]
Title:Honesty (Piano Cover)
TitleUnicode:Honesty (Piano Cover)
Artist:Lucas Horodynsky
ArtistUnicode:Lucas Horodynsky
Creator:-PH
Version:Hi-Speed Extreme
Source:
Tags:
BeatmapID:1977713
BeatmapSetID:946453

[Difficulty]
HPDrainRate:4
CircleSize:0
OverallDifficulty:6
ApproachRate:9.5
SliderMultiplier:3.59999990463257
SliderTickRate:1

[Events]
//Background and Video events
0,0,"7.jpg",0,0
//Break Periods
//Storyboard Layer 0 (Background)
//Storyboard Layer 1 (Fail)
//Storyboard Layer 2 (Pass)
//Storyboard Layer 3 (Foreground)
//Storyboard Sound Samples

[TimingPoints]
0,285.714285714286,4,1,1,46,1,0
14142,-66.6666666666667,4,1,1,46,0,0

[HitObjects]
96,32,0,6,0,L|131:244,1,179.999995231628,0|0,0:0|0:0,0:0:0:0:
401,66,285,1,0,0:0:0:0:
125,209,428,1,0,0:0:0:0:
401,66,571,2,0,L|392:278,1,179.999995231629,0|0,0:0|0:0,0:0:0:0:
195,52,857,5,0,0:0:0:0:
205,338,1000,1,0,0:0:0:0:
344,154,1142,1,0,0:0:0:0:
33,191,1285,1,0,0:0:0:0:
436,35,1428,6,0,L|457:267,1,179.999995231629,0|0,0:0|0:0,0:0:0:0:
213,17,1714,2,0,L|192:249,1,179.999995231629,0|0,0:0|0:0,0:0:0:0:
367,150,2000,2,0,L|382:352,1,179.999995231629,0|0,0:0|0:0,0:0:0:0:
19,251,2285,2,0,B|73:174|73:174|210:256,1,179.999995231629,0|0,0:0|0:0,0:0:0:0:
171,32,2571,5,0,0:0:0:0:
171,32,2714,2,0,B|225:109|225:109|298:64,1,179.999995231629,0|0,0:0|0:0,0:0:0:0:
370,322,3000,1,0,0:0:0:0:
370,322,3142,2,0,P|419:195|390:141,1,179.999995231629,0|0,0:0|0:0,0:0:0:0:
400,308,3428,6,0,P|400:171|353:131,1,179.999995231629,0|0,0:0|0:0,0:0:0:0:
32,235,3714,1,0,0:0:0:0:
215,73,3857,1,0,0:0:0:0:
301,303,4000,1,0,0:0:0:0:
47,117,4142,5,0,0:0:0:0:
413,211,4285,1,0,0:0:0:0:
10,105,4428,1,0,0:0:0:0:
459,225,4571,2,0,L|276:158,1,179.999995231629,0|0,0:0|0:0,0:0:0:0:
127,34,4857,5,0,0:0:0:0:
121,123,4928,1,0,0:0:0:0:
116,213,5000,1,0,0:0:0:0:
450,81,5142,2,0,L|278:169,1,179.999995231629,0|0,0:0|0:0,0:0:0:0:
210,251,5428,2,0,P|176:143|204:82,1,179.999995231629,0|0,0:0|0:0,0:0:0:0:
442,320,5714,5,0,0:0:0:0:
37,306,5857,1,0,0:0:0:0:
471,131,6000,2,0,L|270:103,1,179.999995231629,0|0,0:0|0:0,0:0:0:0:
478,208,6285,2,0,L|299:113,1,179.999995231629,0|0,0:0|0:0,0:0:0:0:
87,84,6571,6,0,B|38:191|38:191|107:172,1,179.999995231629,0|0,0:0|0:0,0:0:0:0:
174,295,6857,2,0,P|236:196|227:119,1,179.999995231629,0|0,0:0|0:0,0:0:0:0:
232,136,7142,1,0,0:0:0:0:
232,136,7285,2,0,P|286:205|290:294,1,179.999995231629,0|0,0:0|0:0,0:0:0:0:
290,294,7571,5,0,0:0:0:0:
290,294,7714,2,0,P|294:205|348:135,1,179.999995231629,0|0,0:0|0:0,0:0:0:0:
434,250,8000,5,0,0:0:0:0:
133,199,8142,1,0,0:0:0:0:
441,145,8285,5,0,0:0:0:0:
97,308,8428,1,0,0:0:0:0:
416,41,8571,5,0,0:0:0:0:
193,368,8714,1,0,0:0:0:0:
323,1,8857,5,0,0:0:0:0:
300,381,9000,1,0,0:0:0:0:
186,2,9142,5,0,0:0:0:0:
205,89,9213,1,0,0:0:0:0:
225,177,9284,1,0,0:0:0:0:
64,79,9428,1,0,0:0:0:0:
378,14,9571,5,0,0:0:0:0:
372,103,9642,1,0,0:0:0:0:
366,193,9713,1,0,0:0:0:0:
77,338,9857,1,0,0:0:0:0:
302,348,10000,5,0,0:0:0:0:
386,318,10071,1,0,0:0:0:0:
471,288,10142,1,0,0:0:0:0:
256,255,10285,5,0,0:0:0:0:
192,192,10428,1,0,0:0:0:0:
256,128,10571,1,0,0:0:0:0:
319,192,10714,1,0,0:0:0:0:
218,295,10857,5,0,0:0:0:0:
152,154,11000,1,0,0:0:0:0:
293,88,11143,1,0,0:0:0:0:
359,229,11286,1,0,0:0:0:0:
152,154,11428,6,0,L|101:-35,1,179.999995231629,0|0,0:0|0:0,0:0:0:0:
78,271,11714,1,0,0:0:0:0:
321,35,11857,2,0,L|274:256,1,179.999995231629,0|0,0:0|0:0,0:0:0:0:
456,259,12142,1,0,0:0:0:0:
44,183,12285,6,0,L|124:16,1,179.999995231629,0|0,0:0|0:0,0:0:0:0:
121,20,12571,1,0,0:0:0:0:
44,184,12714,1,0,0:0:0:0:
121,20,12857,1,0,0:0:0:0:
148,321,13000,5,0,0:0:0:0:
358,295,13142,2,0,B|327:208|327:208|371:108,1,179.999995231629,0|0,0:0|0:0,0:0:0:0:
184,137,13428,1,0,0:0:0:0:
364,129,13571,1,0,0:0:0:0:
184,137,13714,5,0,0:0:0:0:
364,129,13857,1,0,0:0:0:0:
31,294,14142,5,0,0:0:0:0:
158,250,14213,1,0,0:0:0:0:
285,288,14284,1,8,0:0:0:0:
31,308,14714,5,0,0:0:0:0:
158,225,14785,1,0,0:0:0:0:
285,298,14856,1,8,0:0:0:0:
31,329,15285,5,0,0:0:0:0:
158,190,15356,1,0,0:0:0:0:
285,312,15427,1,8,0:0:0:0:
31,354,15857,5,0,0:0:0:0:
158,149,15928,1,0,0:0:0:0:
465,63,16000,5,8,0:0:0:0:
330,53,16071,1,0,0:0:0:0:
195,44,16142,1,0,0:0:0:0:
60,34,16214,1,0,0:0:0:0:
50,168,16285,5,8,0:0:0:0:
185,158,16356,1,0,0:0:0:0:
319,149,16427,1,0,0:0:0:0:
454,139,16499,1,0,0:0:0:0:
454,245,16571,5,8,0:0:0:0:
319,235,16643,1,0,0:0:0:0:
185,226,16714,1,0,0:0:0:0:
50,216,16785,1,0,0:0:0:0:
60,349,16856,5,8,0:0:0:0:
195,339,16928,1,0,0:0:0:0:
330,330,16999,1,0,0:0:0:0:
465,321,17070,1,0,0:0:0:0:
91,246,17142,5,8,0:0:0:0:
51,117,17214,1,0,0:0:0:0:
180,78,17285,1,8,0:0:0:0:
220,207,17357,1,0,0:0:0:0:
56,209,17428,5,8,0:0:0:0:
65,25,17500,1,0,0:0:0:0:
249,35,17571,1,8,0:0:0:0:
240,219,17643,1,0,0:0:0:0:
478,62,17714,5,8,0:0:0:0:
44,107,17785,1,0,0:0:0:0:
412,346,17857,1,8,0:0:0:0:
466,153,17928,1,0,0:0:0:0:
65,274,18000,5,8,0:0:0:0:
313,25,18071,1,8,0:0:0:0:
129,361,18142,1,8,0:0:0:0:
168,16,18214,1,8,0:0:0:0:
206,273,18285,5,0,0:0:0:0:
174,142,18357,1,0,0:0:0:0:
305,110,18428,1,0,0:0:0:0:
337,241,18500,1,0,0:0:0:0:
181,252,18571,5,8,0:0:0:0:
195,117,18643,1,0,0:0:0:0:
330,131,18714,1,0,0:0:0:0:
316,266,18786,1,0,0:0:0:0:
165,223,18857,5,0,0:0:0:0:
224,101,18929,1,0,0:0:0:0:
346,160,19000,1,0,0:0:0:0:
287,282,19072,1,0,0:0:0:0:
160,190,19143,5,8,0:0:0:0:
257,96,19215,1,0,0:0:0:0:
351,193,19286,1,0,0:0:0:0:
254,287,19358,1,0,0:0:0:0:
166,157,19428,5,0,0:0:0:0:
290,102,19500,1,0,0:0:0:0:
345,226,19571,1,0,0:0:0:0:
221,281,19643,1,0,0:0:0:0:
183,129,19714,5,8,0:0:0:0:
318,119,19786,1,0,0:0:0:0:
328,254,19857,1,0,0:0:0:0:
193,264,19929,1,0,0:0:0:0:
209,108,20000,5,0,0:0:0:0:
339,145,20072,1,0,0:0:0:0:
302,275,20143,1,0,0:0:0:0:
172,238,20215,1,0,0:0:0:0:
241,97,20286,5,8,0:0:0:0:
350,177,20358,1,0,0:0:0:0:
270,286,20429,1,0,0:0:0:0:
161,206,20501,1,0,0:0:0:0:
274,98,20571,5,0,0:0:0:0:
349,210,20643,1,0,0:0:0:0:
237,285,20714,1,0,0:0:0:0:
162,173,20786,1,0,0:0:0:0:
305,110,20857,5,8,0:0:0:0:
337,241,20929,1,0,0:0:0:0:
206,273,21000,1,0,0:0:0:0:
174,142,21072,1,0,0:0:0:0:
330,131,21143,5,0,0:0:0:0:
316,266,21215,1,0,0:0:0:0:
181,252,21286,1,0,0:0:0:0:
195,117,21358,1,0,0:0:0:0:
346,160,21429,5,8,0:0:0:0:
287,282,21501,1,0,0:0:0:0:
165,223,21572,1,0,0:0:0:0:
224,101,21644,1,0,0:0:0:0:
351,193,21714,5,0,0:0:0:0:
254,287,21786,1,0,0:0:0:0:
160,190,21857,1,0,0:0:0:0:
257,96,21929,1,0,0:0:0:0:
345,226,22000,5,8,0:0:0:0:
221,281,22072,1,0,0:0:0:0:
166,157,22143,1,0,0:0:0:0:
290,102,22215,1,0,0:0:0:0:
328,254,22286,5,0,0:0:0:0:
193,264,22358,1,0,0:0:0:0:
183,129,22429,1,8,0:0:0:0:
318,119,22501,1,0,0:0:0:0:
302,275,22572,5,8,0:0:0:0:
172,238,22644,1,0,0:0:0:0:
209,108,22715,1,0,0:0:0:0:
339,145,22787,1,0,0:0:0:0:
291,301,22857,5,0,0:0:0:0:
163,259,22928,1,0,0:0:0:0:
163,124,23000,1,0,0:0:0:0:
291,82,23071,1,0,0:0:0:0:
370,192,23142,1,8,0:0:0:0:
251,306,23214,5,0,0:0:0:0:
145,223,23285,1,0,0:0:0:0:
191,96,23357,1,0,0:0:0:0:
326,101,23428,1,0,0:0:0:0:
363,231,23499,1,0,0:0:0:0:
212,298,23571,5,0,0:0:0:0:
141,183,23642,1,0,0:0:0:0:
228,80,23714,1,8,0:0:0:0:
353,131,23785,1,0,0:0:0:0:
343,265,23856,1,0,0:0:0:0:
179,277,23928,5,0,0:0:0:0:
151,145,23999,1,0,0:0:0:0:
268,77,24071,1,0,0:0:0:0:
368,168,24142,1,0,0:0:0:0:
313,291,24213,1,0,0:0:0:0:
154,245,24285,5,8,0:0:0:0:
173,112,24356,1,0,0:0:0:0:
306,88,24428,1,0,0:0:0:0:
369,207,24499,1,0,0:0:0:0:
275,305,24570,1,0,0:0:0:0:
142,207,24642,5,0,0:0:0:0:
205,88,24713,1,0,0:0:0:0:
338,112,24785,1,0,0:0:0:0:
357,245,24856,1,8,0:0:0:0:
236,305,24927,1,0,0:0:0:0:
143,168,25000,5,0,0:0:0:0:
243,77,25071,1,0,0:0:0:0:
224,246,25142,5,0,0:0:0:0:
217,120,25214,1,0,0:0:0:0:
318,192,25285,1,0,0:0:0:0:
184,252,25357,5,0,0:0:0:0:
239,99,25429,1,8,0:0:0:0:
343,223,25500,1,0,0:0:0:0:
124,239,25571,5,0,0:0:0:0:
280,53,25643,1,0,0:0:0:0:
363,282,25714,1,0,0:0:0:0:
45,191,25785,5,0,0:0:0:0:
361,9,25857,1,0,0:0:0:0:
361,374,25928,1,0,0:0:0:0:
222,0,26000,5,8,0:0:0:0:
456,279,26072,1,0,0:0:0:0:
97,342,26143,1,0,0:0:0:0:
289,0,26214,5,0,0:0:0:0:
414,342,26286,1,0,0:0:0:0:
55,278,26357,1,0,0:0:0:0:
353,23,26428,5,0,0:0:0:0:
353,387,26500,1,0,0:0:0:0:
37,204,26571,1,8,0:0:0:0:
405,66,26642,5,0,0:0:0:0:
280,408,26714,1,0,0:0:0:0:
46,129,26785,1,0,0:0:0:0:
439,125,26857,5,0,0:0:0:0:
205,404,26929,1,0,0:0:0:0:
80,61,27000,1,8,0:0:0:0:
450,191,27071,5,0,0:0:0:0:
135,373,27143,1,8,0:0:0:0:
135,9,27214,1,0,0:0:0:0:
405,317,27285,5,0,0:0:0:0:
46,253,27357,1,0,0:0:0:0:
224,160,27428,5,0,0:0:0:0:
288,160,27500,1,0,0:0:0:0:
288,224,27571,1,0,0:0:0:0:
224,224,27642,1,0,0:0:0:0:
224,160,27714,5,0,0:0:0:0:
288,160,27786,1,0,0:0:0:0:
288,224,27857,1,0,0:0:0:0:
224,224,27928,1,0,0:0:0:0:
224,160,28000,5,0,0:0:0:0:
288,160,28072,1,0,0:0:0:0:
288,224,28143,1,0,0:0:0:0:
224,224,28214,1,0,0:0:0:0:
224,160,28285,5,0,0:0:0:0:
288,160,28357,1,0,0:0:0:0:
288,224,28428,1,0,0:0:0:0:
224,224,28499,1,0,0:0:0:0:
224,160,28571,5,0,0:0:0:0:
288,160,28643,1,0,0:0:0:0:
288,224,28714,1,0,0:0:0:0:
224,224,28785,1,0,0:0:0:0:
224,160,28857,5,0,0:0:0:0:
288,160,28929,1,0,0:0:0:0:
288,224,29000,1,0,0:0:0:0:
224,224,29071,1,0,0:0:0:0:
224,160,29143,5,0,0:0:0:0:
288,160,29215,1,0,0:0:0:0:
288,224,29286,1,0,0:0:0:0:
224,224,29357,1,0,0:0:0:0:
224,160,29428,5,0,0:0:0:0:
288,160,29500,1,0,0:0:0:0:
288,224,29571,1,0,0:0:0:0:
224,224,29642,1,0,0:0:0:0:
175,111,29714,5,0,0:0:0:0:
336,111,29786,1,0,0:0:0:0:
336,272,29857,1,0,0:0:0:0:
175,272,29928,1,0,0:0:0:0:
175,111,30000,5,0,0:0:0:0:
336,111,30072,1,0,0:0:0:0:
336,272,30143,1,0,0:0:0:0:
175,272,30214,1,0,0:0:0:0:
175,111,30286,5,0,0:0:0:0:
336,111,30358,1,0,0:0:0:0:
336,272,30429,1,0,0:0:0:0:
175,272,30500,1,0,0:0:0:0:
175,111,30571,5,0,0:0:0:0:
336,111,30643,1,0,0:0:0:0:
336,272,30714,1,0,0:0:0:0:
175,272,30785,1,0,0:0:0:0:
175,111,30857,5,0,0:0:0:0:
336,111,30929,1,0,0:0:0:0:
336,272,31000,1,0,0:0:0:0:
175,272,31071,1,0,0:0:0:0:
175,111,31143,5,0,0:0:0:0:
336,111,31215,1,0,0:0:0:0:
336,272,31286,1,0,0:0:0:0:
175,272,31357,1,0,0:0:0:0:
175,111,31429,5,0,0:0:0:0:
336,111,31501,1,0,0:0:0:0:
336,272,31572,1,0,0:0:0:0:
175,272,31643,1,0,0:0:0:0:
175,111,31714,5,0,0:0:0:0:
336,111,31786,1,0,0:0:0:0:
336,272,31857,1,0,0:0:0:0:
175,272,31928,1,0,0:0:0:0:
76,180,32000,5,8,0:0:0:0:
244,170,32142,1,0,0:0:0:0:
121,268,32285,5,8,0:0:0:0:
186,99,32428,1,0,0:0:0:0:
236,262,32571,5,8,0:0:0:0:
87,132,32714,1,0,0:0:0:0:
323,125,32857,5,8,0:0:0:0:
70,199,33000,1,0,0:0:0:0:
319,220,33142,5,8,0:0:0:0:
75,100,33285,1,0,0:0:0:0:
400,119,33428,5,8,0:0:0:0:
39,253,33571,1,0,0:0:0:0:
441,246,33714,5,8,0:0:0:0:
21,193,33857,1,0,0:0:0:0:
437,147,34000,5,8,0:0:0:0:
8,141,34142,1,0,0:0:0:0:
412,343,34285,5,8,0:0:0:0:
308,17,34428,1,8,0:0:0:0:
150,372,34571,5,8,0:0:0:0:
113,14,34714,1,8,0:0:0:0:
387,344,34857,5,8,0:0:0:0:
38,68,35000,1,8,0:0:0:0:
478,69,35142,5,8,0:0:0:0:
43,359,35285,1,8,0:0:0:0:
320,66,35428,5,8,0:0:0:0:
382,169,35500,1,8,0:0:0:0:
299,314,35571,1,0,0:0:0:0:
237,211,35643,1,0,0:0:0:0:
322,33,35714,5,8,0:0:0:0:
400,163,35786,1,8,0:0:0:0:
296,346,35857,1,0,0:0:0:0:
218,216,35929,1,0,0:0:0:0:
380,316,36000,5,8,0:0:0:0:
255,368,36071,1,8,0:0:0:0:
131,316,36142,1,8,0:0:0:0:
79,191,36214,1,8,0:0:0:0:
131,67,36285,5,8,0:0:0:0:
256,15,36357,1,8,0:0:0:0:
380,67,36428,1,8,0:0:0:0:
432,192,36500,1,8,0:0:0:0:
311,162,36571,5,8,0:0:0:0:
223,275,36714,1,0,0:0:0:0:
130,172,36857,5,8,0:0:0:0:
308,245,37000,1,0,0:0:0:0:
105,267,37142,5,8,0:0:0:0:
361,203,37285,1,0,0:0:0:0:
71,211,37428,5,8,0:0:0:0:
345,133,37571,1,0,0:0:0:0:
149,304,37714,5,8,0:0:0:0:
169,93,37857,1,0,0:0:0:0:
330,280,38000,5,8,0:0:0:0:
70,201,38142,1,0,0:0:0:0:
424,188,38285,5,8,0:0:0:0:
192,311,38428,1,0,0:0:0:0:
238,130,38571,5,8,0:0:0:0:
311,351,38714,1,0,0:0:0:0:
239,88,38857,5,8,0:0:0:0:
178,373,39000,1,8,0:0:0:0:
240,50,39142,5,8,0:0:0:0:
318,381,39285,1,8,0:0:0:0:
239,11,39428,5,8,0:0:0:0:
116,376,39571,1,8,0:0:0:0:
300,10,39714,5,8,0:0:0:0:
396,373,39857,1,8,0:0:0:0:
305,273,40000,5,8,0:0:0:0:
337,142,40035,1,0,0:0:0:0:
206,110,40071,1,8,0:0:0:0:
174,241,40107,1,0,0:0:0:0:
324,271,40142,5,8,0:0:0:0:
335,123,40177,1,0,0:0:0:0:
187,112,40213,1,8,0:0:0:0:
176,260,40249,1,0,0:0:0:0:
345,264,40285,5,8,0:0:0:0:
328,102,40320,1,0,0:0:0:0:
166,119,40356,1,8,0:0:0:0:
183,281,40392,1,0,0:0:0:0:
366,253,40427,5,8,0:0:0:0:
317,81,40462,1,0,0:0:0:0:
145,130,40498,1,0,0:0:0:0:
194,302,40534,1,0,0:0:0:0:
382,235,40571,5,8,0:0:0:0:
299,65,40606,1,0,0:0:0:0:
129,148,40642,1,8,0:0:0:0:
212,318,40678,1,0,0:0:0:0:
401,214,40713,5,8,0:0:0:0:
278,46,40748,1,0,0:0:0:0:
110,169,40784,1,8,0:0:0:0:
233,337,40820,1,0,0:0:0:0:
416,189,40856,5,8,0:0:0:0:
253,31,40891,1,0,0:0:0:0:
95,194,40927,1,8,0:0:0:0:
258,352,40963,1,0,0:0:0:0:
429,158,40998,5,8,0:0:0:0:
222,18,41033,1,0,0:0:0:0:
82,225,41069,1,0,0:0:0:0:
289,365,41105,1,0,0:0:0:0:
255,192,41142,5,0,0:0:0:0:
0,0,41714,1,0,0:0:0:0:
512,384,42000,1,0,0:0:0:0:
0,384,42285,5,0,0:0:0:0:
512,0,42428,1,0,0:0:0:0:
0,0,42571,5,0,0:0:0:0:
512,384,42642,1,0,0:0:0:0:
0,384,42714,1,0,0:0:0:0:
512,0,42785,1,0,0:0:0:0:
30,93,45428,6,0,L|214:68,1,135.000001573563,0|0,0:0|0:0,0:0:0:0:
243,353,45571,1,0,0:0:0:0:
