osu file format v14

[General]
AudioFilename: audio.mp3
AudioLeadIn: 0
PreviewTime: 22721
Countdown: 0
SampleSet: None
StackLeniency: 0.3
Mode: 0
LetterboxInBreaks: 0
WidescreenStoryboard: 1

[Editor]
DistanceSpacing: 1
BeatDivisor: 4
GridSize: 4
TimelineZoom: 2.899999

[Metadata]
Title:Honesty (Piano Cover)
TitleUnicode:Honesty (Piano Cover)
Artist:Lucas Horodynsky
ArtistUnicode:Lucas Horodynsky
Creator:-PH
Version:Failure's Extra
Source:
Tags:
BeatmapID:1976281
BeatmapSetID:946453

[Difficulty]
HPDrainRate:3
CircleSize:6.9
OverallDifficulty:10
ApproachRate:10
SliderMultiplier:1.34999990463257
SliderTickRate:1

[Events]
//Background and Video events
0,0,"7.jpg",0,0
//Break Periods
//Storyboard Layer 0 (Background)
//Storyboard Layer 1 (Fail)
//Storyboard Layer 2 (Pass)
//Storyboard Layer 3 (Foreground)
//Storyboard Sound Samples

[TimingPoints]
0,285.714285714286,4,1,1,46,1,0

[HitObjects]
256,240,0,5,0,0:0:0:0:
310,191,142,1,0,0:0:0:0:
325,263,285,5,0,0:0:0:0:
241,168,428,1,0,0:0:0:0:
271,312,571,5,0,0:0:0:0:
241,168,714,1,0,0:0:0:0:
380,214,857,5,0,0:0:0:0:
241,168,1000,1,0,0:0:0:0:
325,263,1142,5,0,0:0:0:0:
380,214,1285,1,0,0:0:0:0:
384,141,1428,1,0,0:0:0:0:
334,86,1571,1,0,0:0:0:0:
325,263,1714,1,0,0:0:0:0:
342,68,1857,1,0,0:0:0:0:
318,281,2000,1,0,0:0:0:0:
323,71,2142,1,0,3:0:0:0:
337,278,2285,6,2,P|276:270|220:318,1,134.999990463257,0|0,0:0|0:0,0:0:0:0:
416,282,2714,2,2,P|392:225|322:200,1,134.999990463257,0|0,0:0|0:0,0:0:0:0:
181,208,3142,2,2,P|213:215|249:209,1,67.4999952316285,0|0,0:0|0:0,0:0:0:0:
315,121,3428,5,0,0:0:0:0:
283,177,3571,1,0,0:0:0:0:
241,89,3714,5,0,0:0:0:0:
326,200,3857,1,0,0:0:0:0:
268,47,4000,5,0,0:0:0:0:
247,210,4142,1,0,0:0:0:0:
316,59,4285,5,0,0:0:0:0:
181,208,4428,1,0,0:0:0:0:
315,121,4571,5,0,0:0:0:0:
247,210,4714,1,0,0:0:0:0:
157,142,4857,5,0,0:0:0:0:
226,53,5000,1,0,0:0:0:0:
404,189,5142,5,0,0:0:0:0:
336,278,5285,1,0,0:0:0:0:
247,210,5428,5,0,0:0:0:0:
315,121,5571,1,0,0:0:0:0:
137,226,5714,6,2,P|113:190|110:160,1,67.4999952316285,0|0,0:0|0:0,0:0:0:0:
280,259,6000,2,2,P|303:223|307:193,1,67.4999952316285,0|0,0:0|0:0,0:0:0:0:
109,166,6285,2,2,P|118:123|136:99,1,67.4999952316285,0|0,0:0|0:0,0:0:0:0:
218,282,6571,2,2,P|259:272|283:254,1,67.4999952316285,0|0,0:0|0:0,0:0:0:0:
174,107,6857,6,2,P|165:150|172:184,1,67.4999952316285,0|0,0:0|0:0,0:0:0:0:
218,282,7142,1,0,0:0:0:0:
304,146,7285,2,2,P|251:141|232:144,1,67.4999952316285,0|0,0:0|0:0,0:0:0:0:
102,204,7571,1,0,0:0:0:0:
361,193,7714,2,2,P|367:151|369:112,1,67.4999952316285,0|0,0:0|0:0,0:0:0:0:
218,282,8000,5,0,0:0:0:0:
237,142,8142,1,0,0:0:0:0:
296,286,8285,5,0,3:0:0:0:
237,142,8427,1,0,3:0:0:0:
211,343,8571,5,0,0:0:0:0:
237,142,8713,1,0,0:0:0:0:
326,359,8857,5,0,3:0:0:0:
237,142,8999,1,0,3:0:0:0:
116,377,9142,6,2,P|113:337|107:302,1,67.4999952316285,0|0,0:0|0:0,0:0:0:0:
76,252,9428,1,0,0:0:0:0:
284,286,9571,6,2,P|233:285|206:278,1,67.4999952316285,0|0,0:0|0:0,0:0:0:0:
151,248,9857,1,0,0:0:0:0:
162,70,10000,6,2,P|171:113|172:140,1,67.4999952316285,0|0,0:0|0:0,0:0:0:0:
151,248,10285,2,2,P|183:218|206:204,1,67.4999952316285,0|0,0:0|0:0,0:0:0:0:
302,190,10571,2,2,P|343:203|367:216,1,67.4999952316285,0|0,0:0|0:0,0:0:0:0:
114,170,10857,2,2,P|150:145|175:134,1,67.4999952316285,0|0,0:0|0:0,0:0:0:0:
300,111,11142,2,2,P|330:96|357:76,1,67.4999952316285,0|0,0:0|0:0,0:0:0:0:
127,20,11428,6,2,P|119:52|130:92,1,67.4999952316285,0|0,0:0|0:0,0:0:0:0:
171,135,11714,1,0,0:0:0:0:
300,111,11857,2,2,P|330:96|357:76,1,67.4999952316285,0|0,0:0|0:0,0:0:0:0:
404,33,12142,1,0,0:0:0:0:
242,144,12285,2,2,P|248:183|258:210,1,67.4999952316285,0|0,0:0|0:0,0:0:0:0:
386,252,12571,6,2,P|349:237|320:232,1,67.4999952316285,0|0,0:0|0:0,0:0:0:0:
220,322,12857,2,2,P|250:297|269:275,1,67.4999952316285,0|0,0:0|0:0,0:0:0:0:
308,165,13142,1,0,0:0:0:0:
268,275,13285,1,0,0:0:0:0:
321,232,13428,1,0,0:0:0:0:
149,319,13571,1,0,0:0:0:0:
307,340,13714,5,0,0:0:0:0:
305,325,13857,1,0,0:0:0:0:
149,319,14142,1,0,0:0:0:0:
146,335,14213,1,0,0:0:0:0:
144,352,14284,1,0,0:0:0:0:
310,357,14714,1,0,0:0:0:0:
307,340,14785,1,0,0:0:0:0:
305,323,14856,1,0,0:0:0:0:
149,319,15285,1,0,0:0:0:0:
146,335,15356,1,0,0:0:0:0:
144,352,15427,1,0,0:0:0:0:
310,357,15857,1,0,0:0:0:0:
307,340,15928,1,0,0:0:0:0:
305,323,16000,5,0,0:0:0:0:
300,289,16071,1,0,0:0:0:0:
302,256,16142,1,0,0:0:0:0:
311,223,16214,1,0,0:0:0:0:
328,194,16285,5,0,0:0:0:0:
301,214,16357,1,0,0:0:0:0:
271,229,16428,1,0,0:0:0:0:
238,237,16500,1,0,0:0:0:0:
204,238,16571,5,0,0:0:0:0:
234,251,16642,1,0,0:0:0:0:
262,269,16713,1,0,0:0:0:0:
286,294,16785,1,0,0:0:0:0:
304,323,16857,5,0,0:0:0:0:
336,331,16928,1,0,0:0:0:0:
370,332,16999,1,0,0:0:0:0:
403,326,17071,1,0,0:0:0:0:
434,313,17142,5,0,0:0:0:0:
439,280,17213,1,0,0:0:0:0:
395,254,17285,5,0,0:0:0:0:
389,220,17356,1,0,0:0:0:0:
428,187,17428,5,0,0:0:0:0:
433,153,17499,1,0,0:0:0:0:
388,127,17571,5,0,0:0:0:0:
382,93,17642,1,0,0:0:0:0:
349,161,17714,5,0,0:0:0:0:
344,194,17785,1,0,0:0:0:0:
389,220,17857,5,0,0:0:0:0:
395,254,17928,1,0,0:0:0:0:
356,287,18000,5,0,0:0:0:0:
305,292,18071,1,0,0:0:0:0:
256,281,18142,1,0,0:0:0:0:
214,254,18214,1,0,0:0:0:0:
183,215,18285,5,0,0:0:0:0:
154,197,18356,1,0,0:0:0:0:
121,196,18427,1,0,0:0:0:0:
91,211,18499,1,0,0:0:0:0:
73,239,18571,5,0,0:0:0:0:
81,207,18642,1,0,0:0:0:0:
84,173,18713,1,0,0:0:0:0:
82,139,18785,1,0,0:0:0:0:
74,107,18857,5,0,0:0:0:0:
105,115,18928,1,0,0:0:0:0:
131,94,18999,1,0,0:0:0:0:
129,62,19071,1,0,0:0:0:0:
102,44,19142,5,0,0:0:0:0:
69,40,19213,1,0,0:0:0:0:
37,52,19284,1,0,0:0:0:0:
15,77,19356,1,0,0:0:0:0:
8,110,19428,5,0,0:0:0:0:
11,143,19499,1,0,0:0:0:0:
15,177,19570,1,0,0:0:0:0:
19,210,19642,1,0,0:0:0:0:
22,244,19714,5,0,0:0:0:0:
51,227,19785,1,0,0:0:0:0:
84,224,19856,1,0,0:0:0:0:
115,238,19928,1,0,0:0:0:0:
136,264,20000,5,0,0:0:0:0:
147,233,20071,1,0,0:0:0:0:
172,212,20142,1,0,0:0:0:0:
205,207,20214,1,0,0:0:0:0:
236,220,20285,5,0,0:0:0:0:
266,233,20357,1,0,0:0:0:0:
299,228,20429,1,0,0:0:0:0:
325,207,20500,1,0,0:0:0:0:
336,175,20571,5,0,0:0:0:0:
342,141,20642,1,0,0:0:0:0:
338,108,20713,1,0,0:0:0:0:
324,77,20785,1,0,0:0:0:0:
302,52,20856,1,0,0:0:0:0:
273,35,20928,1,0,0:0:0:0:
240,28,21000,5,0,0:0:0:0:
265,49,21071,1,0,0:0:0:0:
296,63,21142,1,0,0:0:0:0:
329,66,21214,1,0,0:0:0:0:
362,59,21285,1,0,0:0:0:0:
391,43,21357,1,0,0:0:0:0:
414,18,21428,5,0,0:0:0:0:
410,51,21499,1,0,0:0:0:0:
410,85,21570,1,0,0:0:0:0:
411,119,21642,1,0,0:0:0:0:
415,152,21714,6,2,L|419:200,3,33.7499976158142,2|2|0|0,0:0|0:0|0:0|0:0,0:0:0:0:
381,239,22000,2,2,L|377:286,3,33.7499976158142,2|2|0|0,0:0|0:0|0:0|0:0,0:0:0:0:
326,150,22285,2,2,L|329:197,3,33.7499976158142,2|2|0|0,0:0|0:0|0:0|0:0,0:0:0:0:
291,236,22571,2,2,L|287:283,3,33.7499976158142,2|2|0|0,0:0|0:0|0:0|0:0,0:0:0:0:
249,189,22857,5,0,0:0:0:0:
222,168,22928,1,0,0:0:0:0:
191,156,22999,1,0,0:0:0:0:
157,154,23071,1,0,0:0:0:0:
125,163,23142,1,0,0:0:0:0:
97,181,23214,1,0,0:0:0:0:
76,208,23285,1,0,0:0:0:0:
64,239,23357,1,0,0:0:0:0:
62,272,23428,5,0,0:0:0:0:
70,305,23499,1,0,0:0:0:0:
89,333,23571,1,0,0:0:0:0:
115,354,23642,1,0,0:0:0:0:
146,367,23714,1,0,0:0:0:0:
180,368,23785,1,0,0:0:0:0:
212,360,23857,1,0,0:0:0:0:
240,342,23928,1,0,0:0:0:0:
262,316,24000,5,0,0:0:0:0:
242,288,24071,1,0,0:0:0:0:
217,266,24142,1,0,0:0:0:0:
187,251,24214,1,0,0:0:0:0:
154,244,24285,1,0,0:0:0:0:
120,244,24357,1,0,0:0:0:0:
88,253,24428,1,0,0:0:0:0:
58,269,24500,1,0,0:0:0:0:
34,292,24571,5,0,0:0:0:0:
45,260,24642,1,0,0:0:0:0:
52,227,24713,1,0,0:0:0:0:
54,194,24785,1,0,0:0:0:0:
48,160,24856,1,0,0:0:0:0:
40,127,24928,1,0,0:0:0:0:
38,94,24999,1,0,0:0:0:0:
45,61,25071,1,0,0:0:0:0:
57,29,25142,5,0,0:0:0:0:
88,17,25213,1,0,0:0:0:0:
121,12,25284,1,0,0:0:0:0:
155,13,25356,1,0,0:0:0:0:
188,21,25427,1,0,0:0:0:0:
218,35,25499,1,0,0:0:0:0:
245,55,25572,5,0,0:0:0:0:
213,42,25643,1,0,0:0:0:0:
180,37,25714,1,0,0:0:0:0:
146,38,25786,1,0,0:0:0:0:
113,46,25857,1,0,0:0:0:0:
83,60,25929,1,0,0:0:0:0:
56,81,26000,5,0,0:0:0:0:
89,84,26071,1,0,0:0:0:0:
121,94,26142,1,0,0:0:0:0:
150,111,26214,1,0,0:0:0:0:
176,133,26285,6,0,L|178:180,3,33.7499976158142,2|2|0|0,0:0|0:0|0:0|0:0,0:0:0:0:
244,177,26571,2,0,L|246:224,3,33.7499976158142,2|2|0|0,0:0|0:0|0:0|0:0,0:0:0:0:
309,133,26857,2,0,L|311:180,1,33.7499976158142,2|2,0:0|0:0,0:0:0:0:
377,177,27000,2,0,L|379:224,1,33.7499976158142,2|2,0:0|0:0,0:0:0:0:
440,128,27142,2,0,L|442:175,1,33.7499976158142,2|2,0:0|0:0,0:0:0:0:
508,172,27285,2,0,L|510:219,1,33.7499976158142,2|2,0:0|0:0,0:0:0:0:
297,340,27428,5,0,0:0:0:0:
272,317,27499,1,0,0:0:0:0:
269,284,27570,1,0,0:0:0:0:
289,257,27642,1,0,0:0:0:0:
321,250,27713,1,0,0:0:0:0:
350,266,27785,1,0,0:0:0:0:
361,297,27857,5,0,0:0:0:0:
328,292,27928,1,0,0:0:0:0:
295,286,27999,1,0,0:0:0:0:
261,281,28071,1,0,0:0:0:0:
228,276,28142,1,0,0:0:0:0:
194,271,28214,1,0,0:0:0:0:
161,266,28285,5,0,0:0:0:0:
139,240,28356,1,0,0:0:0:0:
124,210,28427,1,0,0:0:0:0:
117,177,28499,1,0,0:0:0:0:
119,144,28570,1,0,0:0:0:0:
129,111,28642,1,0,0:0:0:0:
146,83,28713,1,0,0:0:0:0:
170,59,28785,1,0,0:0:0:0:
200,43,28856,1,0,0:0:0:0:
232,34,28927,1,0,0:0:0:0:
266,34,28999,1,0,0:0:0:0:
299,42,29070,1,0,0:0:0:0:
328,58,29142,1,0,0:0:0:0:
353,81,29213,1,0,0:0:0:0:
371,109,29285,1,0,0:0:0:0:
381,141,29356,1,0,0:0:0:0:
383,175,29428,5,0,0:0:0:0:
350,180,29499,1,0,0:0:0:0:
319,169,29570,1,0,0:0:0:0:
295,145,29642,1,0,0:0:0:0:
285,113,29714,6,2,L|280:80,3,33.7499976158142,0|0|0|0,0:0|0:0|0:0|0:0,0:0:0:0:
206,109,30000,2,2,L|201:162,1,33.7499976158142,0|0,0:0|0:0,0:0:0:0:
286,227,30142,5,0,0:0:0:0:
318,234,30213,1,0,0:0:0:0:
350,227,30284,1,0,0:0:0:0:
376,205,30356,1,0,0:0:0:0:
388,174,30428,2,2,L|392:140,1,33.7499976158142,0|0,0:0|0:0,0:0:0:0:
170,194,30571,5,0,0:0:0:0:
165,227,30642,1,0,0:0:0:0:
169,260,30713,1,0,0:0:0:0:
183,291,30785,1,0,0:0:0:0:
204,316,30856,1,0,0:0:0:0:
232,335,30928,1,0,0:0:0:0:
265,345,30999,1,0,0:0:0:0:
298,346,31071,1,0,0:0:0:0:
331,337,31142,1,0,0:0:0:0:
359,319,31213,1,0,0:0:0:0:
382,294,31285,1,0,0:0:0:0:
397,264,31356,1,0,0:0:0:0:
402,231,31428,5,0,0:0:0:0:
354,247,31499,1,0,0:0:0:0:
304,246,31570,1,0,0:0:0:0:
257,229,31642,1,0,0:0:0:0:
217,198,31713,1,0,0:0:0:0:
190,155,31785,1,0,0:0:0:0:
178,106,31856,1,0,0:0:0:0:
183,56,31928,1,0,0:0:0:0:
208,8,32000,6,2,L|306:15,1,67.4999952316285,0|0,0:0|0:0,0:0:0:0:
413,103,32285,2,2,L|315:110,1,67.4999952316285,0|0,0:0|0:0,0:0:0:0:
275,12,32571,1,0,0:0:0:0:
345,107,32714,1,0,0:0:0:0:
275,12,32857,1,0,0:0:0:0:
345,107,33000,1,0,0:0:0:0:
95,102,33142,6,2,P|93:64|104:27,1,67.4999952316285,0|0,0:0|0:0,0:0:0:0:
209,224,33428,2,2,P|211:186|200:149,1,67.4999952316285,0|0,0:0|0:0,0:0:0:0:
100,35,33714,1,0,0:0:0:0:
203,157,33857,1,0,0:0:0:0:
100,35,34000,1,0,0:0:0:0:
203,157,34143,1,0,0:0:0:0:
45,185,34285,5,0,3:0:0:0:
203,157,34428,1,0,0:0:0:0:
324,223,34571,5,0,3:0:0:0:
166,195,34714,1,0,0:0:0:0:
48,259,34857,5,0,3:0:0:0:
206,231,35000,1,0,0:0:0:0:
327,297,35143,5,0,3:0:0:0:
169,269,35286,1,0,0:0:0:0:
45,185,35428,5,0,0:0:0:0:
37,152,35499,1,0,0:0:0:0:
43,119,35570,1,0,0:0:0:0:
62,91,35642,1,0,0:0:0:0:
91,73,35714,5,0,0:0:0:0:
124,70,35785,1,0,0:0:0:0:
158,67,35856,1,0,0:0:0:0:
191,64,35928,1,0,0:0:0:0:
225,61,36000,5,0,0:0:0:0:
244,88,36071,1,0,0:0:0:0:
250,122,36142,1,0,0:0:0:0:
240,154,36214,1,0,0:0:0:0:
217,178,36285,1,0,0:0:0:0:
186,190,36357,1,0,0:0:0:0:
153,188,36428,1,0,0:0:0:0:
124,170,36500,1,0,0:0:0:0:
106,142,36571,6,2,P|138:122|173:124,1,67.4999952316285,0|0,0:0|0:0,0:0:0:0:
339,185,36857,2,2,P|311:203|278:204,1,67.4999952316285,0|0,0:0|0:0,0:0:0:0:
166,122,37142,1,0,0:0:0:0:
277,203,37285,1,0,0:0:0:0:
262,107,37428,1,0,0:0:0:0:
181,218,37571,1,0,0:0:0:0:
334,94,37714,6,0,P|312:53|282:32,1,67.4999952316285
277,203,38000,2,0,P|298:243|328:264,1,67.4999952316285
334,94,38285,1,0,0:0:0:0:
277,203,38428,1,0,0:0:0:0:
400,198,38571,1,0,3:0:0:0:
334,94,38714,1,0,0:0:0:0:
277,203,38857,5,0,0:0:0:0:
258,56,39000,1,0,0:0:0:0:
400,198,39142,1,0,0:0:0:0:
410,55,39285,1,0,0:0:0:0:
265,218,39428,5,0,0:0:0:0:
242,41,39571,1,0,0:0:0:0:
412,212,39713,1,0,0:0:0:0:
424,40,39856,1,0,0:0:0:0:
339,244,40000,5,0,0:0:0:0:
305,279,40071,1,0,0:0:0:0:
256,290,40142,1,0,0:0:0:0:
212,270,40214,1,0,0:0:0:0:
187,227,40285,5,0,0:0:0:0:
187,178,40356,1,0,0:0:0:0:
214,137,40427,1,0,0:0:0:0:
259,117,40499,1,0,0:0:0:0:
308,125,40571,5,0,0:0:0:0:
338,164,40642,1,0,0:0:0:0:
381,189,40713,1,0,0:0:0:0:
431,193,40785,1,0,0:0:0:0:
477,175,40856,1,0,0:0:0:0:
510,141,40928,1,0,0:0:0:0:
510,94,40999,1,0,0:0:0:0:
510,45,41071,1,0,0:0:0:0:
510,0,41142,5,0,0:0:0:0:
0,384,41714,1,0,0:0:0:0:
512,0,42000,1,0,0:0:0:0:
0,384,42285,1,0,0:0:0:0:
512,0,42428,1,0,0:0:0:0:
256,192,42571,2,2,L|251:225,3,33.7499976158142,0|0|0|0,0:0|0:0|0:0|0:0,0:0:0:0:
256,192,45428,5,0,0:0:0:0:
256,84,45500,1,0,0:0:0:0:
256,300,45571,1,0,0:0:0:0:
