osu file format v14

[General]
AudioFilename: audio.mp3
AudioLeadIn: 0
PreviewTime: 22721
Countdown: 0
SampleSet: Normal
StackLeniency: 0.7
Mode: 0
LetterboxInBreaks: 0
WidescreenStoryboard: 1

[Editor]
DistanceSpacing: 1
BeatDivisor: 4
GridSize: 16
TimelineZoom: 1.8

[Metadata]
Title:Honesty (Piano Cover)
TitleUnicode:Honesty (Piano Cover)
Artist:Lucas Horodynsky
ArtistUnicode:Lucas Horodynsky
Creator:-PH
Version:Expert
Source:
Tags:
BeatmapID:1977663
BeatmapSetID:946453

[Difficulty]
HPDrainRate:6
CircleSize:4
OverallDifficulty:6
ApproachRate:8.7
SliderMultiplier:2.4
SliderTickRate:1

[Events]
//Background and Video events
0,0,"7.jpg",0,0
//Break Periods
//Storyboard Layer 0 (Background)
//Storyboard Layer 1 (Fail)
//Storyboard Layer 2 (Pass)
//Storyboard Layer 3 (Foreground)
//Storyboard Sound Samples

[TimingPoints]
0,285.714285714286,4,1,1,46,1,0
16071,-333.333333333333,4,1,1,46,0,0
17142,-133.333333333333,4,1,1,46,0,0
27428,-500,4,1,1,46,0,0
28571,-100,4,1,1,46,0,0
29714,-250,4,1,1,46,0,0
30857,-100,4,1,1,46,0,0
32571,-100,4,1,1,46,0,0
33142,-79.9999999999999,4,1,1,46,0,0
34285,-66.6666666666667,4,1,1,46,0,0
35428,-100,4,1,1,46,0,0
37142,-100,4,1,1,46,0,0
37714,-76.9230769230769,4,1,1,46,0,0
38857,-58.8235294117647,4,1,1,46,0,0
40000,-100,4,1,1,46,0,0

[HitObjects]
115,306,0,6,0,B|136:212|136:212|105:231,1,120,0|0,0:0|0:0,0:0:0:0:
68,146,285,2,0,P|137:120|216:161,1,120,0|0,0:0|0:0,0:0:0:0:
227,267,571,5,0,0:0:0:0:
280,257,714,1,0,0:0:0:0:
213,266,857,1,0,0:0:0:0:
293,259,1000,1,0,0:0:0:0:
261,208,1142,5,0,0:0:0:0:
252,299,1285,1,0,0:0:0:0:
168,56,1428,6,0,P|141:117|153:175,1,120,0|0,0:0|0:0,0:0:0:0:
228,237,1714,2,0,P|254:183|246:125,1,120,0|0,0:0|0:0,0:0:0:0:
341,170,2000,2,0,P|394:196|452:188,1,120,0|0,0:0|0:0,0:0:0:0:
282,221,2285,2,0,L|268:355,1,120,0|0,0:0|0:0,0:0:0:0:
165,315,2571,5,0,0:0:0:0:
90,242,2714,2,0,L|78:123,1,120,0|0,0:0|0:0,0:0:0:0:
169,66,3000,1,0,0:0:0:0:
284,113,3142,2,0,P|331:80|385:100,1,120,0|0,0:0|0:0,0:0:0:0:
345,214,3428,6,0,P|297:246|243:226,1,120,0|0,0:0|0:0,0:0:0:0:
75,249,3714,1,0,0:0:0:0:
75,168,3857,1,0,0:0:0:0:
143,209,4000,1,0,0:0:0:0:
140,125,4142,1,0,0:0:0:0:
208,166,4285,1,0,0:0:0:0:
208,85,4428,1,0,0:0:0:0:
301,131,4571,6,0,L|371:131,1,60,0|0,0:0|0:0,0:0:0:0:
417,72,4714,2,0,P|448:127|404:200,1,120,0|0,0:0|0:0,0:0:0:0:
297,29,5000,2,0,B|241:54|241:54|216:107,1,120,0|0,0:0|0:0,0:0:0:0:
311,234,5285,5,0,0:0:0:0:
339,184,5428,1,0,0:0:0:0:
368,250,5571,1,0,0:0:0:0:
284,198,5714,1,0,0:0:0:0:
401,208,5857,5,0,0:0:0:0:
315,51,6000,2,0,L|297:177,1,120,0|0,0:0|0:0,0:0:0:0:
143,119,6285,2,0,L|175:243,1,120,0|0,0:0|0:0,0:0:0:0:
408,213,6571,2,0,L|376:337,1,120,0|0,0:0|0:0,0:0:0:0:
111,292,6857,6,0,P|173:320|234:290,1,120,0|0,0:0|0:0,0:0:0:0:
171,235,7142,1,0,0:0:0:0:
122,163,7285,2,0,P|179:148|231:176,1,120,0|0,0:0|0:0,0:0:0:0:
184,105,7571,1,0,0:0:0:0:
247,49,7714,6,0,P|190:64|138:36,1,120,0|0,0:0|0:0,0:0:0:0:
79,142,8000,1,0,0:0:0:0:
112,197,8142,1,0,0:0:0:0:
87,256,8285,1,0,0:0:0:0:
150,242,8428,5,0,0:0:0:0:
215,258,8571,1,0,0:0:0:0:
134,231,8714,1,0,0:0:0:0:
231,270,8857,1,0,0:0:0:0:
122,219,9000,5,0,0:0:0:0:
340,268,9142,2,0,B|366:179|366:179|309:198,1,120,0|0,0:0|0:0,0:0:0:0:
324,105,9428,1,0,0:0:0:0:
244,127,9571,2,0,B|218:216|218:216|275:197,1,120,0|0,0:0|0:0,0:0:0:0:
161,227,9857,5,0,0:0:0:0:
104,165,10000,2,0,P|71:222|100:286,1,120,0|0,0:0|0:0,0:0:0:0:
230,325,10285,5,0,0:0:0:0:
209,303,10428,1,0,0:0:0:0:
230,282,10571,1,0,0:0:0:0:
250,303,10714,1,0,0:0:0:0:
223,323,10857,5,0,0:0:0:0:
209,296,11000,1,0,0:0:0:0:
237,283,11143,1,0,0:0:0:0:
249,310,11286,1,0,0:0:0:0:
377,300,11428,6,0,L|350:184,1,120,0|0,0:0|0:0,0:0:0:0:
266,21,11714,1,0,0:0:0:0:
106,104,11857,2,0,L|74:219,1,120,0|0,0:0|0:0,0:0:0:0:
251,182,12142,1,0,0:0:0:0:
75,143,12285,6,0,P|140:132|174:172,1,120,0|0,0:0|0:0,0:0:0:0:
266,323,12571,1,0,0:0:0:0:
229,286,12714,1,0,0:0:0:0:
266,249,12857,1,0,0:0:0:0:
303,286,13000,1,0,0:0:0:0:
370,124,13142,6,0,L|361:197,1,60,0|0,0:0|0:0,0:0:0:0:
269,87,13285,2,0,L|279:155,1,60,0|0,0:0|0:0,0:0:0:0:
98,160,13428,5,0,0:0:0:0:
207,185,13571,1,0,0:0:0:0:
116,282,13714,5,0,0:0:0:0:
180,69,13857,1,0,0:0:0:0:
312,282,14142,6,0,L|235:309,2,60,0|0|8,0:0|0:0|0:0,0:0:0:0:
354,152,14714,2,0,L|367:232,2,60,0|0|8,0:0|0:0|0:0,0:0:0:0:
234,88,15285,2,0,L|315:89,2,60,0|0|8,0:0|0:0|0:0,0:0:0:0:
150,195,15857,2,0,L|165:115,2,60,0|0|8,0:0|0:0|0:0,0:0:0:0:
167,198,16071,5,0,0:0:0:0:
184,199,16142,1,0,0:0:0:0:
202,201,16213,1,0,0:0:0:0:
220,202,16285,1,8,0:0:0:0:
238,204,16356,5,0,0:0:0:0:
256,205,16428,1,0,0:0:0:0:
274,207,16499,1,0,0:0:0:0:
292,208,16571,1,8,0:0:0:0:
310,210,16642,5,0,0:0:0:0:
328,212,16713,1,0,0:0:0:0:
346,213,16785,1,0,0:0:0:0:
364,215,16856,1,8,0:0:0:0:
382,216,16928,5,0,0:0:0:0:
400,218,16999,1,0,0:0:0:0:
418,219,17071,1,0,0:0:0:0:
462,222,17142,5,8,0:0:0:0:
453,265,17213,1,0,0:0:0:0:
417,289,17284,1,8,0:0:0:0:
374,280,17356,1,0,0:0:0:0:
334,258,17428,5,8,0:0:0:0:
291,249,17499,1,0,0:0:0:0:
254,273,17570,1,8,0:0:0:0:
246,316,17642,1,0,0:0:0:0:
276,282,17714,5,8,0:0:0:0:
284,239,17785,1,0,0:0:0:0:
260,202,17856,1,8,0:0:0:0:
217,194,17928,1,0,0:0:0:0:
172,195,18000,5,8,0:0:0:0:
129,187,18072,1,8,0:0:0:0:
105,150,18143,1,8,0:0:0:0:
114,107,18214,1,8,0:0:0:0:
155,90,18285,6,0,L|216:96,7,45.0000017166138,0|0|0|0|8|0|0|0,0:0|0:0|0:0|0:0|0:0|0:0|0:0|0:0,0:0:0:0:
243,81,18857,6,0,L|287:76,7,45.0000017166138,0|0|0|0|8|0|0|0,0:0|0:0|0:0|0:0|0:0|0:0|0:0|0:0,0:0:0:0:
323,104,19428,6,0,L|367:108,7,45.0000017166138,0|0|0|0|8|0|0|0,0:0|0:0|0:0|0:0|0:0|0:0|0:0|0:0,0:0:0:0:
409,88,20000,6,0,L|453:83,7,45.0000017166138,0|0|0|0|8|0|0|0,0:0|0:0|0:0|0:0|0:0|0:0|0:0|0:0,0:0:0:0:
466,127,20571,5,0,0:0:0:0:
479,169,20642,1,0,0:0:0:0:
467,212,20713,1,0,0:0:0:0:
433,241,20785,1,0,0:0:0:0:
389,248,20856,5,8,0:0:0:0:
349,230,20928,1,0,0:0:0:0:
325,192,20999,1,0,0:0:0:0:
325,148,21071,1,0,0:0:0:0:
332,104,21142,5,0,0:0:0:0:
331,59,21213,1,0,0:0:0:0:
307,22,21284,1,0,0:0:0:0:
267,4,21356,1,0,0:0:0:0:
223,10,21427,5,8,0:0:0:0:
190,40,21499,1,0,0:0:0:0:
178,82,21570,1,0,0:0:0:0:
191,125,21642,1,0,0:0:0:0:
222,158,21714,6,0,L|279:148,7,45.0000017166138,0|0|0|0|8|0|0|0,0:0|0:0|0:0|0:0|0:0|0:0|0:0|0:0,0:0:0:0:
294,186,22285,2,0,L|345:188,3,45.0000017166138,0|0|8|0,0:0|0:0|0:0|0:0,0:0:0:0:
369,154,22571,2,0,L|427:138,3,45.0000017166138,8|0|0|0,0:0|0:0|0:0|0:0,0:0:0:0:
433,102,22857,5,0,0:0:0:0:
394,79,22928,1,0,0:0:0:0:
350,69,22999,1,0,0:0:0:0:
305,72,23071,1,0,0:0:0:0:
262,83,23142,5,8,0:0:0:0:
217,86,23213,1,0,0:0:0:0:
173,75,23284,1,0,0:0:0:0:
134,53,23356,1,0,0:0:0:0:
153,94,23428,5,0,0:0:0:0:
156,139,23499,1,0,0:0:0:0:
146,182,23570,1,0,0:0:0:0:
123,221,23642,1,0,0:0:0:0:
90,252,23714,5,8,0:0:0:0:
87,207,23785,1,0,0:0:0:0:
97,164,23856,1,0,0:0:0:0:
120,125,23928,1,0,0:0:0:0:
164,104,24000,6,0,L|221:96,15,45.0000017166138,0|0|0|0|8|0|0|0|0|0|0|0|8|0|0|0,0:0|0:0|0:0|0:0|0:0|0:0|0:0|0:0|0:0|0:0|0:0|0:0|0:0|0:0|0:0|0:0,0:0:0:0:
396,155,25142,6,0,L|344:151,15,45.0000017166138,0|0|0|0|8|0|0|0|0|0|0|0|8|0|0|0,0:0|0:0|0:0|0:0|0:0|0:0|0:0|0:0|0:0|0:0|0:0|0:0|0:0|0:0|0:0|0:0,0:0:0:0:
308,167,26285,6,0,L|251:160,7,45.0000017166138,0|0|0|0|8|0|0|0,0:0|0:0|0:0|0:0|0:0|0:0|0:0|0:0,0:0:0:0:
222,180,26857,6,0,L|169:184,3,45.0000017166138,0|0|8|0,0:0|0:0|0:0|0:0,0:0:0:0:
133,175,27142,6,0,L|75:166,1,45.0000017166138,8|0,0:0|0:0,0:0:0:0:
50,192,27285,2,0,L|0:202,1,45.0000017166138,0|0,0:0|0:0,0:0:0:0:
14,209,27428,5,0,0:0:0:0:
23,216,27499,1,0,0:0:0:0:
32,223,27570,1,0,0:0:0:0:
42,230,27642,1,0,0:0:0:0:
53,236,27713,5,0,0:0:0:0:
63,241,27785,1,0,0:0:0:0:
74,246,27856,1,0,0:0:0:0:
86,250,27928,1,0,0:0:0:0:
97,254,27999,5,0,0:0:0:0:
109,256,28070,1,0,0:0:0:0:
121,259,28142,1,0,0:0:0:0:
133,260,28213,1,0,0:0:0:0:
145,261,28285,5,0,0:0:0:0:
157,261,28356,1,0,0:0:0:0:
169,260,28428,1,0,0:0:0:0:
181,258,28499,1,0,0:0:0:0:
237,198,28571,6,0,L|298:227,7,60,0|0|0|0|0|0|0|0,0:0|0:0|0:0|0:0|0:0|0:0|0:0|0:0,0:0:0:0:
380,187,29142,6,0,L|441:216,7,60,0|0|0|0|0|0|0|0,0:0|0:0|0:0|0:0|0:0|0:0|0:0|0:0,0:0:0:0:
366,110,29714,5,0,0:0:0:0:
330,111,29785,1,0,0:0:0:0:
314,93,29856,1,0,0:0:0:0:
294,79,29928,1,0,0:0:0:0:
272,69,29999,5,0,0:0:0:0:
249,63,30071,1,0,0:0:0:0:
225,61,30142,1,0,0:0:0:0:
202,63,30214,1,0,0:0:0:0:
179,70,30285,5,0,0:0:0:0:
157,80,30356,1,0,0:0:0:0:
138,94,30428,1,0,0:0:0:0:
121,112,30499,1,0,0:0:0:0:
108,132,30571,5,0,0:0:0:0:
99,154,30642,1,0,0:0:0:0:
94,178,30714,1,0,0:0:0:0:
93,202,30785,1,0,0:0:0:0:
204,218,30857,6,0,L|199:287,7,60,0|0|0|0|0|0|0|0,0:0|0:0|0:0|0:0|0:0|0:0|0:0|0:0,0:0:0:0:
382,208,31428,6,0,L|377:277,7,60,0|0|0|0|0|0|0|0,0:0|0:0|0:0|0:0|0:0|0:0|0:0|0:0,0:0:0:0:
343,217,32000,5,8,0:0:0:0:
323,138,32142,1,0,0:0:0:0:
277,228,32285,1,8,0:0:0:0:
257,141,32428,1,0,0:0:0:0:
107,39,32571,6,0,L|55:162,1,120,8|0,0:0|0:0,0:0:0:0:
143,174,32857,2,0,L|176:306,1,120,8|0,0:0|0:0,0:0:0:0:
318,259,33142,5,8,0:0:0:0:
287,150,33285,1,0,0:0:0:0:
375,220,33428,1,8,0:0:0:0:
263,208,33571,1,0,0:0:0:0:
159,85,33714,6,0,B|126:150|126:150|160:243,1,150,8|0,0:0|0:0,0:0:0:0:
208,362,34000,2,0,B|241:297|241:297|207:204,1,150,8|0,0:0|0:0,0:0:0:0:
362,181,34285,5,8,0:0:0:0:
252,141,34428,1,8,0:0:0:0:
325,232,34571,1,8,0:0:0:0:
301,117,34714,1,8,0:0:0:0:
116,97,34857,6,0,L|78:281,1,180.000006866455,8|8,0:0|0:0,0:0:0:0:
238,188,35142,2,0,L|201:11,1,180.000006866455,8|8,0:0|0:0,0:0:0:0:
314,54,35428,6,0,L|383:37,3,60,8|8|0|0,0:0|0:0|0:0|0:0,0:0:0:0:
428,62,35714,2,0,L|495:43,3,60,8|8|0|0,0:0|0:0|0:0|0:0,0:0:0:0:
430,26,36000,5,8,0:0:0:0:
372,39,36071,1,8,0:0:0:0:
329,80,36142,1,8,0:0:0:0:
312,137,36214,1,8,0:0:0:0:
327,194,36285,5,8,0:0:0:0:
369,236,36357,1,8,0:0:0:0:
426,251,36428,1,8,0:0:0:0:
483,235,36500,1,8,0:0:0:0:
407,203,36571,5,8,0:0:0:0:
335,264,36714,1,0,0:0:0:0:
245,239,36857,1,8,0:0:0:0:
167,291,37000,1,0,0:0:0:0:
169,189,37142,6,0,L|122:58,1,120,8|0,0:0|0:0,0:0:0:0:
249,84,37428,2,0,L|289:196,1,120,8|0,0:0|0:0,0:0:0:0:
418,128,37714,5,8,0:0:0:0:
412,244,37857,1,0,0:0:0:0:
351,144,38000,1,8,0:0:0:0:
455,194,38142,1,0,0:0:0:0:
316,223,38285,6,0,L|152:244,1,155.999992858887,8|0,0:0|0:0,0:0:0:0:
47,133,38571,2,0,L|211:154,1,155.999992858887,8|0,0:0|0:0,0:0:0:0:
362,93,38857,5,8,0:0:0:0:
232,78,39000,1,8,0:0:0:0:
340,149,39142,5,8,0:0:0:0:
271,37,39285,1,8,0:0:0:0:
284,167,39428,5,8,0:0:0:0:
323,42,39571,1,8,0:0:0:0:
234,138,39714,5,8,0:0:0:0:
354,88,39857,1,8,0:0:0:0:
180,83,40000,6,0,P|132:61|96:96,7,60,8|0|8|8|8|0|8|8,0:0|0:0|0:0|0:0|0:0|0:0|0:0|0:0,0:0:0:0:
176,176,40571,2,0,P|208:182|255:143,7,60,8|8|8|8|8|8|8|8,0:0|0:0|0:0|0:0|0:0|0:0|0:0|0:0,0:0:0:0:
256,192,41142,5,0,0:0:0:0:
144,288,41714,1,0,0:0:0:0:
400,96,42000,1,0,0:0:0:0:
208,224,42285,5,0,0:0:0:0:
304,160,42428,1,0,0:0:0:0:
240,192,42571,5,0,0:0:0:0:
272,192,42642,1,0,0:0:0:0:
240,192,42714,1,0,0:0:0:0:
272,192,42785,1,0,0:0:0:0:
226,243,45428,5,0,0:0:0:0:
226,141,45500,1,0,0:0:0:0:
314,192,45571,1,0,0:0:0:0:
