osu file format v14

[General]
AudioFilename: audio.mp3
AudioLeadIn: 0
PreviewTime: 4595
Countdown: 0
SampleSet: Normal
StackLeniency: 0.2
Mode: 0
LetterboxInBreaks: 0
WidescreenStoryboard: 1

[Editor]
Bookmarks: 45935
DistanceSpacing: 1
BeatDivisor: 4
GridSize: 4
TimelineZoom: 2.7

[Metadata]
Title:Cry
TitleUnicode:Cry
Artist:Lucas Horodynsky
ArtistUnicode:Lucas Horodynsky
Creator:-PH
Version:Extra
Source:SOUND VOLTEX III GRAVITY WARS
Tags:
BeatmapID:1970067
BeatmapSetID:933895

[Difficulty]
HPDrainRate:5
CircleSize:4
OverallDifficulty:6
ApproachRate:8.8
SliderMultiplier:1.7
SliderTickRate:1

[Events]
//Background and Video events
0,0,"1548207888271s.jpg",0,0
//Break Periods
//Storyboard Layer 0 (Background)
//Storyboard Layer 1 (Fail)
//Storyboard Layer 2 (Pass)
//Storyboard Layer 3 (Foreground)
//Storyboard Sound Samples

[TimingPoints]
2,287.081339712919,4,2,1,68,1,0
73,-100,4,1,1,68,0,0
13494,-142.857142857143,4,1,1,68,0,0
13781,-100,4,1,1,68,0,0
18088,-142.857142857143,4,1,1,68,0,0
27561,-100,4,1,1,68,0,0
33303,-100,4,1,1,68,0,0
45935,-83.3333333333333,4,1,1,68,0,1
50528,-71.4285714285714,4,1,1,68,0,1
52824,-181.818181818181,4,1,1,68,0,1
58566,-181.818181818181,4,1,1,68,0,1
59714,-181.818181818181,4,1,1,68,0,1
67753,-133.333333333333,4,1,1,68,0,1
68901,-83.3333333333333,4,1,1,68,0,0

[HitObjects]
237,48,2,6,0,P|326:31|402:59,1,170,2|0,0:0|0:0,0:0:0:0:
396,141,576,1,2,0:0:0:0:
396,141,863,1,2,0:0:0:0:
396,141,1150,1,2,0:0:0:0:
396,141,1437,5,2,0:0:0:0:
396,141,1724,1,2,0:0:0:0:
396,141,2011,1,2,0:0:0:0:
396,141,2298,1,2,0:0:0:0:
396,141,2585,5,2,0:0:0:0:
396,141,2872,1,2,0:0:0:0:
396,141,3159,1,2,0:0:0:0:
396,141,3446,1,2,0:0:0:0:
396,141,3734,5,2,0:0:0:0:
396,141,4021,1,2,0:0:0:0:
396,141,4308,1,2,0:0:0:0:
293,52,4595,6,0,B|208:83|208:83|124:48,1,170,2|2,0:0|0:0,0:0:0:0:
63,157,5169,2,0,B|94:242|94:242|59:326,1,170,2|2,0:0|0:0,0:0:0:0:
226,364,5743,5,2,0:0:0:0:
386,308,6030,1,2,0:0:0:0:
436,145,6317,1,2,0:0:0:0:
327,14,6604,1,2,0:0:0:0:
73,66,6891,6,0,P|140:90|241:50,1,170,2|2,0:0|0:0,0:0:0:0:
305,71,7466,2,0,P|238:95|137:55,1,170,2|2,0:0|0:0,0:0:0:0:
108,194,8040,2,0,L|137:372,1,170,2|2,0:0|0:0,0:0:0:0:
263,272,8614,2,0,L|290:104,1,170,2|2,0:0|0:0,0:0:0:0:
131,68,9188,5,2,0:0:0:0:
287,83,9475,1,8,0:0:0:0:
230,188,9762,1,2,0:0:0:0:
386,203,10049,1,8,0:0:0:0:
312,351,10336,6,0,B|277:265|277:265|317:174,1,170,2|8,0:0|0:0,0:0:0:0:
308,104,10911,2,0,B|343:190|343:190|303:281,1,170,2|8,0:0|0:0,0:0:0:0:
20,192,11485,2,0,L|194:147,1,170,2|8,0:0|0:0,0:0:0:0:
189,254,12059,2,0,L|353:296,1,170,2|8,0:0|0:0,0:0:0:0:
428,139,12633,5,2,0:0:0:0:
440,276,12920,1,8,0:0:0:0:
315,217,13207,1,2,0:0:0:0:
192,293,13494,5,8,0:0:0:0:
164,303,13565,1,8,0:0:0:0:
134,307,13637,1,8,0:0:0:0:
105,306,13709,1,8,0:0:0:0:
72,303,13781,6,0,P|59:199|79:118,1,170,2|8,0:0|0:0,0:0:0:0:
222,18,14356,2,0,P|235:122|215:203,1,170,2|8,0:0|0:0,0:0:0:0:
221,351,14930,2,0,P|208:247|228:166,1,170,2|8,0:0|0:0,0:0:0:0:
371,66,15504,2,0,P|384:170|364:251,1,170,2|8,0:0|0:0,0:0:0:0:
370,232,16078,5,2,0:0:0:0:
371,66,16365,1,8,0:0:0:0:
370,232,16652,1,2,0:0:0:0:
371,66,16939,1,8,0:0:0:0:
287,149,17226,5,2,0:0:0:0:
454,149,17513,1,8,0:0:0:0:
287,149,17800,1,2,0:0:0:0:
372,65,18088,5,8,0:0:0:0:
362,93,18159,1,8,0:0:0:0:
356,122,18231,1,8,0:0:0:0:
356,151,18303,1,8,0:0:0:0:
360,181,18375,5,0,0:0:0:0:
174,146,18949,5,0,0:0:0:0:
100,308,19523,2,0,B|163:279|163:279|196:300|230:291|230:291|240:218|240:218|278:206|300:218|300:218|336:195|347:164|347:164|376:183,1,356.999989105225,0|0,0:0|0:0,0:0:0:0:
353,66,20671,5,0,0:0:0:0:
384,66,20743,1,0,0:0:0:0:
353,66,20815,1,0,0:0:0:0:
384,66,20887,1,0,0:0:0:0:
353,66,20958,1,0,0:0:0:0:
159,73,21246,5,0,0:0:0:0:
217,317,21533,1,0,0:0:0:0:
258,179,21820,2,0,B|382:127|382:127|301:56,1,237.999992736817,0|0,0:0|0:0,0:0:0:0:
142,35,22968,6,0,L|133:83,4,29.7499990921021,0|0|0|0|8,0:0|0:0|0:0|0:0|0:0,0:0:0:0:
95,83,23542,2,0,L|103:131,4,29.7499990921021,0|0|0|0|8,0:0|0:0|0:0|0:0|0:0,0:0:0:0:
67,145,24116,2,0,L|91:187,4,29.7499990921021,0|0|0|0|8,0:0|0:0|0:0|0:0|0:0,0:0:0:0:
63,212,24690,2,0,L|100:244,4,29.7499990921021,0|0|0|0|8,0:0|0:0|0:0|0:0|0:0,0:0:0:0:
213,129,25265,6,0,L|222:177,4,29.7499990921021,0|0|0|0|8,0:0|0:0|0:0|0:0|0:0,0:0:0:0:
259,177,25839,2,0,L|251:225,4,29.7499990921021,0|0|0|0|8,0:0|0:0|0:0|0:0|0:0,0:0:0:0:
287,239,26413,2,0,L|263:281,4,29.7499990921021,0|0|0|0|8,0:0|0:0|0:0|0:0|0:0,0:0:0:0:
291,306,26987,2,0,L|253:337,7,29.7499990921021,8|8|8|8|8|8|8|8,0:0|0:0|0:0|0:0|0:0|0:0|0:0|0:0,0:0:0:0:
226,335,27561,5,8,0:0:0:0:
177,267,27704,1,8,0:0:0:0:
185,184,27848,1,0,0:0:0:0:
244,126,27991,1,8,0:0:0:0:
328,122,28135,6,0,L|306:231,1,85,0|8,0:0|0:0,0:0:0:0:
396,214,28423,2,0,L|418:322,1,85,0|8,0:0|0:0,0:0:0:0:
332,267,28710,5,0,0:0:0:0:
288,201,28853,1,8,0:0:0:0:
214,228,28997,1,0,0:0:0:0:
222,306,29140,1,8,0:0:0:0:
139,287,29284,6,0,L|116:193,1,85,0|8,0:0|0:0,0:0:0:0:
189,156,29571,2,0,L|141:70,1,85,0|8,0:0|0:0,0:0:0:0:
221,39,29858,5,0,0:0:0:0:
303,26,30001,1,8,0:0:0:0:
377,65,30145,1,0,0:0:0:0:
412,141,30288,1,8,0:0:0:0:
394,222,30432,6,0,L|273:203,1,85,0|8,0:0|0:0,0:0:0:0:
252,271,30719,2,0,L|168:284,1,85,0|8,0:0|0:0,0:0:0:0:
84,301,31006,5,0,0:0:0:0:
104,218,31149,1,8,0:0:0:0:
152,149,31293,1,0,0:0:0:0:
220,99,31436,1,8,0:0:0:0:
302,77,31580,6,0,L|273:196,1,85,0|8,0:0|0:0,0:0:0:0:
365,179,31868,2,0,L|394:297,1,85,0|8,0:0|0:0,0:0:0:0:
401,345,32155,5,0,0:0:0:0:
333,294,32298,1,8,0:0:0:0:
251,272,32442,1,0,0:0:0:0:
168,282,32585,1,8,0:0:0:0:
94,323,32729,6,0,L|53:229,1,85,0|8,0:0|0:0,0:0:0:0:
137,209,33016,2,0,L|178:114,1,85,0|8,0:0|0:0,0:0:0:0:
236,76,33303,5,0,0:0:0:0:
317,58,33446,1,8,0:0:0:0:
389,98,33590,1,0,0:0:0:0:
415,177,33733,1,8,0:0:0:0:
382,253,33877,6,0,P|311:278|277:267,1,85,0|8,0:0|0:0,0:0:0:0:
253,208,34164,2,0,P|301:177|358:194,1,85,0|8,0:0|0:0,0:0:0:0:
378,201,34451,5,0,0:0:0:0:
457,191,34594,1,8,0:0:0:0:
483,114,34738,1,0,0:0:0:0:
424,59,34881,1,8,0:0:0:0:
349,88,35025,5,0,0:0:0:0:
269,97,35169,1,8,0:0:0:0:
243,174,35313,1,0,0:0:0:0:
302,229,35456,1,8,0:0:0:0:
377,200,35600,5,0,0:0:0:0:
457,208,35744,1,8,0:0:0:0:
483,285,35888,1,0,0:0:0:0:
424,340,36031,1,8,0:0:0:0:
349,311,36174,6,0,L|256:328,1,85,0|8,0:0|0:0,0:0:0:0:
226,212,36461,2,0,L|319:229,1,85,0|8,0:0|0:0,0:0:0:0:
394,217,36748,5,0,0:0:0:0:
454,161,36891,1,8,0:0:0:0:
448,79,37035,1,0,0:0:0:0:
380,34,37178,1,8,0:0:0:0:
302,60,37322,5,0,0:0:0:0:
247,0,37466,1,8,0:0:0:0:
165,5,37610,1,0,0:0:0:0:
120,74,37753,1,8,0:0:0:0:
146,152,37896,6,0,P|187:142|262:128,1,85,0|8,0:0|0:0,0:0:0:0:
338,271,38183,2,0,P|297:261|221:247,1,85,0|8,0:0|0:0,0:0:0:0:
142,149,38470,2,0,P|185:139|263:125,1,85,0|8,0:0|0:0,0:0:0:0:
341,273,38757,2,0,P|298:262|220:248,1,85,0|8,0:0|0:0,0:0:0:0:
185,300,39045,5,0,0:0:0:0:
105,273,39188,1,8,0:0:0:0:
52,208,39332,1,0,0:0:0:0:
43,124,39475,1,8,0:0:0:0:
79,49,39619,5,0,0:0:0:0:
151,5,39762,1,8,0:0:0:0:
235,6,39906,1,0,0:0:0:0:
305,52,40049,1,8,0:0:0:0:
339,129,40193,6,0,L|436:160,1,85,0|8,0:0|0:0,0:0:0:0:
307,231,40480,2,0,L|210:261,1,85,0|8,0:0|0:0,0:0:0:0:
342,119,40767,2,0,L|458:156,1,85,0|8,0:0|0:0,0:0:0:0:
303,240,41054,2,0,L|188:277,1,85,0|8,0:0|0:0,0:0:0:0:
164,329,41341,5,0,0:0:0:0:
114,261,41484,1,8,0:0:0:0:
110,178,41628,1,0,0:0:0:0:
155,107,41771,1,8,0:0:0:0:
232,74,41915,6,0,P|289:62|332:75,1,85,0|8,0:0|0:0,0:0:0:0:
366,135,42202,2,0,P|309:147|266:134,1,85,0|8,0:0|0:0,0:0:0:0:
200,120,42490,5,0,0:0:0:0:
120,101,42633,1,8,0:0:0:0:
59,156,42777,1,0,0:0:0:0:
69,237,42920,1,8,0:0:0:0:
142,275,43064,6,0,L|239:261,1,85,0|8,0:0|0:0,0:0:0:0:
285,323,43351,2,0,L|389:346,1,85,0|8,0:0|0:0,0:0:0:0:
349,258,43638,5,0,0:0:0:0:
293,197,43781,1,8,0:0:0:0:
297,114,43925,1,0,0:0:0:0:
359,59,44068,1,8,0:0:0:0:
441,64,44212,6,0,L|466:162,1,85,0|8,0:0|0:0,0:0:0:0:
377,155,44499,2,0,L|352:253,1,85,0|8,0:0|0:0,0:0:0:0:
271,225,44786,2,0,L|161:197,1,85,0|8,0:0|0:0,0:0:0:0:
151,280,45073,2,0,L|46:297,1,85,0|8,0:0|0:0,0:0:0:0:
292,215,45360,6,0,L|180:186,1,85,0|8,0:0|0:0,0:0:0:0:
129,289,45647,2,0,L|16:308,1,85,0|8,0:0|0:0,0:0:0:0:
47,202,45935,5,8,0:0:0:0:
134,107,46078,1,0,0:0:0:0:
149,217,46222,5,8,0:0:0:0:
36,93,46365,1,0,0:0:0:0:
47,202,46509,6,0,P|67:268|118:313,1,101.999996887207,8|0,0:0|0:0,0:0:0:0:
267,199,46796,2,0,P|247:133|196:88,1,101.999996887207,8|0,0:0|0:0,0:0:0:0:
369,65,47083,5,8,0:0:0:0:
226,108,47226,1,0,0:0:0:0:
385,156,47370,5,8,0:0:0:0:
241,16,47513,1,0,0:0:0:0:
274,222,47657,5,8,0:0:0:0:
94,197,47801,1,0,0:0:0:0:
161,98,47944,5,8,0:0:0:0:
199,308,48088,1,0,0:0:0:0:
161,98,48231,6,0,B|181:156|181:156|158:219,1,101.999996887207,8|0,0:0|0:0,0:0:0:0:
266,278,48518,2,0,B|252:239|252:239|272:181,1,101.999996887207,8|0,0:0|0:0,0:0:0:0:
154,86,48805,2,0,B|176:151|176:151|150:222,1,101.999996887207,8|0,0:0|0:0,0:0:0:0:
272,289,49092,2,0,B|257:246|257:246|279:181,1,101.999996887207,8|0,0:0|0:0,0:0:0:0:
335,91,49379,5,8,0:0:0:0:
386,215,49523,1,0,0:0:0:0:
436,108,49667,5,8,0:0:0:0:
284,184,49810,1,0,0:0:0:0:
366,29,49954,5,8,0:0:0:0:
407,219,50097,1,0,0:0:0:0:
279,70,50241,5,8,0:0:0:0:
484,154,50384,1,0,0:0:0:0:
279,70,50528,6,0,L|219:56,7,59.4999981842042,8|0|8|0|8|0|8|0,0:0|0:0|0:0|0:0|0:0|0:0|0:0|0:0,0:0:0:0:
201,77,51102,6,0,L|143:90,7,59.4999981842042,8|0|8|0|8|0|8|0,0:0|0:0|0:0|0:0|0:0|0:0|0:0|0:0,0:0:0:0:
144,124,51676,6,0,L|84:110,7,59.4999981842042,8|0|8|0|8|0|8|0,0:0|0:0|0:0|0:0|0:0|0:0|0:0|0:0,0:0:0:0:
66,131,52250,6,0,L|8:144,7,59.4999981842042,8|0|8|0|8|0|8|0,0:0|0:0|0:0|0:0|0:0|0:0|0:0|0:0,0:0:0:0:
14,166,52824,5,8,0:0:0:0:
30,182,52895,1,0,0:0:0:0:
50,194,52967,1,8,0:0:0:0:
72,203,53039,1,0,0:0:0:0:
95,207,53111,5,8,0:0:0:0:
118,207,53182,1,0,0:0:0:0:
141,202,53254,1,8,0:0:0:0:
162,193,53326,1,0,0:0:0:0:
183,181,53399,6,0,L|220:196,7,23.3750007133484,8|0|8|0|8|0|8|0,0:0|0:0|0:0|0:0|0:0|0:0|0:0|0:0,0:0:0:0:
223,203,53973,5,8,0:0:0:0:
238,220,54044,1,0,0:0:0:0:
248,241,54116,1,8,0:0:0:0:
252,264,54188,1,0,0:0:0:0:
249,287,54260,5,8,0:0:0:0:
239,308,54331,1,0,0:0:0:0:
224,326,54403,1,8,0:0:0:0:
204,338,54475,1,0,0:0:0:0:
181,332,54547,6,0,L|156:307,7,23.3750007133484,8|0|8|0|8|0|8|0,0:0|0:0|0:0|0:0|0:0|0:0|0:0|0:0,0:0:0:0:
160,292,55121,6,0,L|141:254,7,23.3750007133484,8|0|8|0|8|0|8|0,0:0|0:0|0:0|0:0|0:0|0:0|0:0|0:0,0:0:0:0:
133,254,55695,6,0,L|114:233,7,23.3750007133484,8|0|8|0|8|0|8|0,0:0|0:0|0:0|0:0|0:0|0:0|0:0|0:0,0:0:0:0:
109,214,56269,6,0,L|96:182,7,23.3750007133484,8|0|8|0|8|0|8|0,0:0|0:0|0:0|0:0|0:0|0:0|0:0|0:0,0:0:0:0:
85,173,56844,6,0,L|70:146,7,23.3750007133484,8|0|8|0|8|0|8|0,0:0|0:0|0:0|0:0|0:0|0:0|0:0|0:0,0:0:0:0:
86,133,57418,5,8,0:0:0:0:
104,118,57489,1,0,0:0:0:0:
125,107,57561,1,8,0:0:0:0:
147,100,57633,1,0,0:0:0:0:
170,95,57705,5,8,0:0:0:0:
193,94,57776,1,0,0:0:0:0:
216,97,57848,1,8,0:0:0:0:
239,103,57920,1,0,0:0:0:0:
262,107,57992,6,0,L|297:87,7,23.3750007133484,8|0|8|0|8|0|8|0,0:0|0:0|0:0|0:0|0:0|0:0|0:0|0:0,0:0:0:0:
304,88,58566,5,8,0:0:0:0:
324,77,58637,1,0,0:0:0:0:
348,75,58709,1,8,0:0:0:0:
370,81,58781,1,0,0:0:0:0:
389,95,58853,5,8,0:0:0:0:
402,114,58924,1,0,0:0:0:0:
407,137,58996,1,8,0:0:0:0:
403,160,59068,1,0,0:0:0:0:
401,183,59140,6,0,L|429:212,7,23.3750007133484,8|0|8|0|8|0|8|0,0:0|0:0|0:0|0:0|0:0|0:0|0:0|0:0,0:0:0:0:
420,223,59714,6,0,L|426:261,7,23.3750007133484,8|0|8|0|8|0|8|0,0:0|0:0|0:0|0:0|0:0|0:0|0:0|0:0,0:0:0:0:
407,263,60289,6,0,L|396:293,7,23.3750007133484,8|0|8|0|8|0|8|0,0:0|0:0|0:0|0:0|0:0|0:0|0:0|0:0,0:0:0:0:
375,284,60863,6,0,L|343:299,7,23.3750007133484,8|0|8|0|8|0|8|0,0:0|0:0|0:0|0:0|0:0|0:0|0:0|0:0,0:0:0:0:
335,308,61437,6,0,L|311:332,7,23.3750007133484,8|0|8|0|8|0|8|0,0:0|0:0|0:0|0:0|0:0|0:0|0:0|0:0,0:0:0:0:
296,332,62011,5,8,0:0:0:0:
273,337,62082,1,0,0:0:0:0:
249,337,62154,1,8,0:0:0:0:
227,332,62226,1,0,0:0:0:0:
206,322,62298,5,8,0:0:0:0:
188,307,62369,1,0,0:0:0:0:
173,289,62441,1,8,0:0:0:0:
163,268,62513,1,0,0:0:0:0:
167,244,62585,6,0,L|182:204,7,23.3750007133484,8|0|8|0|8|0|8|0,0:0|0:0|0:0|0:0|0:0|0:0|0:0|0:0,0:0:0:0:
175,198,63159,5,8,0:0:0:0:
188,179,63230,1,0,0:0:0:0:
190,156,63302,1,8,0:0:0:0:
180,135,63374,1,0,0:0:0:0:
160,123,63446,5,8,0:0:0:0:
137,123,63517,1,0,0:0:0:0:
117,135,63589,1,8,0:0:0:0:
107,155,63661,1,0,0:0:0:0:
92,174,63734,6,0,L|57:194,7,23.3750007133484,8|0|8|0|8|0|8|0,0:0|0:0|0:0|0:0|0:0|0:0|0:0|0:0,0:0:0:0:
71,209,64308,6,0,L|66:246,7,23.3750007133484,8|0|8|0|8|0|8|0,0:0|0:0|0:0|0:0|0:0|0:0|0:0|0:0,0:0:0:0:
83,249,64882,6,0,L|71:283,7,23.3750007133484,8|0|8|0|8|0|8|0,0:0|0:0|0:0|0:0|0:0|0:0|0:0|0:0,0:0:0:0:
96,281,65456,6,0,L|128:290,7,23.3750007133484,8|0|8|0|8|0|8|0,0:0|0:0|0:0|0:0|0:0|0:0|0:0|0:0,0:0:0:0:
140,278,66030,6,0,L|177:281,7,23.3750007133484,8|0|8|0|8|0|8|0,0:0|0:0|0:0|0:0|0:0|0:0|0:0|0:0,0:0:0:0:
185,271,66604,5,8,0:0:0:0:
207,263,66675,1,0,0:0:0:0:
230,259,66747,1,8,0:0:0:0:
253,257,66819,1,0,0:0:0:0:
276,258,66891,5,8,0:0:0:0:
299,262,66962,1,0,0:0:0:0:
322,268,67034,1,8,0:0:0:0:
344,277,67106,1,0,0:0:0:0:
367,272,67179,6,0,L|402:265,7,23.3750007133484,8|0|8|0|8|0|8|0,0:0|0:0|0:0|0:0|0:0|0:0|0:0|0:0,0:0:0:0:
420,259,67753,5,8,0:0:0:0:
450,250,67824,1,0,0:0:0:0:
473,228,67896,1,8,0:0:0:0:
484,199,67968,1,0,0:0:0:0:
481,167,68040,5,8,0:0:0:0:
464,140,68111,1,0,0:0:0:0:
437,124,68183,1,8,0:0:0:0:
406,121,68255,1,0,0:0:0:0:
374,121,68327,5,8,0:0:0:0:
342,121,68398,1,0,0:0:0:0:
315,105,68470,1,8,0:0:0:0:
300,77,68542,1,0,0:0:0:0:
303,46,68614,5,8,0:0:0:0:
321,20,68685,1,0,0:0:0:0:
350,8,68757,1,8,0:0:0:0:
381,13,68829,1,0,0:0:0:0:
405,34,68901,5,4,0:0:0:0:
