osu file format v14

[General]
AudioFilename: audio.mp3
AudioLeadIn: 0
PreviewTime: 63903
Countdown: 0
SampleSet: Soft
StackLeniency: 0.4
Mode: 0
LetterboxInBreaks: 0
WidescreenStoryboard: 0

[Editor]
DistanceSpacing: 2
BeatDivisor: 4
GridSize: 16
TimelineZoom: 2

[Metadata]
Title:Main Theme - Dubstep Remix
TitleUnicode:Main Theme - Dubstep Remix
Artist:Lucas Fader
ArtistUnicode:Lucas Fader
Creator:Strategas
Version:sahuang's Insane: N. Gin
Source:Crash Bandicoot 3 Warped
Tags:sony playstation drum and bass drumstep dubstep game Universal Interactive Studios My Angel Azusa sahuang
BeatmapID:1328722
BeatmapSetID:588976

[Difficulty]
HPDrainRate:6
CircleSize:3.8
OverallDifficulty:8
ApproachRate:9
SliderMultiplier:1.7
SliderTickRate:1

[Events]
//Background and Video events
0,0,"cb3.jpg",0,0
//Break Periods
2,76877,82271
2,83167,86916
2,101651,107045
//Storyboard Layer 0 (Background)
//Storyboard Layer 1 (Fail)
//Storyboard Layer 2 (Pass)
//Storyboard Layer 3 (Foreground)
//Storyboard Sound Samples

[TimingPoints]
2355,387.096774193548,4,2,25,55,1,0
8161,-83.3333333333333,4,1,24,70,0,0
8451,-83.3333333333333,4,1,24,5,0,0
8548,-100,4,2,25,60,0,0
14354,-83.3333333333333,4,1,24,75,0,0
14645,-83.3333333333333,4,1,24,5,0,0
14742,-100,4,2,25,65,0,0
20548,-83.3333333333333,4,2,24,80,0,0
20935,-100,4,2,25,65,0,0
26742,-83.3333333333333,4,2,24,80,0,0
27129,-125,4,2,25,55,0,0
28290,-125,4,2,23,75,0,0
28677,-125,4,2,25,55,0,0
28967,-125,4,2,25,55,0,0
29161,-125,4,2,25,10,0,0
29258,-125,4,2,25,55,0,0
29838,-125,4,2,23,75,0,0
30225,-125,4,2,25,55,0,0
31387,-125,4,2,23,75,0,0
31774,-125,4,2,25,55,0,0
34484,-125,4,2,23,75,0,0
34871,-125,4,2,25,55,0,0
35064,-125,4,2,25,30,0,0
35161,-125,4,2,25,55,0,0
35354,-125,4,2,25,10,0,0
35451,-125,4,2,25,55,0,0
36032,-125,4,2,23,75,0,0
36419,-125,4,2,25,55,0,0
37580,-125,4,2,23,75,0,0
37967,-166.666666666667,4,2,25,60,0,0
38258,-166.666666666667,4,2,25,20,0,0
38354,-200,4,2,25,50,0,0
38645,-166.666666666667,4,2,25,15,0,0
38742,-250,4,2,25,40,0,0
39032,-166.666666666667,4,2,25,10,0,0
39129,-500,4,2,25,30,0,0
39419,-166.666666666667,4,2,25,5,0,0
39516,-111.111111111111,4,2,25,60,0,0
39709,-111.111111111111,4,2,25,30,0,0
39806,-111.111111111111,4,2,25,60,0,0
40000,-111.111111111111,4,2,25,20,0,0
40096,-111.111111111111,4,2,25,60,0,0
40290,-111.111111111111,4,2,22,60,0,0
40871,-111.111111111111,4,2,25,60,0,0
41258,-111.111111111111,4,2,25,30,0,0
41354,-111.111111111111,4,2,25,60,0,0
41548,-111.111111111111,4,2,25,10,0,0
41645,-111.111111111111,4,2,25,60,0,0
41838,-90.9090909090909,4,2,26,50,0,0
41935,-90.9090909090909,4,2,26,5,0,0
42032,-90.9090909090909,4,2,26,50,0,0
42129,-90.9090909090909,4,2,26,5,0,0
42225,-90.9090909090909,4,2,26,50,0,0
42322,-90.9090909090909,4,2,26,5,0,0
42419,-90.9090909090909,4,2,26,50,0,0
42516,-90.9090909090909,4,2,26,5,0,0
42613,-111.111111111111,4,2,25,60,0,0
42806,-111.111111111111,4,2,25,30,0,0
42903,-111.111111111111,4,2,25,60,0,0
43096,-111.111111111111,4,2,25,30,0,0
43193,-111.111111111111,4,2,25,60,0,0
43387,-111.111111111111,4,2,22,60,0,0
43967,-111.111111111111,4,2,25,60,0,0
45322,-83.3333333333333,4,2,25,60,0,0
45709,-100,4,2,25,65,0,0
47451,-100,4,2,25,30,0,0
47548,-100,4,2,25,65,0,0
47742,-100,4,2,25,30,0,0
47838,-100,4,2,25,65,0,0
49000,-100,4,2,23,65,0,0
49193,-90.9090909090909,4,2,25,70,0,0
49387,-100,4,2,23,70,0,0
49580,-83.3333333333333,4,2,25,75,0,0
49774,-100,4,2,23,75,0,0
49967,-76.9230769230769,4,2,25,80,0,0
50161,-100,4,2,23,80,0,0
50354,-133.333333333333,4,2,25,40,0,0
51903,-86.9565217391304,4,2,25,70,0,1
52290,-86.9565217391304,4,1,26,70,0,1
52580,-86.9565217391304,4,2,26,30,0,1
52677,-86.9565217391304,4,1,26,70,0,1
52774,-86.9565217391304,4,2,26,30,0,1
52871,-86.9565217391304,4,1,26,70,0,1
52967,-86.9565217391304,4,2,26,30,0,1
53064,-86.9565217391304,4,1,26,70,0,1
53161,-86.9565217391304,4,2,26,30,0,1
53258,-86.9565217391304,4,1,26,70,0,1
53354,-86.9565217391304,4,2,26,30,0,1
53451,-66.6666666666667,4,1,26,70,0,1
53548,-100,4,2,26,30,0,1
53645,-100,4,1,26,70,0,1
53742,-100,4,2,26,30,0,1
53838,-66.6666666666667,4,1,26,70,0,1
53935,-100,4,2,26,30,0,1
54032,-100,4,1,26,70,0,1
54129,-100,4,2,26,30,0,1
54225,-66.6666666666667,4,1,26,70,0,1
54322,-100,4,2,26,30,0,1
54419,-100,4,1,26,70,0,1
54516,-100,4,2,26,30,0,1
54613,-71.4285714285714,4,1,21,70,0,1
54903,-86.9565217391304,4,2,26,30,0,1
55000,-86.9565217391304,4,1,26,70,0,1
55290,-86.9565217391304,4,2,26,30,0,1
55387,-86.9565217391304,4,1,26,70,0,1
55484,-86.9565217391304,4,2,26,30,0,1
55580,-86.9565217391304,4,1,26,70,0,1
55677,-86.9565217391304,4,2,26,30,0,1
55774,-86.9565217391304,4,1,26,70,0,1
55871,-86.9565217391304,4,2,26,30,0,1
55967,-86.9565217391304,4,1,26,70,0,1
56064,-86.9565217391304,4,2,26,30,0,1
56161,-86.9565217391304,4,1,26,70,0,1
56258,-86.9565217391304,4,2,26,30,0,1
56354,-100,4,1,25,70,0,1
57419,-100,4,1,25,10,0,1
57516,-100,4,1,25,70,0,1
57709,-86.9565217391304,4,1,24,85,0,1
58000,-86.9565217391304,4,1,24,10,0,1
58096,-86.9565217391304,4,1,25,70,0,1
58387,-86.9565217391304,4,2,26,30,0,1
58483,-86.9565217391304,4,1,26,70,0,1
58580,-86.9565217391304,4,2,26,30,0,1
58677,-86.9565217391304,4,1,26,70,0,1
58774,-86.9565217391304,4,2,26,30,0,1
58870,-86.9565217391304,4,1,26,70,0,1
58967,-86.9565217391304,4,2,26,30,0,1
59064,-86.9565217391304,4,1,26,70,0,1
59161,-86.9565217391304,4,2,26,30,0,1
59258,-86.9565217391304,4,1,26,70,0,1
59354,-86.9565217391304,4,2,26,30,0,1
59451,-86.9565217391304,4,1,26,70,0,1
59548,-86.9565217391304,4,2,26,30,0,1
59644,-66.6666666666667,4,1,26,70,0,1
59742,-100,4,2,26,30,0,1
59838,-100,4,1,26,70,0,1
59935,-100,4,2,26,30,0,1
60031,-66.6666666666667,4,1,26,70,0,1
60129,-100,4,2,26,30,0,1
60225,-100,4,1,26,70,0,1
60322,-100,4,2,26,30,0,1
60418,-66.6666666666667,4,1,26,70,0,1
60516,-100,4,2,26,30,0,1
60612,-100,4,1,26,70,0,1
60709,-100,4,2,26,30,0,1
60806,-71.4285714285714,4,1,21,70,0,1
61096,-86.9565217391304,4,2,26,30,0,1
61193,-86.9565217391304,4,1,26,70,0,1
61484,-86.9565217391304,4,2,26,30,0,1
61580,-86.9565217391304,4,1,26,70,0,1
61677,-86.9565217391304,4,2,26,30,0,1
61774,-86.9565217391304,4,1,26,70,0,1
61871,-86.9565217391304,4,2,26,30,0,1
61967,-86.9565217391304,4,1,26,70,0,1
62064,-86.9565217391304,4,2,26,30,0,1
62161,-86.9565217391304,4,1,26,70,0,1
62258,-86.9565217391304,4,2,26,30,0,1
62354,-86.9565217391304,4,1,26,70,0,1
62451,-86.9565217391304,4,2,26,30,0,1
62548,-86.9565217391304,4,1,26,70,0,1
62645,-86.9565217391304,4,2,26,30,0,1
62742,-200,4,2,25,40,0,0
63032,-200,4,2,25,20,0,0
63129,-133.333333333333,4,2,25,55,0,0
63419,-133.333333333333,4,2,25,25,0,0
63516,-100,4,2,25,70,0,0
63806,-100,4,2,25,30,0,0
63903,-80,4,2,25,20,0,0
64290,-83.3333333333333,4,2,25,60,0,0
64677,-125,4,2,20,60,0,0
65451,-100,4,2,20,60,0,0
67387,-83.3333333333333,4,2,20,60,0,0
67774,-125,4,2,20,60,0,0
68548,-100,4,2,20,60,0,0
69516,-100,4,2,25,60,0,0
70484,-76.9230769230769,4,2,21,60,0,0
70871,-125,4,2,20,60,0,0
71645,-100,4,2,20,60,0,0
73580,-76.9230769230769,4,2,20,60,0,0
73967,-125,4,2,20,60,0,0
74742,-100,4,2,20,60,0,0
75129,-83.3333333333333,4,2,21,60,0,0
75516,-133.333333333333,4,2,21,60,0,0
75903,-83.3333333333333,4,2,21,60,0,0
76290,-133.333333333333,4,2,21,60,0,0
76774,-100,4,2,21,20,0,0
82871,-66.6666666666667,4,2,25,45,0,0
88677,-66.6666666666667,4,2,21,45,0,0
89064,-100,4,2,25,60,0,0
91580,-100,4,2,25,80,0,0
92161,-100,4,2,25,60,0,0
94677,-83.3333333333333,4,2,25,80,0,0
95258,-125,4,2,25,60,0,0
97774,-100,4,2,25,80,0,0
98354,-100,4,2,25,60,0,0
99903,-133.333333333333,4,2,25,60,0,0
100290,-100,4,2,25,70,0,0
100677,-80,4,2,25,75,0,0
101451,-100,4,2,25,40,0,0
104548,-100,4,2,25,52,0,0
107645,-100,4,2,25,60,0,0
113451,-83.3333333333333,4,2,24,60,0,0
113838,-125,4,2,25,55,0,0
115000,-125,4,2,23,75,0,0
115387,-125,4,2,25,55,0,0
116548,-125,4,2,23,75,0,0
116935,-125,4,2,25,55,0,0
118096,-125,4,2,23,75,0,0
118484,-125,4,2,25,55,0,0
121193,-125,4,2,23,75,0,0
121580,-125,4,2,25,55,0,0
122742,-125,4,2,23,75,0,0
123129,-125,4,2,25,55,0,0
124290,-125,4,2,23,75,0,0
124677,-166.666666666667,4,2,26,60,0,0
124967,-166.666666666667,4,2,26,20,0,0
125064,-200,4,2,26,50,0,0
125354,-166.666666666667,4,2,26,15,0,0
125451,-250,4,2,26,40,0,0
125742,-166.666666666667,4,2,26,10,0,0
125838,-500,4,2,26,30,0,0
126129,-166.666666666667,4,2,26,5,0,0
126225,-111.111111111111,4,2,25,60,0,0
127000,-111.111111111111,4,2,22,60,0,0
127774,377.358490566038,4,2,25,60,1,0
128528,-100,4,2,26,50,0,0
129283,368.098159509202,4,2,25,60,1,0
130019,-100,4,2,22,50,0,0
130571,-100,4,2,25,50,0,0
130755,361.44578313253,4,2,25,60,1,0
131839,-83.3333333333333,4,2,25,60,0,0
132200,355.029585798817,4,2,25,60,1,0
133620,348.837209302326,4,2,25,60,1,0
135015,342.857142857143,4,2,23,60,1,0
135015,-83.3333333333333,4,2,23,60,0,0
135357,-76.9230769230769,4,2,23,60,0,0
135700,-71.4285714285714,4,2,23,60,0,0
136043,-66.6666666666667,4,2,23,60,0,0
136386,-133.333333333333,4,2,23,60,0,0
137415,-90.9090909090909,4,2,23,60,0,0
137757,-100,4,2,26,60,0,1
138100,-100,4,2,26,60,0,1
138443,-100,4,2,26,60,0,1
138615,-100,4,2,26,60,0,1
139129,-76.9230769230769,4,2,26,60,0,1
139300,-111.111111111111,4,2,26,60,0,1
139472,-76.9230769230769,4,2,26,60,0,1
139643,-111.111111111111,4,2,26,60,0,1
139815,-76.9230769230769,4,2,26,60,0,1
139986,-111.111111111111,4,2,26,60,0,1
140157,-71.4285714285714,4,2,21,70,0,1
140500,-90.9090909090909,4,2,26,60,0,1
140843,-90.9090909090909,4,2,26,60,0,1
141186,-90.9090909090909,4,2,26,60,0,1
141357,-90.9090909090909,4,2,26,60,0,1
141700,-90.9090909090909,4,2,25,60,0,1
142643,-90.9090909090909,4,2,25,10,0,1
142729,-90.9090909090909,4,2,25,60,0,1
142900,-76.9230769230769,4,2,24,60,0,1
143157,-76.9230769230769,4,2,24,10,0,1
143243,-90.9090909090909,4,2,26,60,0,1
143586,-90.9090909090909,4,2,26,60,0,1
143929,-90.9090909090909,4,2,26,60,0,1
144100,-90.9090909090909,4,2,26,60,0,1
144615,-76.9230769230769,4,2,26,60,0,1
144786,-111.111111111111,4,2,26,60,0,1
144957,-76.9230769230769,4,2,26,60,0,1
145129,-111.111111111111,4,2,26,60,0,1
145300,-76.9230769230769,4,2,26,60,0,1
145472,-111.111111111111,4,2,26,60,0,1
145643,-71.4285714285714,4,2,21,70,0,1
145986,-90.9090909090909,4,2,26,60,0,1
146329,-90.9090909090909,4,2,26,60,0,1
146672,-90.9090909090909,4,2,26,60,0,1
146843,-90.9090909090909,4,2,26,60,0,1
147357,-200,4,2,25,40,0,0
147615,-100,4,2,25,5,0,0
147700,-133.333333333333,4,2,25,55,0,0
147957,-100,4,2,25,5,0,0
148043,-100,4,2,25,70,0,0
148300,-100,4,2,25,5,0,0
148386,-80,4,2,25,60,0,0
148729,-111.111111111111,4,2,26,60,0,0
149072,-111.111111111111,4,2,20,60,0,0
149757,-90.9090909090909,4,2,20,60,0,0
150443,-111.111111111111,4,2,20,60,0,0
151300,-71.4285714285714,4,2,20,60,0,0
151472,-90.9090909090909,4,2,20,60,0,0
151815,-111.111111111111,4,2,20,60,0,0
152500,-90.9090909090909,4,2,20,60,0,0
153872,-76.9230769230769,4,2,25,50,0,0
154215,-83.3333333333333,4,2,21,60,0,0
154557,-111.111111111111,4,2,20,60,0,0
155243,-90.9090909090909,4,2,20,60,0,0
155929,-100,4,2,20,60,0,0
156786,-71.4285714285714,4,2,20,60,0,0
156957,-90.9090909090909,4,2,20,60,0,0
157300,-111.111111111111,4,2,20,60,0,0
157986,-76.9230769230769,4,2,20,60,0,0
158329,-100,4,2,21,60,0,0
159700,-100,4,2,26,60,0,0
160043,-100,4,2,26,60,0,0
160386,-100,4,2,26,60,0,0
160557,-100,4,2,26,60,0,0
161072,-83.3333333333333,4,2,26,60,0,0
161243,-100,4,2,26,60,0,0
161415,-83.3333333333333,4,2,26,60,0,0
161586,-100,4,2,26,60,0,0
161757,-83.3333333333333,4,2,26,60,0,0
161929,-100,4,2,26,60,0,0
162100,-71.4285714285714,4,2,21,60,0,0
162443,-100,4,2,26,60,0,0
162786,-100,4,2,26,60,0,0
163129,-100,4,2,26,60,0,0
163300,-100,4,2,26,60,0,0
163986,-83.3333333333333,4,2,26,60,0,0
164157,-100,4,2,26,60,0,0
164329,-83.3333333333333,4,2,26,60,0,0
164500,-100,4,2,26,60,0,0
164672,-83.3333333333333,4,2,26,60,0,0
164843,-83.3333333333333,4,2,19,60,0,0
165186,-71.4285714285714,4,2,21,60,0,0
165529,-100,4,2,26,60,0,0
165872,-100,4,2,26,60,0,0
166043,-100,4,2,26,60,0,0
166557,-83.3333333333333,4,2,26,60,0,0
166729,-100,4,2,26,60,0,0
166900,-83.3333333333333,4,2,26,60,0,0
167072,-100,4,2,26,60,0,0
167243,-83.3333333333333,4,2,26,60,0,0
167415,-100,4,2,26,60,0,0
167586,-71.4285714285714,4,2,21,60,0,0
167929,-100,4,2,26,60,0,0
168272,-100,4,2,26,60,0,0
168615,-100,4,2,26,60,0,0
168786,-100,4,2,26,60,0,0
169300,-200,4,2,25,60,0,0
169557,-100,4,2,25,15,0,0
169643,-133.333333333333,4,2,25,60,0,0
169900,-100,4,2,25,5,0,0
169986,-100,4,2,25,60,0,0
170243,-100,4,2,25,10,0,0
170329,-80,4,2,25,60,0,0
170672,-90.9090909090909,4,2,26,70,0,1
170929,-90.9090909090909,4,2,26,30,0,1
171015,-90.9090909090909,4,2,19,70,0,1
171100,-90.9090909090909,4,2,26,30,0,1
171186,-90.9090909090909,4,2,19,70,0,1
171272,-90.9090909090909,4,2,26,30,0,1
171357,-90.9090909090909,4,2,19,70,0,1
171615,-90.9090909090909,4,2,26,30,0,1
171700,-90.9090909090909,4,2,19,70,0,1
172043,-90.9090909090909,4,2,20,70,0,1
172086,-90.9090909090909,4,2,26,30,0,1
172215,-90.9090909090909,4,2,20,70,0,1
172257,-90.9090909090909,4,2,26,30,0,1
172386,-90.9090909090909,4,2,20,70,0,1
172557,-90.9090909090909,4,2,19,70,0,1
172643,-90.9090909090909,4,2,26,30,0,1
172729,-90.9090909090909,4,2,19,70,0,1
172815,-90.9090909090909,4,2,26,30,0,1
172900,-90.9090909090909,4,2,19,70,0,1
172986,-90.9090909090909,4,2,26,30,0,1
173072,-90.9090909090909,4,2,19,70,0,1
173243,-71.4285714285714,4,2,20,70,0,1
173329,-90.9090909090909,4,2,26,30,0,1
173415,-90.9090909090909,4,2,19,70,0,1
173672,-90.9090909090909,4,2,26,30,0,1
173757,-90.9090909090909,4,2,19,70,0,1
173843,-90.9090909090909,4,2,26,30,0,1
173929,-90.9090909090909,4,2,19,70,0,1
174015,-90.9090909090909,4,2,26,30,0,1
174100,-90.9090909090909,4,2,19,70,0,1
174357,-90.9090909090909,4,2,26,30,0,1
174443,-72.992700729927,4,2,19,70,0,1
174786,-72.992700729927,4,2,20,70,0,1
174829,-72.992700729927,4,2,26,30,0,1
174957,-72.992700729927,4,2,20,70,0,1
175000,-72.992700729927,4,2,26,30,0,1
175129,-72.992700729927,4,2,20,70,0,1
175300,-72.992700729927,4,2,19,70,0,1
175386,-72.992700729927,4,2,26,30,0,1
175472,-72.992700729927,4,2,19,70,0,1
175557,-72.992700729927,4,2,26,30,0,1
175643,-72.992700729927,4,2,19,70,0,1
175729,-72.992700729927,4,2,26,30,0,1
175815,-90.9090909090909,4,2,19,70,0,1
176072,-90.9090909090909,4,2,26,30,0,1
176157,-76.9230769230769,4,2,19,70,0,1
176415,-76.9230769230769,4,2,26,30,0,1
176500,-76.9230769230769,4,2,19,70,0,1
176757,-76.9230769230769,4,2,26,30,0,1
176843,-76.9230769230769,4,2,19,70,0,1
177100,-76.9230769230769,4,2,26,30,0,1
177186,-72.992700729927,4,2,19,70,0,1
177529,-72.992700729927,4,2,20,70,0,1
177572,-72.992700729927,4,2,26,30,0,1
177700,-72.992700729927,4,2,20,70,0,1
177743,-72.992700729927,4,2,26,30,0,1
177872,-90.9090909090909,4,2,20,70,0,1
178129,-90.9090909090909,4,2,26,30,0,1
178215,-90.9090909090909,4,2,19,70,0,1
178300,-90.9090909090909,4,2,26,30,0,1
178386,-90.9090909090909,4,2,19,70,0,1
178472,-90.9090909090909,4,2,26,30,0,1
178557,-90.9090909090909,4,2,19,70,0,1
178729,-72.992700729927,4,2,20,70,0,1
178815,-90.9090909090909,4,2,26,30,0,1
178900,-90.9090909090909,4,2,19,70,0,1
179157,-90.9090909090909,4,2,26,30,0,1
179243,-90.9090909090909,4,2,19,70,0,1
179329,-90.9090909090909,4,2,26,30,0,1
179415,-90.9090909090909,4,2,19,70,0,1
179500,-90.9090909090909,4,2,26,30,0,1
179586,-90.9090909090909,4,2,19,70,0,1
179843,-90.9090909090909,4,2,26,30,0,1
179929,-90.9090909090909,4,2,19,70,0,1
180272,-90.9090909090909,4,2,20,70,0,1
181643,-66.6666666666667,4,2,20,70,0,0
181900,-66.6666666666667,4,2,21,40,0,0

[Colours]
Combo1 : 255,207,64
Combo2 : 64,255,64
Combo3 : 64,150,255
Combo4 : 244,74,100

[HitObjects]
220,97,2355,6,0,L|210:232,1,127.5,6|0,0:3|0:0,0:0:0:0:
205,258,2742,1,8,0:1:0:0:
252,348,2935,1,0,0:0:0:0:
353,352,3129,1,0,0:0:0:0:
191,276,3322,1,2,0:3:0:0:
260,351,3516,1,8,0:1:0:0:
358,329,3709,1,0,0:0:0:0:
388,232,3903,6,0,B|395:186|395:186|371:99,1,127.5,2|0,0:3|0:0,0:0:0:0:
360,76,4290,1,8,0:1:0:0:
285,146,4484,1,0,0:0:0:0:
261,46,4677,1,0,0:0:0:0:
361,91,4871,1,2,0:3:0:0:
270,139,5064,1,8,0:1:0:0:
273,37,5258,1,0,0:0:0:0:
183,84,5451,6,0,P|140:92|36:84,1,127.5,2|0,0:3|0:0,0:0:0:0:
29,68,5838,1,8,0:1:0:0:
41,169,6032,1,0,0:0:0:0:
53,270,6225,1,0,0:0:0:0:
228,250,6419,1,2,0:3:0:0:
134,209,6613,1,8,0:1:0:0:
41,169,6806,1,2,0:3:0:0:
219,151,7000,5,2,1:3:0:0:
53,270,7193,2,0,L|65:361,1,85,2|8,1:2|0:1,0:0:0:0:
254,307,7580,2,0,L|236:174,1,127.5,6|0,1:3|0:0,0:0:0:0:
219,151,7967,1,6,1:3:0:0:
329,339,8161,6,0,L|151:352,1,152.999995330811,8|0,1:0|0:0,0:0:0:0:
101,309,8548,6,0,P|80:268|111:183,1,127.5,6|0,0:3|0:0,0:0:0:0:
126,171,8935,1,8,0:1:0:0:
292,112,9129,1,2,0:0:0:0:
126,171,9322,1,2,0:0:0:0:
226,190,9516,1,2,0:3:0:0:
292,112,9709,1,8,0:1:0:0:
257,15,9903,1,0,0:0:0:0:
226,190,10096,6,0,P|236:243|309:272,1,127.5,2|0,0:3|0:0,0:0:0:0:
330,263,10484,1,8,0:1:0:0:
361,89,10677,1,2,0:0:0:0:
330,263,10871,1,2,0:0:0:0:
396,185,11064,1,2,0:3:0:0:
361,89,11258,1,8,0:1:0:0:
260,71,11451,1,0,0:0:0:0:
396,185,11645,6,0,L|244:195,1,127.5,2|0,0:3|0:0,0:0:0:0:
234,195,12032,1,8,0:1:0:0:
92,169,12225,1,2,0:0:0:0:
234,195,12419,1,2,0:0:0:0:
150,253,12613,1,2,0:3:0:0:
92,169,12806,1,8,0:1:0:0:
176,111,13000,1,2,0:3:0:0:
242,296,13193,5,2,1:3:0:0:
92,169,13387,2,0,L|5:178,1,85,2|8,1:2|0:1,0:0:0:0:
87,328,13774,2,0,L|213:314,1,127.5,6|0,1:3|0:0,0:0:0:0:
242,296,14161,1,6,1:3:0:0:
360,199,14354,6,0,P|422:219|353:259,1,152.999995330811,8|0,1:0|0:0,0:0:0:0:
360,199,14742,6,0,L|364:109,1,85,6|0,0:3|0:0,0:0:0:0:
342,40,15032,1,2,0:0:0:0:
347,29,15129,1,8,0:1:0:0:
188,76,15322,1,2,0:0:0:0:
347,29,15516,1,2,0:0:0:0:
284,109,15709,1,2,0:3:0:0:
188,76,15903,1,8,0:1:0:0:
125,156,16096,1,2,0:0:0:0:
235,285,16290,6,0,B|274:301|274:301|315:291,1,85,2|0,0:3|0:0,0:0:0:0:
388,268,16580,1,2,0:0:0:0:
399,263,16677,1,8,0:1:0:0:
375,100,16871,1,2,0:0:0:0:
399,263,17064,1,2,0:0:0:0:
445,173,17258,1,2,0:3:0:0:
375,100,17451,1,8,0:1:0:0:
420,9,17645,1,0,0:0:0:0:
270,96,17838,6,0,L|166:101,1,85,2|0,0:3|0:0,0:0:0:0:
118,139,18129,1,2,0:0:0:0:
123,150,18225,1,8,0:1:0:0:
171,317,18419,1,2,0:0:0:0:
123,150,18613,1,2,0:0:0:0:
99,248,18806,1,2,0:3:0:0:
171,317,19000,1,8,0:1:0:0:
266,289,19193,1,2,0:3:0:0:
99,248,19387,5,2,1:3:0:0:
261,204,19580,2,0,L|266:297,1,85,2|8,1:2|0:1,0:0:0:0:
344,150,19967,2,0,P|298:108|217:113,1,127.5,6|0,1:3|0:0,0:0:0:0:
206,123,20354,1,6,1:3:0:0:
188,334,20548,6,0,B|238:325|238:325|288:339|288:339|342:323,1,152.999995330811,8|0,1:0|0:0,0:0:0:0:
400,261,20935,6,0,L|394:121,1,127.5,6|0,0:3|0:0,0:0:0:0:
361,64,21322,1,8,0:1:0:0:
247,154,21516,1,2,0:0:0:0:
361,64,21709,1,2,0:0:0:0:
225,12,21903,1,2,0:3:0:0:
247,154,22096,1,8,0:1:0:0:
361,64,22290,1,2,0:0:0:0:
225,12,22484,6,0,P|171:16|133:83,1,127.5,2|0,0:3|0:0,0:0:0:0:
146,148,22871,1,8,0:1:0:0:
252,245,23064,1,2,0:0:0:0:
146,148,23258,1,2,0:0:0:0:
111,287,23451,1,2,0:3:0:0:
252,245,23645,1,8,0:1:0:0:
146,148,23838,1,0,0:0:0:0:
111,287,24032,6,0,P|127:336|216:363,1,127.5,2|0,0:3|0:0,0:0:0:0:
263,339,24419,1,8,0:1:0:0:
407,351,24613,1,2,0:0:0:0:
263,339,24806,1,2,0:0:0:0:
346,220,25000,1,2,0:3:0:0:
489,233,25193,1,8,0:1:0:0:
407,351,25387,1,2,0:3:0:0:
428,102,25580,5,2,1:3:0:0:
407,351,25774,2,0,L|403:258,1,85,2|8,1:2|0:1,0:0:0:0:
422,91,26161,1,6,1:3:0:0:
416,80,26548,1,6,1:3:0:0:
223,164,26742,6,0,P|202:218|282:204,1,152.999995330811,8|0,1:0|0:0,0:0:0:0:
223,164,27129,6,0,L|64:176,1,136,2|0,0:3|0:0,0:0:0:0:
87,174,27709,1,2,0:3:0:0:
223,164,27903,1,8,0:1:0:0:
232,158,28290,2,0,L|224:88,1,68,2|2,0:3|0:3,0:0:0:0:
371,121,28677,6,0,P|409:105|442:52,2,102,2|0|2,0:3|0:0|0:3,0:0:0:0:
360,38,29451,1,8,0:1:0:0:
331,294,29838,2,0,P|295:292|241:297,1,68,2|2,0:3|0:3,0:0:0:0:
201,363,30225,6,0,P|200:278|150:278,2,136,6|2|8,0:3|0:0|0:1,0:0:0:0:
67,272,31387,2,0,P|75:228|105:194,1,68,10|0,0:3|0:0,0:0:0:0:
167,272,31774,5,6,0:3:0:0:
214,24,32161,1,6,0:3:0:0:
335,142,32548,1,8,0:1:0:0:
329,151,32645,1,2,0:0:0:0:
369,244,32838,1,2,0:0:0:0:
359,248,32935,1,2,0:3:0:0:
300,331,33129,1,2,0:0:0:0:
289,330,33225,1,2,0:0:0:0:
278,330,33322,6,0,P|228:336|177:268,1,136,2|0,0:3|0:0,0:0:0:0:
177,275,33903,1,2,0:3:0:0:
278,330,34096,1,8,0:1:0:0:
289,330,34484,2,0,L|369:317,1,68,2|0,0:3|0:0,0:0:0:0:
451,220,34871,6,0,P|468:178|455:116,2,102,2|0|0,0:3|0:0|0:0,0:0:0:0:
368,165,35645,1,8,0:1:0:0:
68,212,36032,2,0,L|165:219,1,68,2|0,0:3|0:0,0:0:0:0:
176,140,36419,6,0,L|180:298,2,136,2|0|0,0:3|0:0|0:0,0:0:0:0:
442,320,37580,2,0,L|374:329,1,68,10|2,0:3|0:3,0:0:0:0:
248,352,37967,6,0,P|223:317|218:284,1,76.4999976654053,2|0,0:0|0:0,0:0:0:0:
298,288,38354,6,0,P|296:260|310:226,1,63.75,2|0,0:0|0:0,0:0:0:0:
376,272,38742,6,0,P|388:256|417:242,1,51,2|0,0:0|0:0,0:0:0:0:
442,320,39129,6,0,P|462:322|471:328,1,25.5,2|0,0:0|0:0,0:0:0:0:
349,365,39516,6,0,B|293:369|293:369|237:338,2,114.749996498108,2|0|0,0:3|0:0|0:0,0:0:0:0:
313,260,40290,1,2,0:0:0:0:
313,260,40484,1,4,0:0:0:0:
313,260,40871,1,2,0:0:0:0:
392,177,41064,6,0,P|389:106|380:56,2,114.749996498108,2|0|2,0:3|0:0|0:0,0:0:0:0:
203,210,41838,2,0,L|156:214,1,46.7500014266968,0|0,1:0|0:0,0:0:0:0:
167,132,42032,2,0,L|120:136,1,46.7500014266968,4|0,0:1|0:0,0:0:0:0:
83,205,42225,2,0,L|36:209,1,46.7500014266968,0|0,1:0|0:0,0:0:0:0:
47,127,42419,2,0,L|0:131,1,46.7500014266968,4|0,0:1|0:0,0:0:0:0:
83,205,42613,6,0,L|82:339,2,114.749996498108,2|0|0,0:3|0:0|0:0,0:0:0:0:
167,132,43387,1,2,0:0:0:0:
167,132,43580,1,4,0:0:0:0:
167,132,43967,1,2,0:2:0:0:
252,208,44161,6,0,P|287:204|338:183,2,76.4999976654053,2|0|0,0:3|0:0|0:0,0:0:0:0:
433,162,44742,1,6,1:3:0:0:
444,155,45129,1,6,1:3:0:0:
455,148,45322,6,0,B|447:31|447:31|404:45,1,152.999995330811,2|0,1:2|0:0,0:0:0:0:
364,109,45709,5,2,0:3:0:0:
290,21,46000,1,2,0:0:0:0:
177,41,46290,1,2,0:0:0:0:
212,237,46484,5,2,0:3:0:0:
325,217,46774,1,2,0:0:0:0:
364,109,47064,1,2,0:0:0:0:
177,41,47258,5,2,0:3:0:0:
138,149,47548,1,2,0:0:0:0:
212,237,47838,1,2,0:0:0:0:
364,109,48032,5,2,0:3:0:0:
177,41,48322,1,2,0:0:0:0:
212,237,48613,1,2,0:0:0:0:
364,109,48806,6,0,L|453:98,1,85,2|2,0:3|0:3,0:0:0:0:
274,299,49193,6,0,L|388:284,1,93.5000028533936,2|2,0:3|0:3,0:0:0:0:
180,137,49580,6,0,L|294:122,1,101.999996887207,2|2,0:3|0:3,0:0:0:0:
81,321,49967,6,0,L|195:306,1,110.499994941712,2|2,0:3|0:3,0:0:0:0:
421,226,50354,6,0,L|373:225,1,31.8750012159348,2|0,0:0|0:0,0:0:0:0:
202,31,50742,2,0,L|225:73,1,31.8750012159348,2|0,0:0|0:0,0:0:0:0:
143,316,51129,2,0,L|167:276,1,31.8750012159348,2|0,0:0|0:0,0:0:0:0:
256,192,51516,6,0,P|274:187|269:181,3,21.2500008106232,0|0|4|0,0:0|0:0|0:3|0:0,0:0:0:0:
256,192,51903,6,0,P|203:190|256:125,1,146.62500279665,4|0,0:1|0:0,0:0:0:0:
294,97,52290,1,8,0:0:0:0:
170,37,52484,1,0,0:1:0:0:
46,94,52677,2,0,L|54:145,1,48.8750009322167,4|0,2:1|0:0,0:0:0:0:
140,246,52871,2,0,L|148:195,1,48.8750009322167,2|0,0:0|0:0,0:0:0:0:
201,141,53064,1,8,0:0:0:0:
64,220,53258,1,2,0:0:0:0:
206,299,53451,6,0,P|245:293|276:281,1,63.7500024318696,6|0,2:1|0:0,0:0:0:0:
376,200,53645,2,0,L|382:253,1,42.5,0|0,0:0|0:0,0:0:0:0:
215,307,53838,6,0,P|254:301|285:289,1,63.7500024318696,12|0,2:1|0:0,0:0:0:0:
385,208,54032,2,0,L|391:261,1,42.5,0|0,0:0|0:0,0:0:0:0:
224,315,54225,6,0,P|263:309|294:297,1,63.7500024318696,6|0,2:1|0:0,0:0:0:0:
394,216,54419,2,0,L|400:269,1,42.5,0|0,0:0|0:0,0:0:0:0:
297,177,54613,6,0,B|254:170|226:190|226:190|201:169|201:169|170:191|119:176,1,178.499994552612,8|0,0:0|0:0,0:0:0:0:
154,92,55000,6,0,P|91:97|44:164,1,146.62500279665,4|0,3:0|0:0,0:0:0:0:
69,234,55387,1,8,0:0:0:0:
202,171,55580,1,0,0:0:0:0:
195,327,55774,2,0,L|186:265,1,48.8750009322167,4|0,2:1|0:0,0:0:0:0:
293,196,55967,2,0,L|284:258,1,48.8750009322167,2|0,0:0|0:0,0:0:0:0:
202,171,56161,2,0,L|193:109,1,48.8750009322167,8|0,0:0|0:0,0:0:0:0:
213,46,56354,1,2,0:2:0:0:
293,196,56548,5,6,0:3:0:0:
345,94,56742,2,0,L|430:87,1,85,2|8,0:2|0:1,0:0:0:0:
484,241,57129,2,0,L|357:252,1,127.5,2|0,0:2|0:0,0:0:0:0:
293,196,57516,1,6,0:3:0:0:
140,245,57709,6,0,P|176:295|249:239,1,146.62500279665,8|0,0:0|0:0,0:0:0:0:
293,196,58096,6,0,L|278:34,1,146.62500279665,4|0,3:0|0:0,0:0:0:0:
208,14,58484,1,8,0:0:0:0:
53,31,58677,1,0,0:0:0:0:
17,183,58871,2,0,P|17:205|27:231,1,48.8750009322167,4|0,2:1|0:0,0:0:0:0:
150,169,59064,2,0,P|150:147|140:121,1,48.8750009322167,2|0,0:0|0:0,0:0:0:0:
53,31,59258,1,8,0:0:0:0:
17,183,59451,1,0,0:0:0:0:
140,122,59645,6,0,P|146:161|158:192,1,63.7500024318696,6|0,2:1|0:0,0:0:0:0:
239,292,59838,2,0,L|186:298,1,42.5,0|0,0:0|0:0,0:0:0:0:
132,131,60032,6,0,P|138:170|150:201,1,63.7500024318696,12|0,2:1|0:0,0:0:0:0:
231,301,60225,2,0,L|178:307,1,42.5,0|0,0:0|0:0,0:0:0:0:
124,140,60419,6,0,P|130:179|142:210,1,63.7500024318696,6|0,2:1|0:0,0:0:0:0:
223,310,60613,2,0,L|170:316,1,42.5,2|0,0:0|0:0,0:0:0:0:
262,226,60806,6,0,B|325:244|379:208|379:208|349:262,1,178.499994552612,8|0,0:0|0:0,0:0:0:0:
430,283,61193,6,0,B|462:214|462:214|455:170|429:150,1,146.62500279665,4|0,3:0|0:0,0:0:0:0:
354,137,61580,1,8,0:0:0:0:
472,42,61774,1,0,0:0:0:0:
345,30,61967,2,0,L|276:25,1,48.8750009322167,4|0,2:1|0:0,0:0:0:0:
197,119,62161,2,0,L|245:122,1,48.8750009322167,2|0,0:0|0:0,0:0:0:0:
218,38,62354,2,0,L|149:33,1,48.8750009322167,8|0,0:0|0:0,0:0:0:0:
70,127,62548,2,0,L|118:130,1,48.8750009322167,0|0,0:0|0:0,0:0:0:0:
64,66,62742,6,0,P|59:97|71:129,1,63.75,4|0,0:3|0:0,0:0:0:0:
130,210,63129,6,0,P|169:227|234:196,1,95.6250036478044,4|0,0:3|0:0,0:0:0:0:
299,154,63516,6,0,P|316:109|279:29,1,127.5,4|0,0:3|0:0,0:0:0:0:
194,9,63903,6,0,P|166:8|135:20,2,53.125,0|0|0,0:0|0:0|0:0,0:0:0:0:
186,289,64290,6,0,L|179:130,1,152.999995330811,4|0,0:0|0:0,0:0:0:0:
242,78,64677,6,0,P|287:71|331:106,1,102,2|0,0:1|0:0,0:0:0:0:
340,189,65064,2,0,L|341:301,1,102,10|0,1:0|0:0,0:0:0:0:
280,345,65451,6,0,L|224:340,1,42.5,0|0,1:0|0:0,0:0:0:0:
269,337,65838,6,0,L|213:332,1,42.5,2|0,1:3|0:0,0:0:0:0:
149,358,66032,2,0,L|103:325,1,42.5,0|0,1:0|0:0,0:0:0:0:
23,344,66225,2,0,P|35:288|93:244,1,127.5,2|0,0:1|0:0,0:0:0:0:
179,245,66613,2,0,B|176:194|136:169|136:169|170:158,1,127.5,10|0,0:1|0:0,0:0:0:0:
256,177,67000,2,0,L|296:165,1,42.5,0|0,1:0|0:0,0:0:0:0:
155,78,67193,1,0,0:0:0:0:
299,87,67387,6,0,L|307:247,1,152.999995330811,2|0,0:3|0:0,0:0:0:0:
334,321,67774,6,0,P|372:332|430:278,1,102,2|0,0:1|0:0,0:0:0:0:
409,216,68161,2,0,L|403:101,1,102,2|0,0:1|0:0,0:0:0:0:
436,36,68548,6,0,L|495:26,1,42.5,0|0,1:0|0:0,0:0:0:0:
233,63,68935,6,0,L|292:53,1,42.5,2|0,1:3|0:0,0:0:0:0:
182,128,69129,2,0,L|192:187,1,42.5,0|0,1:0|0:0,0:0:0:0:
114,80,69322,2,0,L|72:87,1,42.5,2|0,0:1|0:0,0:0:0:0:
167,12,69516,1,2,1:2:0:0:
169,21,69903,1,2,1:2:0:0:
203,253,70096,2,0,L|182:128,1,127.5,2|0,1:2|0:0,0:0:0:0:
122,252,70484,6,0,P|159:181|238:176,1,165.749992412568,4|0,0:1|0:0,0:0:0:0:
291,241,70871,6,0,L|411:231,1,102,2|0,0:1|0:0,0:0:0:0:
460,183,71258,2,0,P|463:128|424:74,1,102,2|0,0:1|0:0,0:0:0:0:
383,149,71645,6,0,L|341:154,1,42.5,0|0,1:0|0:0,0:0:0:0:
373,142,72032,6,0,L|331:147,1,42.5,2|0,1:3|0:0,0:0:0:0:
273,70,72225,2,0,L|256:108,1,42.5,0|0,1:0|0:0,0:0:0:0:
158,115,72419,2,0,P|146:152|215:173,1,127.5,2|0,0:1|0:0,0:0:0:0:
158,115,72806,2,0,L|25:134,1,127.5,2|0,0:1|0:0,0:0:0:0:
0,204,73193,2,0,L|10:249,1,42.5,0|0,1:0|0:0,0:0:0:0:
35,51,73387,1,0,0:0:0:0:
158,115,73580,6,0,B|169:169|169:169|153:221|153:221|168:276,1,165.749992412568,2|0,0:3|0:0,0:0:0:0:
240,219,73967,6,0,P|260:277|233:335,1,102,2|0,0:1|0:0,0:0:0:0:
181,367,74354,2,0,P|120:355|84:302,1,102,2|0,0:1|0:0,0:0:0:0:
167,275,74742,6,0,L|153:223,1,42.5,0|0,1:0|0:0,0:0:0:0:
233,33,75129,6,0,L|230:186,1,152.999995330811,4|0,3:0|0:0,0:0:0:0:
274,256,75516,2,0,P|284:264|303:265,3,31.8750012159348,8|8|0|0,0:0|0:3|0:0|0:0,0:0:0:0:
383,244,75903,6,0,L|386:91,1,152.999995330811,4|0,3:0|0:0,0:0:0:0:
342,21,76290,2,0,P|332:13|313:12,3,31.8750012159348,8|8|8|0,0:0|0:3|0:3|0:0,0:0:0:0:
227,69,76677,5,4,0:0:0:0:
240,176,82871,6,0,P|271:172|260:161,1,63.7500024318696,2|0,0:0|0:0,0:0:0:0:
225,237,87516,5,2,0:0:0:0:
215,236,87806,1,2,0:0:0:0:
204,235,88096,1,2,0:0:0:0:
194,235,88387,1,2,0:0:0:0:
194,235,88677,5,8,0:0:0:0:
204,235,88774,1,8,0:3:0:0:
215,236,88871,1,8,0:3:0:0:
225,237,88967,1,8,0:3:0:0:
236,237,89064,6,0,L|216:95,2,127.5,2|2|2,0:3|0:0|0:0,0:0:0:0:
243,248,90032,2,0,P|286:221|300:308,1,170,2|0,0:0|0:0,0:0:0:0:
77,275,90613,6,0,L|57:133,2,127.5,2|0|0,0:0|0:0|0:0,0:0:0:0:
86,285,91580,1,2,0:0:0:0:
202,214,91774,1,2,0:0:0:0:
334,245,91967,1,2,0:0:0:0:
405,361,92161,6,0,L|249:355,2,127.5,2|2|2,0:0|0:0|0:0,0:0:0:0:
418,357,93129,2,0,P|440:308|342:289,1,170,2|0,0:0|0:0,0:0:0:0:
231,166,93709,6,0,L|75:160,2,127.5,2|2|2,0:0|0:0|0:0,0:0:0:0:
243,167,94677,1,2,0:0:0:0:
425,63,94871,2,0,P|429:83|431:116,1,50.9999984436036,8|0,0:1|0:0,0:0:0:0:
350,270,95064,2,0,P|346:250|344:217,1,50.9999984436036,8|0,0:1|0:0,0:0:0:0:
321,105,95258,5,2,0:3:0:0:
297,80,95354,1,2,0:0:0:0:
267,65,95451,1,2,0:0:0:0:
234,61,95548,1,2,0:0:0:0:
201,69,95645,1,2,0:0:0:0:
119,141,95838,1,2,0:0:0:0:
182,331,96032,5,8,0:1:0:0:
111,249,96225,2,0,P|182:222|259:255,1,136,2|0,0:0|0:0,0:0:0:0:
387,338,96806,5,2,0:3:0:0:
384,304,96903,1,2,0:0:0:0:
382,270,97000,1,2,0:0:0:0:
380,236,97096,1,2,0:0:0:0:
378,202,97193,1,2,0:0:0:0:
425,104,97387,1,2,0:0:0:0:
326,57,97580,5,8,0:1:0:0:
279,156,97774,2,0,L|224:150,1,42.5,2|0,0:0|0:0,0:0:0:0:
186,50,97967,2,0,L|180:105,1,42.5,2|0,0:0|0:0,0:0:0:0:
70,134,98161,2,0,L|125:140,1,42.5,2|0,0:0|0:0,0:0:0:0:
172,214,98354,5,2,0:3:0:0:
181,254,98451,1,2,0:0:0:0:
159,289,98548,1,2,0:0:0:0:
119,298,98645,1,2,0:0:0:0:
84,276,98742,1,2,0:0:0:0:
112,138,98935,1,2,0:0:0:0:
245,92,99129,5,8,0:1:0:0:
351,184,99322,2,0,B|384:259|319:268|359:349,1,170,2|0,0:0|0:0,0:0:0:0:
428,134,99903,5,2,0:3:0:0:
408,109,100000,1,2,0:0:0:0:
380,94,100096,1,2,0:0:0:0:
348,90,100193,1,2,0:0:0:0:
318,99,100290,5,2,0:0:0:0:
284,123,100387,1,2,0:0:0:0:
244,112,100484,1,2,0:0:0:0:
226,75,100580,1,2,0:0:0:0:
242,37,100677,5,8,0:1:0:0:
281,72,100774,1,2,0:0:0:0:
293,123,100871,1,2,0:0:0:0:
274,172,100967,1,2,0:0:0:0:
231,201,101064,5,8,0:1:0:0:
122,89,101258,1,2,0:0:0:0:
372,43,101451,5,2,0:3:0:0:
153,318,107645,6,0,P|201:322|258:294,1,85,6|0,0:3|0:0,0:0:0:0:
291,246,107935,1,2,0:0:0:0:
297,236,108032,1,8,0:1:0:0:
185,197,108225,2,0,P|175:148|193:110,1,85,2|2,0:0|0:0,0:0:0:0:
342,44,108613,1,2,0:3:0:0:
259,159,108806,1,8,0:1:0:0:
342,44,109000,1,2,0:0:0:0:
199,25,109193,6,0,L|104:36,1,85,2|0,0:3|0:0,0:0:0:0:
48,90,109484,1,2,0:0:0:0:
54,100,109580,1,8,0:1:0:0:
157,246,109774,2,0,L|165:140,1,85,2|0,0:0|0:0,0:0:0:0:
149,329,110161,1,2,0:3:0:0:
70,208,110354,1,8,0:1:0:0:
149,329,110548,1,0,0:0:0:0:
284,276,110742,6,0,P|331:269|372:281,1,85,2|0,0:3|0:0,0:0:0:0:
434,329,111032,1,2,0:0:0:0:
444,323,111129,1,8,0:1:0:0:
284,276,111322,2,0,L|276:179,1,85,2|2,0:0|0:0,0:0:0:0:
397,95,111709,1,2,0:3:0:0:
253,40,111903,1,8,0:1:0:0:
397,95,112096,1,2,0:3:0:0:
133,136,112290,5,6,0:3:0:0:
397,95,112484,2,0,L|304:99,1,85,2|0,1:2|0:0,0:0:0:0:
122,142,112871,1,6,1:3:0:0:
111,148,113258,1,6,1:3:0:0:
237,243,113451,6,0,P|291:264|269:187,1,152.999995330811,8|0,1:0|0:0,0:0:0:0:
237,243,113838,6,0,L|249:402,1,136,4|0,0:0|0:0,0:0:0:0:
247,378,114419,1,2,0:3:0:0:
237,243,114613,1,8,0:1:0:0:
232,234,115000,2,0,L|162:242,1,68,2|0,0:3|0:0,0:0:0:0:
105,95,115387,6,0,P|89:57|36:24,2,102,2|0|0,0:3|0:0|0:0,0:0:0:0:
22,106,116161,1,8,0:1:0:0:
358,117,116548,2,0,P|356:153|361:207,1,68,2|2,0:3|0:3,0:0:0:0:
427,247,116935,6,0,P|342:248|342:298,2,136,2|0|0,0:3|0:0|0:0,0:0:0:0:
336,381,118096,2,0,P|292:373|258:343,1,68,10|2,0:3|0:3,0:0:0:0:
336,281,118484,5,2,0:3:0:0:
88,234,118871,1,2,0:3:0:0:
206,113,119258,1,8,0:1:0:0:
215,119,119354,1,2,0:0:0:0:
308,79,119548,1,2,0:0:0:0:
312,89,119645,1,2,0:3:0:0:
395,148,119838,1,2,0:0:0:0:
394,159,119935,1,2,0:0:0:0:
389,170,120032,6,0,P|386:219|467:240,1,136,2|0,0:3|0:0,0:0:0:0:
457,245,120613,1,2,0:3:0:0:
389,170,120806,1,8,0:1:0:0:
394,159,121193,2,0,L|381:79,1,68,2|2,0:3|0:3,0:0:0:0:
237,156,121580,6,0,P|195:173|133:160,2,102,2|2|2,0:3|0:3|0:3,0:0:0:0:
182,89,122354,1,8,0:1:0:0:
276,380,122742,2,0,L|283:283,1,68,2|0,0:3|0:0,0:0:0:0:
208,267,123129,6,0,B|279:273|279:273|340:241,2,136,2|0|0,0:3|0:0|0:0,0:0:0:0:
384,6,124290,2,0,L|390:87,1,68,10|2,0:3|0:3,0:0:0:0:
221,183,124677,6,0,P|196:148|191:115,1,76.4999976654053,2|0,0:0|0:0,0:0:0:0:
271,119,125064,6,0,P|269:91|283:57,1,63.75,2|0,0:0|0:0,0:0:0:0:
349,103,125451,6,0,P|361:87|390:73,1,51,2|0,0:0|0:0,0:0:0:0:
415,151,125838,6,0,P|435:153|444:159,1,25.5,2|0,0:0|0:0,0:0:0:0:
336,204,126225,6,0,P|328:258|384:270,2,114.749996498108,2|2|2,0:3|0:0|0:0,0:0:0:0:
336,204,127000,1,2,0:0:0:0:
231,117,127193,1,4,0:0:0:0:
224,111,127580,1,2,0:0:0:0:
122,210,127774,6,0,P|114:264|182:268,2,127.5,2|0|0,0:3|0:0|0:0,0:0:0:0:
224,111,128528,2,0,L|274:103,1,42.5,4|0,0:1|0:0,0:0:0:0:
350,149,128717,2,0,L|358:199,1,42.5,0|0,1:0|0:0,0:0:0:0:
231,117,128906,2,0,L|281:109,1,42.5,4|0,0:1|0:0,0:0:0:0:
357,155,129094,2,0,L|365:205,1,42.5,0|0,1:0|0:0,0:0:0:0:
279,299,129283,6,0,P|218:302|238:236,2,127.5,2|0|0,0:3|0:0|0:0,0:0:0:0:
279,299,130019,1,2,0:0:0:0:
261,139,130203,1,4,0:0:0:0:
259,128,130571,1,2,1:2:0:0:
167,190,130755,5,6,1:3:0:0:
351,66,130935,1,2,1:2:0:0:
362,59,131297,1,2,1:2:0:0:
373,52,131658,1,2,1:2:0:0:
447,185,131839,2,0,B|403:208|403:208|298:200,1,152.999995330811,2|0,1:2|0:0,0:0:0:0:
214,187,132200,5,2,0:3:0:0:
200,316,132466,1,2,0:0:0:0:
199,327,132732,1,2,0:0:0:0:
298,187,132910,5,2,0:3:0:0:
312,316,133176,1,2,0:0:0:0:
313,327,133442,1,2,0:0:0:0:
117,130,133620,5,2,0:3:0:0:
103,259,133881,1,2,0:0:0:0:
102,270,134143,1,2,0:0:0:0:
395,130,134317,5,2,0:3:0:0:
409,259,134579,1,2,0:0:0:0:
410,270,134840,1,2,0:0:0:0:
174,109,135015,6,0,B|139:124|98:109|98:109|116:130,1,101.999996887207,8|0,0:3|0:0,0:0:0:0:
338,109,135357,6,0,B|381:122|423:107|423:107|407:140,1,110.499994941712,8|0,0:3|0:0,0:0:0:0:
187,272,135700,6,0,B|141:281|109:265|109:265|140:304,1,118.999996368408,8|0,0:3|0:0,0:0:0:0:
325,272,136043,6,0,B|380:283|415:262|415:262|394:298,1,127.500004863739,8|0,0:3|0:0,0:0:0:0:
277,46,136386,6,0,P|288:35|303:29,1,31.8750012159348,2|0,0:0|0:0,0:0:0:0:
118,245,136729,2,0,P|103:240|91:231,1,31.8750012159348,2|0,0:0|0:0,0:0:0:0:
370,282,137072,2,0,P|374:298|372:314,1,31.8750012159348,2|0,0:0|0:0,0:0:0:0:
256,192,137415,6,0,P|238:197|242:203,3,31.1666676177979,0|0|4|0,0:0|0:0|0:3|0:0,0:0:0:0:
256,192,137757,6,0,L|258:334,1,127.5,4|0,0:0|0:0,0:0:0:0:
217,384,138100,1,8,1:0:0:0:
78,317,138272,1,0,1:0:0:0:
103,166,138443,2,0,P|106:184|105:212,1,42.5,4|0,0:1|0:0,0:0:0:0:
2,127,138615,2,0,P|-1:109|0:81,1,42.5,2|0,1:0|0:0,0:0:0:0:
59,36,138786,1,8,1:0:0:0:
31,196,138957,1,0,1:0:0:0:
183,101,139129,6,0,L|247:92,1,55.2499974708558,6|0,0:1|0:0,0:0:0:0:
326,216,139300,2,0,P|332:209|341:180,1,38.2499988327027,0|0,1:0|0:0,0:0:0:0:
197,106,139472,6,0,L|261:97,1,55.2499974708558,12|0,0:1|0:0,0:0:0:0:
340,221,139643,2,0,P|346:214|355:185,1,38.2499988327027,0|0,1:0|0:0,0:0:0:0:
211,111,139815,6,0,L|275:102,1,55.2499974708558,6|0,0:1|0:0,0:0:0:0:
354,226,139986,2,0,P|360:219|369:190,1,38.2499988327027,2|0,1:0|0:0,0:0:0:0:
442,115,140157,6,0,B|463:165|463:165|463:231|463:231|432:280,1,178.499994552612,8|0,0:1|0:0,0:0:0:0:
357,337,140500,6,0,P|316:308|222:345,1,140.25000428009,4|0,0:0|0:0,0:0:0:0:
175,384,140843,1,8,1:0:0:0:
224,228,141015,1,0,1:0:0:0:
65,313,141186,2,0,L|127:308,1,46.7500014266968,4|0,0:1|0:0,0:0:0:0:
87,231,141357,2,0,L|41:235,1,46.7500014266968,2|0,1:0|0:0,0:0:0:0:
17,157,141529,2,0,L|79:152,1,46.7500014266968,8|0,1:0|0:0,0:0:0:0:
158,179,141700,1,2,1:2:0:0:
193,30,141872,5,6,0:3:0:0:
322,155,142043,2,0,L|333:280,1,93.5000028533936,2|8,1:2|0:1,0:0:0:0:
428,80,142386,2,0,L|442:252,1,140.25000428009,2|0,1:2|0:0,0:0:0:0:
401,301,142729,1,6,0:3:0:0:
218,285,142900,6,0,P|258:220|330:247,1,165.749992412568,8|0,1:0|0:0,0:0:0:0:
218,285,143243,6,0,B|170:276|170:276|78:289,1,140.25000428009,4|0,0:0|0:0,0:0:0:0:
0,305,143586,1,8,1:0:0:0:
170,358,143757,1,0,1:0:0:0:
147,184,143929,2,0,L|89:193,1,46.7500014266968,4|0,0:1|0:0,0:0:0:0:
181,95,144100,2,0,L|239:104,1,46.7500014266968,2|0,1:0|0:0,0:0:0:0:
233,182,144272,1,8,1:0:0:0:
99,79,144443,1,0,1:0:0:0:
348,39,144615,6,0,L|357:103,1,55.2499974708558,4|0,0:1|0:0,0:0:0:0:
233,182,144786,2,0,P|240:188|269:197,1,38.2499988327027,0|0,1:0|0:0,0:0:0:0:
343,53,144957,6,0,L|352:117,1,55.2499974708558,12|0,0:1|0:0,0:0:0:0:
228,196,145129,2,0,P|235:202|264:211,1,38.2499988327027,0|0,1:0|0:0,0:0:0:0:
338,67,145300,6,0,L|347:131,1,55.2499974708558,6|0,0:1|0:0,0:0:0:0:
223,210,145472,2,0,P|230:216|259:225,1,38.2499988327027,2|0,1:0|0:0,0:0:0:0:
405,194,145643,6,0,P|489:212|442:290,1,178.499994552612,8|0,0:1|0:0,0:0:0:0:
388,321,145986,6,0,L|230:319,1,140.25000428009,4|0,0:0|0:0,0:0:0:0:
158,319,146329,1,8,1:0:0:0:
307,224,146500,1,0,1:0:0:0:
150,138,146672,2,0,P|144:165|151:197,1,46.7500014266968,4|0,0:1|0:0,0:0:0:0:
158,319,146843,2,0,P|184:310|208:288,1,46.7500014266968,2|0,1:0|0:0,0:0:0:0:
307,224,147015,2,0,P|286:205|255:195,1,46.7500014266968,8|0,1:0|0:0,0:0:0:0:
141,142,147186,2,0,P|135:169|142:201,1,46.7500014266968,0|0,1:0|0:0,0:0:0:0:
157,329,147357,6,0,P|185:320|211:296,1,63.75,6|0,0:3|0:0,0:0:0:0:
279,188,147700,6,0,L|385:179,1,95.6250036478044,6|0,0:3|0:0,0:0:0:0:
501,169,148043,6,0,L|373:179,1,127.5,6|0,0:3|0:0,0:0:0:0:
226,193,148386,6,0,L|287:187,2,53.125,0|0|0,0:0|0:0|0:0,0:0:0:0:
188,355,148729,6,0,L|327:344,1,114.749996498108,4|0,0:0|0:0,0:0:0:0:
392,312,149072,6,0,P|399:267|356:206,1,114.749996498108,2|0,0:1|0:0,0:0:0:0:
278,187,149415,2,0,L|163:198,1,114.749996498108,2|0,0:1|0:0,0:0:0:0:
82,175,149757,6,0,P|71:141|72:106,1,46.7500014266968,0|0,1:0|0:0,0:0:0:0:
88,164,150100,6,0,P|77:130|78:95,1,46.7500014266968,0|0,1:0|0:0,0:0:0:0:
171,119,150272,2,0,P|195:93|225:75,1,46.7500014266968,0|0,1:0|0:0,0:0:0:0:
249,166,150443,2,0,P|297:134|365:145,1,114.749996498108,2|0,0:1|0:0,0:0:0:0:
421,202,150786,2,0,B|450:162|445:121|445:121|473:144,1,114.749996498108,2|0,0:1|0:0,0:0:0:0:
512,207,151129,2,0,P|495:241|488:247,1,38.2499988327027,0|0,1:0|0:0,0:0:0:0:
352,138,151300,1,0,0:0:0:0:
379,324,151472,6,0,L|216:322,1,140.25000428009,4|0,0:0|0:0,0:0:0:0:
165,280,151815,6,0,P|154:242|198:163,1,114.749996498108,2|0,0:1|0:0,0:0:0:0:
235,236,152157,2,0,L|116:230,1,114.749996498108,2|0,0:1|0:0,0:0:0:0:
44,264,152500,6,0,L|55:323,1,46.7500014266968,0|0,1:0|0:0,0:0:0:0:
28,254,152843,6,0,L|39:313,1,46.7500014266968,0|0,1:0|0:0,0:0:0:0:
66,176,153015,2,0,L|57:130,1,46.7500014266968,0|0,1:0|0:0,0:0:0:0:
88,8,153186,2,0,L|99:67,1,46.7500014266968,2|0,0:1|0:0,0:0:0:0:
66,176,153357,1,2,1:2:0:0:
78,179,153700,1,2,1:2:0:0:
326,172,153872,6,0,B|283:157|283:157|150:178,1,165.749992412568,2|0,1:2|0:0,0:0:0:0:
124,250,154215,6,0,P|127:301|229:323,1,152.999995330811,4|0,3:0|0:0,0:0:0:0:
292,286,154557,6,0,L|415:276,1,114.749996498108,2|0,0:1|0:0,0:0:0:0:
315,201,154900,2,0,L|438:191,1,114.749996498108,2|0,0:1|0:0,0:0:0:0:
497,141,155243,6,0,L|488:92,1,46.7500014266968,0|0,1:0|0:0,0:0:0:0:
484,130,155586,6,0,L|475:81,1,46.7500014266968,0|0,1:0|0:0,0:0:0:0:
401,31,155757,2,0,L|352:40,1,46.7500014266968,0|0,1:0|0:0,0:0:0:0:
285,94,155929,2,0,P|248:106|241:28,1,127.5,2|0,0:1|0:0,0:0:0:0:
285,94,156272,2,0,P|287:182|278:241,1,127.5,2|0,0:1|0:0,0:0:0:0:
244,297,156615,2,0,L|197:303,1,42.5,0|0,1:0|0:0,0:0:0:0:
145,169,156786,6,0,L|75:178,1,59.4999981842042,0|0,0:0|0:0,0:0:0:0:
20,288,156957,6,0,L|171:267,1,140.25000428009,4|0,0:0|0:0,0:0:0:0:
244,297,157300,6,0,P|269:336|327:307,1,114.749996498108,2|0,0:1|0:0,0:0:0:0:
378,253,157643,2,0,P|410:211|458:235,1,114.749996498108,2|0,0:1|0:0,0:0:0:0:
461,289,157986,6,0,L|456:223,1,55.2499974708558,0|0,1:0|0:0,0:0:0:0:
377,103,158329,6,0,L|227:117,1,127.5,4|0,0:3|0:0,0:0:0:0:
175,82,158672,1,8,0:0:0:0:
134,86,158757,1,8,0:3:0:0:
117,123,158843,1,8,0:3:0:0:
139,157,158929,1,8,0:3:0:0:
180,156,159015,6,0,L|172:302,1,127.5,4|0,0:3|0:0,0:0:0:0:
208,356,159357,1,8,0:0:0:0:
246,370,159443,1,8,0:3:0:0:
279,347,159529,1,8,0:3:0:0:
280,306,159615,1,8,0:3:0:0:
246,283,159700,6,0,L|398:266,1,127.5,4|0,0:0|0:0,0:0:0:0:
456,254,160043,1,0,1:0:0:0:
504,108,160215,1,0,1:0:0:0:
353,135,160386,2,0,L|286:142,1,42.5,12|0,0:1|0:0,0:0:0:0:
239,45,160557,2,0,L|246:112,1,42.5,0|0,1:0|0:0,0:0:0:0:
360,146,160729,2,0,L|293:153,1,42.5,0|0,1:0|0:0,0:0:0:0:
252,222,160900,1,0,1:0:0:0:
116,136,161072,6,0,P|112:165|116:193,1,50.9999984436036,6|0,0:1|0:0,0:0:0:0:
172,310,161243,2,0,L|121:308,1,42.5,0|0,1:0|0:0,0:0:0:0:
127,148,161415,6,0,P|123:177|127:205,1,50.9999984436036,4|0,0:1|0:0,0:0:0:0:
183,322,161586,2,0,L|132:320,1,42.5,0|0,1:0|0:0,0:0:0:0:
138,160,161757,6,0,P|134:189|138:217,1,50.9999984436036,12|0,0:1|0:0,0:0:0:0:
194,334,161929,2,0,L|143:332,1,42.5,0|0,1:0|0:0,0:0:0:0:
264,275,162100,6,0,B|324:283|380:233|380:233|338:318,1,178.499994552612,0|0,0:0|0:0,0:0:0:0:
457,237,162443,6,0,P|446:189|363:159,1,127.5,4|0,0:0|0:0,0:0:0:0:
304,183,162786,1,0,1:0:0:0:
357,278,162957,1,0,1:0:0:0:
304,183,163129,2,0,L|248:189,1,42.5,12|0,0:1|0:0,0:0:0:0:
193,264,163300,2,0,L|137:270,1,42.5,0|0,1:0|0:0,0:0:0:0:
132,192,163472,2,0,L|174:187,1,42.5,0|0,1:0|0:0,0:0:0:0:
242,111,163643,2,0,L|284:106,1,42.5,0|0,1:0|0:0,0:0:0:0:
411,173,163815,5,2,1:0:0:0:
447,295,163986,2,0,L|453:243,1,50.9999984436036,4|0,0:1|0:0,0:0:0:0:
325,212,164157,5,0,1:0:0:0:
361,334,164329,2,0,L|367:282,1,50.9999984436036,4|0,0:1|0:0,0:0:0:0:
239,251,164500,5,8,1:0:0:0:
275,373,164672,2,0,L|281:321,1,50.9999984436036,4|0,0:1|0:0,0:0:0:0:
361,334,164843,6,0,L|366:283,1,50.9999984436036,0|0,1:0|0:0,0:0:0:0:
447,295,165015,2,0,L|452:244,1,50.9999984436036,0|0,1:0|0:0,0:0:0:0:
372,183,165186,6,0,P|338:127|386:20,1,178.499994552612,4|0,0:3|0:0,0:0:0:0:
431,108,165529,1,0,1:0:0:0:
262,87,165700,1,0,1:0:0:0:
93,66,165872,2,0,L|98:130,1,42.5,12|0,0:1|0:0,0:0:0:0:
195,202,166043,2,0,L|200:138,1,42.5,0|0,1:0|0:0,0:0:0:0:
262,87,166215,1,0,1:0:0:0:
119,193,166386,1,0,1:0:0:0:
286,266,166557,6,0,P|315:270|343:266,1,50.9999984436036,6|0,0:1|0:0,0:0:0:0:
455,223,166729,2,0,L|453:274,1,42.5,0|0,1:0|0:0,0:0:0:0:
298,255,166900,6,0,P|327:259|355:255,1,50.9999984436036,4|0,0:1|0:0,0:0:0:0:
467,212,167072,2,0,L|465:263,1,42.5,0|0,1:0|0:0,0:0:0:0:
310,244,167243,6,0,P|339:248|367:244,1,50.9999984436036,12|0,0:1|0:0,0:0:0:0:
479,201,167415,2,0,L|477:252,1,42.5,0|0,1:0|0:0,0:0:0:0:
382,348,167586,6,0,B|349:340|315:354|315:354|298:333|298:333|266:359|209:349,1,178.499994552612,0|0,0:0|0:0,0:0:0:0:
145,299,167929,6,0,L|151:165,1,127.5,4|0,0:0|0:0,0:0:0:0:
200,97,168272,2,0,L|266:92,1,42.5,0|0,1:0|0:0,0:0:0:0:
343,183,168443,2,0,L|296:185,1,42.5,0|0,1:0|0:0,0:0:0:0:
322,105,168615,2,0,L|388:100,1,42.5,4|0,0:1|0:0,0:0:0:0:
465,191,168786,2,0,L|418:193,1,42.5,0|0,1:0|0:0,0:0:0:0:
300,185,168957,1,0,1:0:0:0:
449,99,169129,1,0,1:0:0:0:
420,279,169300,6,0,L|349:278,1,63.75,6|0,0:3|0:0,0:0:0:0:
261,359,169643,6,0,L|356:360,1,95.6250036478044,6|0,0:3|0:0,0:0:0:0:
268,274,169986,6,0,L|140:273,1,127.5,6|0,0:3|0:0,0:0:0:0:
126,356,170329,6,0,L|191:358,2,53.125,0|0|0,0:0|0:0|0:0,0:0:0:0:
16,212,170672,6,0,L|14:54,1,140.25000428009,4|0,0:0|0:0,0:0:0:0:
72,17,171015,1,8,1:0:0:0:
137,133,171186,1,0,1:0:0:0:
211,19,171357,1,2,0:1:0:0:
72,17,171529,1,4,0:1:0:0:
137,133,171700,2,0,L|135:187,1,46.7500014266968,8|0,0:1|0:0,0:0:0:0:
146,143,172043,6,0,L|144:197,1,46.7500014266968,2|0,1:3|0:0,0:0:0:0:
238,173,172215,2,0,L|236:227,1,46.7500014266968,0|0,1:0|0:0,0:0:0:0:
162,271,172386,2,0,L|160:325,1,46.7500014266968,8|0,0:1|0:0,0:0:0:0:
254,301,172557,2,0,L|252:355,1,46.7500014266968,0|0,1:0|0:0,0:0:0:0:
327,242,172729,2,0,P|375:238|407:292,2,93.5000028533936,4|0|8,1:0|0:0|0:1,0:0:0:0:
465,317,173243,6,0,P|478:295|481:257,1,59.4999981842042,0|0,0:0|0:0,0:0:0:0:
395,128,173415,6,0,L|404:271,1,140.25000428009,4|0,0:0|0:0,0:0:0:0:
367,343,173757,1,8,1:0:0:0:
481,261,173929,1,0,1:0:0:0:
301,204,174100,1,2,0:1:0:0:
374,355,174272,1,4,0:1:0:0:
395,128,174443,2,0,P|366:107|342:103,1,59.4999981842042,8|0,0:1|0:0,0:0:0:0:
373,132,174786,6,0,P|344:111|320:107,1,59.4999981842042,2|0,1:3|0:0,0:0:0:0:
301,204,174957,2,0,P|280:232|276:257,1,59.4999981842042,0|0,1:0|0:0,0:0:0:0:
365,272,175129,2,0,P|393:292|418:297,1,59.4999981842042,8|0,0:1|0:0,0:0:0:0:
437,200,175300,2,0,P|457:171|462:147,1,59.4999981842042,0|0,1:0|0:0,0:0:0:0:
373,132,175472,5,0,1:0:0:0:
284,261,175643,1,4,0:1:0:0:
284,261,175729,1,0,0:0:0:0:
284,261,175815,1,8,0:1:0:0:
210,110,175986,2,0,L|216:168,1,46.7500014266968,0|0,1:0|0:0,0:0:0:0:
276,255,176157,6,0,L|139:251,1,110.499994941712,4|0,0:1|0:0,0:0:0:0:
323,88,176500,2,0,L|460:84,1,110.499994941712,8|0,0:1|0:0,0:0:0:0:
373,191,176843,1,2,0:1:0:0:
243,39,177015,1,4,0:1:0:0:
243,39,177100,1,0,0:0:0:0:
243,39,177186,2,0,L|178:45,1,59.4999981842042,8|0,0:1|0:0,0:0:0:0:
233,59,177529,6,0,L|168:65,1,59.4999981842042,0|0,1:0|0:0,0:0:0:0:
215,150,177700,2,0,L|150:156,1,59.4999981842042,0|0,1:0|0:0,0:0:0:0:
75,108,177872,6,0,P|61:167|106:233,1,140.25000428009,8|0,0:1|0:0,0:0:0:0:
180,242,178215,1,4,1:0:0:0:
240,68,178386,1,4,1:0:0:0:
240,68,178472,1,0,0:0:0:0:
240,68,178557,1,8,0:1:0:0:
365,179,178729,6,0,L|287:187,1,59.4999981842042
258,294,178900,6,0,L|410:280,1,140.25000428009,4|0,0:0|0:0,0:0:0:0:
474,173,179243,1,8,1:0:0:0:
333,98,179415,1,0,1:0:0:0:
407,292,179586,1,2,0:1:0:0:
484,163,179757,1,4,0:1:0:0:
484,163,179843,1,0,0:0:0:0:
484,163,179929,2,0,P|482:103|411:81,1,140.25000428009,8|0,0:1|0:0,0:0:0:0:
333,98,180272,6,0,L|185:94,1,140.25000428009,6|0,0:3|0:0,0:0:0:0:
114,124,180615,1,8,0:0:0:0:
112,159,180700,1,8,0:3:0:0:
111,194,180786,1,8,0:3:0:0:
110,229,180872,1,0,0:0:0:0:
109,264,180957,6,0,P|137:318|210:296,1,140.25000428009,6|0,0:3|0:0,0:0:0:0:
262,241,181300,1,8,0:0:0:0:
303,221,181386,1,0,0:0:0:0:
346,235,181472,1,8,0:3:0:0:
369,275,181557,1,0,0:0:0:0:
358,319,181643,6,0,B|344:160|344:160|384:174,1,191.250007295609,6|0,0:3|0:0,0:0:0:0:
