osu file format v14

[General]
AudioFilename: audio.mp3
AudioLeadIn: 0
PreviewTime: 63903
Countdown: 0
SampleSet: Soft
StackLeniency: 0.4
Mode: 0
LetterboxInBreaks: 0
WidescreenStoryboard: 0

[Editor]
DistanceSpacing: 1.2
BeatDivisor: 4
GridSize: 4
TimelineZoom: 1.4

[Metadata]
Title:Main Theme - Dubstep Remix
TitleUnicode:Main Theme - Dubstep Remix
Artist:Lucas Fader
ArtistUnicode:Lucas Fader
Creator:Strategas
Version:Normal: Dingodile
Source:Crash Bandicoot 3 Warped
Tags:sony playstation drum and bass drumstep dubstep game Universal Interactive Studios My Angel Azusa sahuang
BeatmapID:1328721
BeatmapSetID:588976

[Difficulty]
HPDrainRate:4
CircleSize:3
OverallDifficulty:4.5
ApproachRate:5.5
SliderMultiplier:1.4
SliderTickRate:1

[Events]
//Background and Video events
0,0,"cb3.jpg",0,0
//Break Periods
2,76877,81696
2,101651,106470
//Storyboard Layer 0 (Background)
//Storyboard Layer 1 (Fail)
//Storyboard Layer 2 (Pass)
//Storyboard Layer 3 (Foreground)
//Storyboard Sound Samples

[TimingPoints]
2355,387.096774193548,4,2,25,55,1,0
8161,-100,4,1,24,70,0,0
8548,-100,4,2,25,60,0,0
14354,-100,4,1,24,75,0,0
14742,-100,4,2,25,65,0,0
20548,-100,4,2,24,80,0,0
20935,-100,4,2,25,65,0,0
26742,-100,4,2,24,80,0,0
27129,-100,4,2,25,55,0,0
28290,-100,4,2,23,75,0,0
28677,-100,4,2,25,55,0,0
28967,-100,4,2,25,55,0,0
29161,-100,4,2,25,10,0,0
29258,-100,4,2,25,55,0,0
29838,-100,4,2,23,75,0,0
30225,-100,4,2,25,55,0,0
31387,-100,4,2,23,75,0,0
31774,-100,4,2,25,55,0,0
34484,-100,4,2,23,75,0,0
34871,-100,4,2,25,55,0,0
35064,-100,4,2,25,30,0,0
35161,-100,4,2,25,55,0,0
35354,-100,4,2,25,10,0,0
35451,-100,4,2,25,55,0,0
36032,-100,4,2,23,75,0,0
36419,-100,4,2,25,55,0,0
37580,-100,4,2,23,75,0,0
37967,-100,4,2,25,60,0,0
38354,-100,4,2,25,50,0,0
38742,-100,4,2,25,40,0,0
39129,-100,4,2,25,30,0,0
39516,-100,4,2,25,60,0,0
39709,-100,4,2,25,30,0,0
39806,-100,4,2,25,60,0,0
40000,-100,4,2,25,20,0,0
40096,-100,4,2,25,60,0,0
40290,-100,4,2,22,60,0,0
40871,-100,4,2,25,60,0,0
41258,-100,4,2,25,30,0,0
41354,-100,4,2,25,60,0,0
41548,-100,4,2,25,10,0,0
41645,-100,4,2,25,60,0,0
41838,-100,4,2,26,50,0,0
41935,-100,4,2,26,5,0,0
42032,-100,4,2,26,35,0,0
42129,-100,4,2,26,5,0,0
42225,-100,4,2,26,50,0,0
42322,-100,4,2,26,5,0,0
42419,-100,4,2,26,35,0,0
42516,-100,4,2,26,5,0,0
42613,-100,4,2,25,60,0,0
42806,-100,4,2,25,30,0,0
42903,-100,4,2,25,60,0,0
43096,-100,4,2,25,30,0,0
43193,-100,4,2,25,60,0,0
43387,-100,4,2,22,60,0,0
43967,-100,4,2,25,60,0,0
45709,-100,4,2,25,65,0,0
47451,-100,4,2,25,30,0,0
47548,-100,4,2,25,65,0,0
47742,-100,4,2,25,30,0,0
47838,-100,4,2,25,65,0,0
49000,-100,4,2,23,65,0,0
49193,-100,4,2,25,70,0,0
49387,-100,4,2,23,70,0,0
49580,-100,4,2,25,75,0,0
49774,-100,4,2,23,75,0,0
49967,-100,4,2,25,80,0,0
50161,-100,4,2,23,80,0,0
50354,-100,4,2,25,40,0,0
51903,-100,4,2,25,70,0,1
52290,-100,4,1,26,70,0,1
52580,-100,4,2,26,30,0,1
52677,-100,4,1,26,50,0,1
52774,-100,4,2,26,30,0,1
52871,-100,4,1,26,70,0,1
52967,-100,4,2,26,30,0,1
53064,-100,4,1,26,70,0,1
53161,-100,4,2,26,30,0,1
53258,-100,4,1,26,70,0,1
53354,-100,4,2,26,30,0,1
53451,-100,4,1,26,50,0,1
53548,-100,4,2,26,30,0,1
53645,-100,4,1,26,70,0,1
53742,-100,4,2,26,30,0,1
53838,-100,4,1,26,50,0,1
53935,-100,4,2,26,30,0,1
54032,-100,4,1,26,70,0,1
54129,-100,4,2,26,30,0,1
54225,-100,4,1,26,50,0,1
54322,-100,4,2,26,30,0,1
54419,-100,4,1,26,70,0,1
54516,-100,4,2,26,30,0,1
54613,-100,4,1,21,70,0,1
54903,-100,4,2,26,30,0,1
55000,-100,4,1,26,70,0,1
55290,-100,4,2,26,30,0,1
55387,-100,4,1,26,70,0,1
55484,-100,4,2,26,30,0,1
55580,-100,4,1,26,70,0,1
55677,-100,4,2,26,30,0,1
55774,-100,4,1,26,50,0,1
55871,-100,4,2,26,30,0,1
55967,-100,4,1,26,70,0,1
56064,-100,4,2,26,30,0,1
56161,-100,4,1,26,70,0,1
56258,-100,4,2,26,30,0,1
56354,-100,4,1,25,70,0,1
57709,-100,4,1,24,85,0,1
58096,-100,4,1,25,70,0,1
58387,-100,4,2,26,30,0,1
58483,-100,4,1,26,70,0,1
58580,-100,4,2,26,30,0,1
58677,-100,4,1,26,70,0,1
58774,-100,4,2,26,30,0,1
58870,-100,4,1,26,50,0,1
58967,-100,4,2,26,30,0,1
59064,-100,4,1,26,70,0,1
59161,-100,4,2,26,30,0,1
59258,-100,4,1,26,70,0,1
59354,-100,4,2,26,30,0,1
59451,-100,4,1,26,70,0,1
59548,-100,4,2,26,30,0,1
59644,-100,4,1,26,50,0,1
59742,-100,4,2,26,30,0,1
59838,-100,4,1,26,70,0,1
59935,-100,4,2,26,30,0,1
60031,-100,4,1,26,50,0,1
60129,-100,4,2,26,30,0,1
60225,-100,4,1,26,70,0,1
60322,-100,4,2,26,30,0,1
60418,-100,4,1,26,50,0,1
60516,-100,4,2,26,30,0,1
60612,-100,4,1,26,70,0,1
60709,-100,4,2,26,30,0,1
60806,-100,4,1,21,70,0,1
61096,-100,4,2,26,30,0,1
61193,-100,4,1,26,70,0,1
61484,-100,4,2,26,30,0,1
61580,-100,4,1,26,70,0,1
61677,-100,4,2,26,30,0,1
61774,-100,4,1,26,70,0,1
61871,-100,4,2,26,30,0,1
61967,-100,4,1,26,50,0,1
62064,-100,4,2,26,30,0,1
62161,-100,4,1,26,70,0,1
62258,-100,4,2,26,30,0,1
62354,-100,4,1,26,70,0,1
62451,-100,4,2,26,30,0,1
62548,-100,4,1,26,70,0,1
62645,-100,4,2,26,30,0,1
62742,-100,4,2,25,40,0,0
63032,-100,4,2,25,20,0,0
63129,-100,4,2,25,55,0,0
63419,-100,4,2,25,25,0,0
63516,-100,4,2,25,70,0,0
63806,-100,4,2,25,30,0,0
63903,-100,4,2,25,20,0,0
64193,-100,4,2,25,5,0,0
64290,-100,4,2,25,60,0,0
64677,-100,4,2,20,45,0,0
65451,-100,4,2,20,60,0,0
66225,-100,4,2,20,45,0,0
66999,-100,4,2,20,60,0,0
67193,-100,4,2,20,60,0,0
67387,-100,4,2,20,60,0,0
67774,-100,4,2,20,45,0,0
68548,-100,4,2,20,60,0,0
69516,-100,4,2,25,60,0,0
70484,-100,4,2,21,60,0,0
70871,-100,4,2,20,35,0,0
71645,-100,4,2,20,60,0,0
72419,-100,4,2,20,35,0,0
73193,-100,4,2,20,60,0,0
73387,-100,4,2,20,60,0,0
73580,-100,4,2,20,60,0,0
73967,-100,4,2,20,35,0,0
74741,-100,4,2,20,60,0,0
75129,-100,4,2,21,60,0,0
76774,-100,4,2,21,20,0,0
79774,-100,4,2,25,30,0,0
81225,-100,4,2,25,5,0,0
81322,-100,4,2,25,40,0,0
82774,-100,4,2,25,10,0,0
82871,-100,4,2,25,45,0,0
83064,-100,4,2,25,10,0,0
83161,-100,4,2,25,45,0,0
83354,-100,4,2,25,10,0,0
83451,-100,4,2,25,45,0,0
83645,-100,4,2,25,10,0,0
83742,-100,4,2,25,45,0,0
83935,-100,4,2,25,10,0,0
84032,-100,4,2,25,45,0,0
84225,-100,4,2,25,10,0,0
84419,-100,4,2,25,50,0,0
84613,-100,4,2,25,10,0,0
84709,-100,4,2,25,50,0,0
84903,-100,4,2,25,10,0,0
85000,-100,4,2,25,50,0,0
85193,-100,4,2,25,10,0,0
85290,-100,4,2,25,50,0,0
85484,-100,4,2,25,10,0,0
85580,-100,4,2,25,50,0,0
85774,-100,4,2,25,10,0,0
85967,-100,4,2,25,55,0,0
87516,-100,4,2,21,60,0,0
89064,-100,4,2,25,60,0,0
91580,-100,4,2,25,80,0,0
92161,-100,4,2,25,60,0,0
94677,-100,4,2,25,80,0,0
95258,-100,4,2,25,60,0,0
97774,-100,4,2,25,80,0,0
98354,-100,4,2,25,60,0,0
100290,-100,4,2,25,70,0,0
100677,-100,4,2,25,75,0,0
101451,-100,4,2,25,40,0,0
104548,-100,4,2,25,52,0,0
107645,-100,4,2,25,60,0,0
113451,-100,4,2,24,60,0,0
113838,-100,4,2,25,55,0,0
115000,-100,4,2,23,75,0,0
115387,-100,4,2,25,55,0,0
116548,-100,4,2,23,75,0,0
116935,-100,4,2,25,55,0,0
118096,-100,4,2,23,75,0,0
118484,-100,4,2,25,55,0,0
121193,-100,4,2,23,75,0,0
121580,-100,4,2,25,55,0,0
122742,-100,4,2,23,75,0,0
123129,-100,4,2,25,55,0,0
124290,-100,4,2,23,75,0,0
124677,-100,4,2,25,60,0,0
125064,-100,4,2,25,50,0,0
125451,-100,4,2,25,40,0,0
125838,-100,4,2,25,30,0,0
126225,-100,4,2,25,60,0,0
127000,-100,4,2,22,60,0,0
127774,377.358490566038,4,2,25,60,1,0
128528,-100,4,2,26,30,0,0
128717,-100,4,2,26,50,0,0
128906,-100,4,2,26,30,0,0
129094,-100,4,2,26,50,0,0
129283,368.098159509202,4,2,25,60,1,0
130019,-100,4,2,22,50,0,0
130571,-100,4,2,25,50,0,0
130755,361.44578313253,4,2,25,60,1,0
132200,355.029585798817,4,2,25,60,1,0
133620,348.837209302326,4,2,25,60,1,0
135015,342.857142857143,4,2,23,60,1,0
137757,-100,4,2,26,70,0,1
138100,-100,4,2,26,70,0,1
138186,-100,4,2,26,30,0,1
138272,-100,4,2,26,70,0,1
138357,-100,4,2,26,30,0,1
138443,-100,4,2,26,50,0,1
138529,-100,4,2,26,30,0,1
138615,-100,4,2,26,70,0,1
138700,-100,4,2,26,30,0,1
138786,-100,4,2,26,70,0,1
138872,-100,4,2,26,30,0,1
138957,-100,4,2,26,70,0,1
139043,-100,4,2,26,30,0,1
139129,-100,4,2,26,50,0,1
139215,-100,4,2,26,30,0,1
139300,-100,4,2,26,70,0,1
139386,-100,4,2,26,30,0,1
139472,-100,4,2,26,50,0,1
139557,-100,4,2,26,30,0,1
139643,-100,4,2,26,70,0,1
139729,-100,4,2,26,30,0,1
139815,-100,4,2,26,50,0,1
139900,-100,4,2,26,30,0,1
139986,-100,4,2,26,70,0,1
140072,-100,4,2,26,30,0,1
140157,-100,4,2,21,80,0,1
140500,-100,4,2,26,70,0,1
140757,-100,4,2,26,30,0,1
140843,-100,4,2,26,70,0,1
140929,-100,4,2,26,30,0,1
141015,-100,4,2,26,70,0,1
141100,-100,4,2,26,30,0,1
141186,-100,4,2,26,50,0,1
141272,-100,4,2,26,30,0,1
141357,-100,4,2,26,70,0,1
141443,-100,4,2,26,30,0,1
141529,-100,4,2,26,70,0,1
141615,-100,4,2,26,30,0,1
141700,-100,4,2,25,70,0,1
142900,-100,4,2,24,70,0,1
143243,-100,4,2,26,70,0,1
143500,-100,4,2,26,30,0,1
143586,-100,4,2,26,70,0,1
143672,-100,4,2,26,30,0,1
143757,-100,4,2,26,70,0,1
143843,-100,4,2,26,30,0,1
143929,-100,4,2,26,50,0,1
144015,-100,4,2,26,30,0,1
144100,-100,4,2,26,70,0,1
144186,-100,4,2,26,30,0,1
144272,-100,4,2,26,70,0,1
144357,-100,4,2,26,30,0,1
144443,-100,4,2,26,70,0,1
144529,-100,4,2,26,30,0,1
144615,-100,4,2,26,50,0,1
144700,-100,4,2,26,30,0,1
144786,-100,4,2,26,70,0,1
144872,-100,4,2,26,30,0,1
144957,-100,4,2,26,50,0,1
145043,-100,4,2,26,30,0,1
145129,-100,4,2,26,70,0,1
145215,-100,4,2,26,30,0,1
145300,-100,4,2,26,50,0,1
145386,-100,4,2,26,30,0,1
145472,-100,4,2,26,70,0,1
145557,-100,4,2,26,30,0,1
145643,-100,4,2,21,80,0,1
145986,-100,4,2,26,70,0,1
146243,-100,4,2,26,30,0,1
146329,-100,4,2,26,70,0,1
146415,-100,4,2,26,30,0,1
146500,-100,4,2,26,70,0,1
146586,-100,4,2,26,30,0,1
146672,-100,4,2,26,50,0,1
146757,-100,4,2,26,30,0,1
146843,-100,4,2,26,70,0,1
146929,-100,4,2,26,30,0,1
147015,-100,4,2,26,70,0,1
147100,-100,4,2,26,30,0,1
147186,-100,4,2,26,70,0,1
147272,-100,4,2,26,30,0,1
147357,-100,4,2,25,40,0,0
147615,-100,4,2,25,5,0,0
147700,-100,4,2,25,55,0,0
147957,-100,4,2,25,5,0,0
148043,-100,4,2,25,70,0,0
148300,-100,4,2,25,5,0,0
148386,-100,4,2,25,60,0,0
148643,-100,4,2,25,5,0,0
148729,-100,4,2,26,60,0,0
149072,-100,4,2,20,35,0,0
149757,-100,4,2,20,60,0,0
150443,-100,4,2,20,35,0,0
151128,-100,4,2,20,60,0,0
151300,-100,4,2,20,60,0,0
151472,-100,4,2,20,60,0,0
151815,-100,4,2,20,35,0,0
152500,-100,4,2,20,60,0,0
153357,-100,4,2,25,50,0,0
154215,-100,4,2,21,60,0,0
154557,-100,4,2,20,35,0,0
155242,-100,4,2,20,60,0,0
155929,-100,4,2,20,35,0,0
156614,-100,4,2,20,60,0,0
156786,-100,4,2,20,60,0,0
156957,-100,4,2,20,60,0,0
157300,-100,4,2,20,35,0,0
157985,-100,4,2,20,60,0,0
158329,-100,4,2,21,60,0,0
159700,-100,4,2,26,60,0,0
160043,-100,4,2,26,60,0,0
160129,-100,4,2,26,25,0,0
160215,-100,4,2,26,60,0,0
160300,-100,4,2,26,25,0,0
160386,-100,4,2,26,40,0,0
160472,-100,4,2,26,25,0,0
160557,-100,4,2,26,60,0,0
160643,-100,4,2,26,25,0,0
160729,-100,4,2,26,60,0,0
160815,-100,4,2,26,25,0,0
160900,-100,4,2,26,60,0,0
160986,-100,4,2,26,25,0,0
161072,-100,4,2,26,40,0,0
161157,-100,4,2,26,25,0,0
161243,-100,4,2,26,60,0,0
161329,-100,4,2,26,25,0,0
161415,-100,4,2,26,40,0,0
161500,-100,4,2,26,25,0,0
161586,-100,4,2,26,60,0,0
161672,-100,4,2,26,25,0,0
161757,-100,4,2,26,40,0,0
161843,-100,4,2,26,25,0,0
161929,-100,4,2,26,60,0,0
162015,-100,4,2,26,25,0,0
162100,-100,4,2,21,60,0,0
162443,-100,4,2,26,60,0,0
162700,-100,4,2,26,25,0,0
162786,-100,4,2,26,60,0,0
162872,-100,4,2,26,25,0,0
162957,-100,4,2,26,60,0,0
163043,-100,4,2,26,25,0,0
163129,-100,4,2,26,40,0,0
163215,-100,4,2,26,25,0,0
163300,-100,4,2,26,60,0,0
163386,-100,4,2,26,25,0,0
163472,-100,4,2,26,60,0,0
163557,-100,4,2,26,25,0,0
163643,-100,4,2,26,60,0,0
163729,-100,4,2,26,25,0,0
163815,-100,4,2,26,60,0,0
163900,-100,4,2,26,25,0,0
163986,-100,4,2,26,40,0,0
164072,-100,4,2,26,25,0,0
164157,-100,4,2,26,60,0,0
164243,-100,4,2,26,25,0,0
164329,-100,4,2,26,40,0,0
164415,-100,4,2,26,25,0,0
164500,-100,4,2,26,60,0,0
164586,-100,4,2,26,25,0,0
164672,-100,4,2,26,40,0,0
164757,-100,4,2,26,25,0,0
164843,-100,4,2,19,60,0,0
164929,-100,4,2,26,25,0,0
165015,-100,4,2,19,60,0,0
165100,-100,4,2,26,25,0,0
165186,-100,4,2,21,60,0,0
165529,-100,4,2,26,60,0,0
165615,-100,4,2,26,25,0,0
165700,-100,4,2,26,60,0,0
165786,-100,4,2,26,25,0,0
165872,-100,4,2,26,40,0,0
165957,-100,4,2,26,25,0,0
166043,-100,4,2,26,60,0,0
166129,-100,4,2,26,25,0,0
166215,-100,4,2,26,60,0,0
166300,-100,4,2,26,25,0,0
166386,-100,4,2,26,60,0,0
166472,-100,4,2,26,25,0,0
166557,-100,4,2,26,40,0,0
166643,-100,4,2,26,25,0,0
166729,-100,4,2,26,60,0,0
166815,-100,4,2,26,25,0,0
166900,-100,4,2,26,40,0,0
166986,-100,4,2,26,25,0,0
167072,-100,4,2,26,60,0,0
167157,-100,4,2,26,25,0,0
167243,-100,4,2,26,40,0,0
167329,-100,4,2,26,25,0,0
167415,-100,4,2,26,60,0,0
167500,-100,4,2,26,25,0,0
167586,-100,4,2,21,60,0,0
167929,-100,4,2,26,60,0,0
168186,-100,4,2,26,25,0,0
168272,-100,4,2,26,60,0,0
168357,-100,4,2,26,25,0,0
168443,-100,4,2,26,60,0,0
168529,-100,4,2,26,25,0,0
168615,-100,4,2,26,40,0,0
168700,-100,4,2,26,25,0,0
168786,-100,4,2,26,60,0,0
168872,-100,4,2,26,25,0,0
168957,-100,4,2,26,60,0,0
169043,-100,4,2,26,25,0,0
169129,-100,4,2,26,60,0,0
169215,-100,4,2,26,25,0,0
169300,-100,4,2,25,60,0,0
169557,-100,4,2,25,15,0,0
169643,-100,4,2,25,60,0,0
169900,-100,4,2,25,5,0,0
169986,-100,4,2,25,60,0,0
170243,-100,4,2,25,10,0,0
170329,-100,4,2,25,60,0,0
170586,-100,4,2,25,5,0,0
170672,-100,4,2,26,70,0,1
170929,-100,4,2,26,30,0,1
171015,-100,4,2,19,70,0,1
171100,-100,4,2,26,30,0,1
171186,-100,4,2,19,70,0,1
171272,-100,4,2,26,30,0,1
171357,-100,4,2,19,70,0,1
171615,-100,4,2,26,30,0,1
171700,-100,4,2,19,70,0,1
172043,-100,4,2,20,70,0,1
172086,-100,4,2,26,30,0,1
172215,-100,4,2,20,70,0,1
172257,-100,4,2,26,30,0,1
172386,-100,4,2,20,70,0,1
172557,-100,4,2,19,70,0,1
172643,-100,4,2,26,30,0,1
172729,-100,4,2,19,70,0,1
172815,-100,4,2,26,30,0,1
172900,-100,4,2,19,70,0,1
172986,-100,4,2,26,30,0,1
173072,-100,4,2,19,70,0,1
173243,-100,4,2,20,70,0,1
173329,-100,4,2,26,30,0,1
173415,-100,4,2,19,70,0,1
173672,-100,4,2,26,30,0,1
173757,-100,4,2,19,70,0,1
173843,-100,4,2,26,30,0,1
173929,-100,4,2,19,70,0,1
174015,-100,4,2,26,30,0,1
174100,-100,4,2,19,70,0,1
174357,-100,4,2,26,30,0,1
174443,-100,4,2,19,70,0,1
174786,-100,4,2,20,70,0,1
174829,-100,4,2,26,30,0,1
174957,-100,4,2,20,70,0,1
175000,-100,4,2,26,30,0,1
175129,-100,4,2,20,70,0,1
175300,-100,4,2,19,70,0,1
175386,-100,4,2,26,30,0,1
175472,-100,4,2,19,70,0,1
175557,-100,4,2,26,30,0,1
175643,-100,4,2,19,70,0,1
175729,-100,4,2,26,30,0,1
175815,-100,4,2,19,70,0,1
176072,-100,4,2,26,30,0,1
176157,-100,4,2,19,70,0,1
176415,-100,4,2,26,30,0,1
176500,-100,4,2,19,70,0,1
176757,-100,4,2,26,30,0,1
176843,-100,4,2,19,70,0,1
177100,-100,4,2,26,30,0,1
177186,-100,4,2,19,70,0,1
177529,-100,4,2,20,70,0,1
177572,-100,4,2,26,30,0,1
177700,-100,4,2,20,70,0,1
177743,-100,4,2,26,30,0,1
177872,-100,4,2,20,70,0,1
178129,-100,4,2,26,30,0,1
178215,-100,4,2,19,70,0,1
178300,-100,4,2,26,30,0,1
178386,-100,4,2,19,70,0,1
178472,-100,4,2,26,30,0,1
178557,-100,4,2,19,70,0,1
178729,-100,4,2,20,70,0,1
178815,-100,4,2,26,30,0,1
178900,-100,4,2,19,70,0,1
179157,-100,4,2,26,30,0,1
179243,-100,4,2,19,70,0,1
179329,-100,4,2,26,30,0,1
179415,-100,4,2,19,70,0,1
179500,-100,4,2,26,30,0,1
179586,-100,4,2,19,70,0,1
179843,-100,4,2,26,30,0,1
179929,-100,4,2,19,70,0,1
180272,-100,4,2,20,70,0,1
181643,-100,4,2,20,70,0,0
181900,-100,4,2,21,40,0,0

[Colours]
Combo1 : 255,207,64
Combo2 : 64,255,64
Combo3 : 64,150,255
Combo4 : 244,74,100

[HitObjects]
180,176,2355,6,0,B|245:162|245:162|330:177,2,140,0|8|0,0:0|0:1|0:0,0:0:0:0:
103,210,3322,1,2,0:3:0:0:
103,210,3516,1,8,0:1:0:0:
247,296,3903,6,0,B|182:310|182:310|97:295,2,140,2|8|0,0:3|0:1|0:0,0:0:0:0:
324,262,4871,1,2,0:3:0:0:
324,262,5064,1,8,0:1:0:0:
180,176,5451,6,0,B|245:162|245:162|330:177,2,140,2|8|0,0:3|0:1|0:0,0:0:0:0:
103,210,6419,1,2,0:3:0:0:
103,210,6613,6,0,B|96:173|96:173|108:121,1,70,8|2,0:1|0:3,0:0:0:0:
171,92,7000,2,0,B|178:55|178:55|166:3,1,70,2|2,1:3|1:2,0:0:0:0:
93,56,7387,1,8,0:1:0:0:
93,56,7580,1,6,1:3:0:0:
266,62,7967,1,6,1:3:0:0:
266,62,8161,1,8,1:0:0:0:
190,213,8548,6,0,P|259:191|342:210,1,140,6|8,0:3|0:1,0:0:0:0:
378,266,9129,2,0,L|364:341,2,70,2|2|2,0:0|0:0|0:3,0:0:0:0:
456,237,9709,1,8,0:1:0:0:
293,279,10096,6,0,P|224:301|141:282,1,140,2|8,0:3|0:1,0:0:0:0:
105,226,10677,2,0,L|119:151,2,70,2|2|2,0:0|0:0|0:3,0:0:0:0:
27,255,11258,1,8,0:1:0:0:
190,213,11645,6,0,P|259:235|342:216,1,140,2|8,0:3|0:1,0:0:0:0:
378,160,12225,2,0,L|364:85,2,70,2|2|2,0:0|0:0|0:3,0:0:0:0:
459,179,12806,6,0,L|473:258,1,70,8|2,0:1|0:3,0:0:0:0:
417,312,13193,2,0,L|348:324,1,70,2|2,1:3|1:2,0:0:0:0:
272,287,13580,1,8,0:1:0:0:
272,287,13774,1,6,1:3:0:0:
378,160,14161,1,6,1:3:0:0:
378,160,14354,1,8,1:0:0:0:
219,104,14742,5,6,0:3:0:0:
58,152,15129,2,0,P|45:188|49:227,1,70,8|2,0:1|0:0,0:0:0:0:
128,199,15516,2,0,P|140:166|139:131,1,70,2|2,0:0|0:3,0:0:0:0:
81,70,15903,1,8,0:1:0:0:
248,69,16290,5,2,0:3:0:0:
296,230,16677,2,0,P|332:243|371:239,1,70,8|2,0:1|0:0,0:0:0:0:
343,160,17064,2,0,P|310:147|275:148,1,70,2|2,0:0|0:3,0:0:0:0:
214,207,17451,1,8,0:1:0:0:
50,169,17838,5,2,0:3:0:0:
98,330,18225,2,0,P|134:343|173:339,1,70,8|2,0:1|0:0,0:0:0:0:
145,260,18613,2,0,P|112:247|77:248,1,70,2|2,0:0|0:3,0:0:0:0:
16,306,19000,6,0,P|-1:274|-4:239,1,70,8|2,0:1|0:3,0:0:0:0:
42,170,19387,2,0,P|59:138|62:103,1,70,2|2,1:3|1:2,0:0:0:0:
32,26,19774,1,8,0:1:0:0:
32,26,19967,1,6,1:3:0:0:
199,43,20354,1,6,1:3:0:0:
199,43,20548,1,8,1:0:0:0:
319,160,20935,6,0,B|334:227|334:227|324:314,1,140,6|8,0:3|0:1,0:0:0:0:
254,342,21516,2,0,L|156:329,1,70,2|2,0:0|0:0,0:0:0:0:
125,273,21903,1,2,0:3:0:0:
125,273,22096,1,8,0:1:0:0:
101,106,22484,6,0,B|168:91|168:91|255:101,1,140,2|8,0:3|0:1,0:0:0:0:
283,171,23064,2,0,L|270:269,1,70,2|2,0:0|0:0,0:0:0:0:
214,300,23451,1,2,0:3:0:0:
214,300,23645,1,8,0:1:0:0:
48,330,24032,6,0,B|33:263|33:263|43:176,1,140,2|8,0:3|0:1,0:0:0:0:
113,149,24613,2,0,L|211:162,1,70,2|2,0:0|0:0,0:0:0:0:
250,217,25000,1,2,0:3:0:0:
250,217,25193,6,0,B|256:253|256:253|247:302,2,70,8|2|2,0:1|0:3|1:3,0:0:0:0:
316,165,25774,2,0,L|414:178,1,70,2|8,1:2|0:1,0:0:0:0:
467,190,26161,1,6,1:3:0:0:
510,27,26548,1,6,1:3:0:0:
510,27,26742,1,8,1:0:0:0:
342,39,27129,6,0,B|247:29|295:57|187:42,1,140,2|0,0:3|0:0,0:0:0:0:
119,39,27709,1,2,0:3:0:0:
119,39,27903,1,8,0:1:0:0:
168,199,28290,1,2,0:3:0:0:
326,142,28677,6,0,B|379:140|379:140|453:167,2,105,2|2|2,0:3|0:3|0:3,0:0:0:0:
265,200,29451,2,0,P|251:273|298:337,1,140,8|2,0:1|0:3,0:0:0:0:
428,242,30225,5,6,0:3:0:0:
434,73,30613,1,2,0:0:0:0:
265,67,31000,1,8,0:1:0:0:
259,236,31387,1,10,0:3:0:0:
90,230,31774,5,6,0:3:0:0:
96,61,32161,1,6,0:3:0:0:
265,67,32548,1,8,0:1:0:0:
259,236,32935,1,2,0:3:0:0:
425,241,33322,6,0,B|435:146|407:194|422:86,1,140,2|0,0:3|0:0,0:0:0:0:
425,18,33903,1,2,0:3:0:0:
425,18,34096,1,8,0:1:0:0:
265,67,34484,1,2,0:3:0:0:
322,225,34871,6,0,B|324:278|324:278|297:352,2,105,2|2|2,0:3|0:3|0:3,0:0:0:0:
264,164,35645,2,0,P|191:150|127:197,1,140,8|2,0:1|0:3,0:0:0:0:
223,326,36419,5,2,0:3:0:0:
392,327,36806,1,2,0:0:0:0:
398,163,37193,1,8,0:1:0:0:
229,157,37580,1,10,0:3:0:0:
61,153,37967,6,0,B|46:222|46:222|65:289,3,140,2|2|2|2,0:0|0:0|0:0|0:0,0:0:0:0:
216,214,39516,6,0,P|269:208|327:221,2,105,2|2|2,0:3|0:0|0:0,0:0:0:0:
140,250,40290,1,2,0:0:0:0:
140,250,40484,1,4,0:0:0:0:
355,119,41064,6,0,P|302:125|244:112,2,105,2|2|2,0:3|0:0|0:0,0:0:0:0:
428,78,41838,2,0,B|462:69|462:69|505:80,1,70,0|4,1:0|0:1,0:0:0:0:
493,161,42225,2,0,B|459:170|459:170|416:159,1,70,0|4,1:0|0:1,0:0:0:0:
355,119,42613,6,0,P|338:75|296:32,2,105,2|2|2,0:3|0:0|0:0,0:0:0:0:
355,209,43387,1,2,0:0:0:0:
355,209,43580,1,4,0:0:0:0:
220,309,43967,6,0,B|185:318|185:318|152:310,2,70,2|2|2,0:2|0:3|0:2,0:0:0:0:
274,149,44742,2,0,B|231:133|231:133|115:152,1,140,6|6,1:3|1:3,0:0:0:0:
56,164,45322,1,2,1:2:0:0:
215,217,45709,6,0,P|272:235|332:216,2,105,2|2|2,0:3|0:0|0:0,0:0:0:0:
147,267,46484,2,0,P|90:285|30:266,2,105,2|2|2,0:3|0:0|0:0,0:0:0:0:
138,183,47258,6,0,P|120:126|139:66,2,105,2|2|2,0:3|0:0|0:0,0:0:0:0:
215,217,48032,2,0,P|230:273|201:336,2,105,2|2|2,0:3|0:0|0:0,0:0:0:0:
147,266,48806,5,2,0:3:0:0:
314,256,49193,1,2,0:3:0:0:
315,88,49580,2,0,L|225:90,1,70,2|2,0:3|0:3,0:0:0:0:
160,92,49967,2,0,L|70:94,1,70,2|2,0:3|0:3,0:0:0:0:
5,96,50354,1,2,0:0:0:0:
140,129,51903,6,0,B|188:121|188:121|205:113|205:113|290:103,1,140,4|8,0:1|0:1,0:0:0:0:
342,258,52677,2,0,L|252:271,1,70,4|2,2:1|0:0,0:0:0:0:
189,278,53064,1,8,0:0:0:0:
31,218,53451,6,0,L|18:128,1,70,6|0,2:1|0:0,0:0:0:0:
78,87,53838,2,0,L|168:74,1,70,12|0,2:1|0:0,0:0:0:0:
209,133,54225,1,6,2:1:0:0:
217,216,54419,1,0,0:0:0:0:
225,299,54613,1,8,0:0:0:0:
296,146,55000,6,0,P|277:77|200:44,1,140,4|8,3:0|0:0,0:0:0:0:
77,132,55774,2,0,L|91:216,1,70,4|2,2:1|0:0,0:0:0:0:
108,282,56161,1,8,0:0:0:0:
267,230,56548,2,0,B|335:215|335:215|408:227,1,140,6|8,0:3|0:0,0:0:0:0:
260,312,57322,1,6,0:3:0:0:
190,265,57516,1,6,0:3:0:0:
198,181,57709,1,8,0:0:0:0:
90,52,58096,6,0,B|82:100|82:100|74:117|74:117|64:202,1,140,4|8,3:0|0:0,0:0:0:0:
116,349,58871,2,0,L|206:362,1,70,4|2,2:1|0:0,0:0:0:0:
268,370,59258,1,8,0:0:0:0:
385,250,59645,6,0,L|398:160,1,70,6|0,2:1|0:0,0:0:0:0:
338,119,60032,2,0,L|248:106,1,70,12|0,2:1|0:0,0:0:0:0:
207,165,60419,1,6,2:1:0:0:
199,248,60613,1,2,0:0:0:0:
191,331,60806,1,8,0:0:0:0:
358,320,61193,6,0,P|339:251|262:218,1,140,4|8,3:0|0:0,0:0:0:0:
115,203,61967,2,0,L|101:119,1,70,4|2,2:1|0:0,0:0:0:0:
87,51,62354,1,8,0:0:0:0:
255,58,62742,5,4,0:3:0:0:
201,217,63129,1,4,0:3:0:0:
365,184,63516,1,4,0:3:0:0:
35,120,64290,5,4,0:0:0:0:
202,116,64677,2,0,B|208:171|208:171|204:184|204:184|209:196|209:196|214:258,2,140,2|10|0,0:1|1:0|1:0,0:0:0:0:
347,30,65838,2,0,B|356:64|356:64|354:109,1,70,2|0,1:3|1:0,0:0:0:0:
292,155,66225,2,0,B|296:213|296:213|301:225|301:225|297:238|297:238|302:292,2,140,2|10|0,0:1|0:1|1:0,0:0:0:0:
198,15,67387,5,2,0:3:0:0:
137,171,67774,2,0,B|82:176|82:176|69:172|69:172|57:177|57:177|-4:182,2,140,2|2|0,0:1|0:1|1:0,0:0:0:0:
287,245,68935,2,0,B|321:246|321:246|355:237,1,70,2|0,1:3|1:0,0:0:0:0:
394,163,69322,2,0,B|428:161|428:161|462:170,2,70,2|2|8,0:1|1:2|0:1,0:0:0:0:
309,160,69903,1,2,1:2:0:0:
309,160,70096,1,2,1:2:0:0:
155,91,70484,6,0,B|146:145|146:145|154:171|154:171|142:252,1,140,4|2,0:1|0:1,0:0:0:0:
40,359,71258,2,0,L|64:196,1,140,2|0,0:1|1:0,0:0:0:0:
215,154,72032,2,0,B|246:147|246:147|305:162,1,70,2|0,1:3|1:0,0:0:0:0:
326,228,72419,2,0,B|320:283|320:283|324:296|324:296|318:309|318:309|311:370,2,140,2|2|0,0:1|0:1|1:0,0:0:0:0:
349,61,73580,5,2,0:3:0:0:
183,31,73967,2,0,B|128:25|128:25|115:29|115:29|102:23|102:23|41:16,2,140,2|2|0,0:1|0:1|1:0,0:0:0:0:
249,185,75129,6,0,B|240:239|240:239|248:265|248:265|236:346,1,140,4|8,3:0|0:0,0:0:0:0:
72,341,75903,2,0,B|80:283|80:283|72:257|72:257|81:203,1,140,4|8,3:0|0:0,0:0:0:0:
96,36,76677,5,4,0:0:0:0:
250,96,82871,6,0,B|301:82|301:82|375:101,2,105,2|2|2,0:0|2:0|0:0,0:0:0:0:
139,157,83742,2,0,B|88:169|88:169|37:155,1,105,2|2,0:0|0:0,0:0:0:0:
186,234,84419,6,0,B|200:285|200:285|181:359,2,105,2|2|2,0:0|0:0|0:0,0:0:0:0:
125,123,85290,2,0,B|112:72|112:72|126:21,1,105,2|2,0:0|0:0,0:0:0:0:
224,157,85967,6,0,B|275:143|275:143|349:162,2,105,2|2|2,0:0|0:0|0:0,0:0:0:0:
115,221,86838,2,0,B|64:233|64:233|13:219,1,105,2|2,0:0|0:0,0:0:0:0:
42,54,87516,6,0,P|92:56|164:70,1,105,2|2,0:0|0:0,0:0:0:0:
255,127,88096,2,0,P|305:125|377:111,1,105,2|2,0:0|0:0,0:0:0:0:
462,43,88677,1,8,0:0:0:0:
455,210,89064,6,0,L|451:334,2,105,2|2|2,0:3|0:0|0:0,0:0:0:0:
321,107,90032,2,0,P|252:90|181:120,1,140,2|0,0:0|0:0,0:0:0:0:
139,180,90613,6,0,L|135:304,2,105,2|2|2,0:0|0:0|0:0,0:0:0:0:
83,21,91580,2,0,B|51:15|51:15|14:22,2,70,2|2|2,0:0|0:0|0:0,0:0:0:0:
153,66,92161,6,0,L|277:70,2,105,2|2|2,0:0|0:0|0:0,0:0:0:0:
15,163,93129,2,0,P|-2:232|28:303,1,140,2|0,0:0|0:0,0:0:0:0:
104,287,93709,6,0,L|228:291,2,105,2|2|2,0:0|0:0|0:0,0:0:0:0:
92,118,94677,2,0,B|129:111|129:111|175:119,1,70,2|8,0:0|0:1,0:0:0:0:
248,132,95064,1,8,0:1:0:0:
248,132,95258,6,0,B|329:157|318:114|408:139,1,140,2|2,0:3|0:0,0:0:0:0:
496,263,96032,1,8,0:1:0:0:
496,263,96225,2,0,P|431:286|364:269,1,140,2|0,0:0|0:0,0:0:0:0:
283,244,96806,6,0,B|202:219|213:262|123:237,1,140,2|2,0:3|0:0,0:0:0:0:
42,108,97580,2,0,P|79:102|123:110,1,70,8|2,0:1|0:0,0:0:0:0:
184,146,97967,2,0,P|221:152|265:144,1,70,2|2,0:0|0:0,0:0:0:0:
320,97,98354,6,0,B|401:72|390:115|480:90,1,140,2|2,0:3|0:0,0:0:0:0:
354,228,99129,1,8,0:1:0:0:
354,228,99322,2,0,P|289:251|222:234,1,140,2|0,0:0|0:0,0:0:0:0:
256,192,99903,12,2,101451,0:3:0:0:
135,104,107645,6,0,B|206:86|206:86|274:102,2,140,6|8|2,0:3|0:1|0:0,0:0:0:0:
67,154,108613,1,2,0:3:0:0:
67,154,108806,1,8,0:1:0:0:
167,288,109193,6,0,B|238:306|238:306|306:290,2,140,2|8|2,0:3|0:1|0:0,0:0:0:0:
99,238,110161,1,2,0:3:0:0:
99,238,110354,1,8,0:1:0:0:
225,126,110742,6,0,B|296:108|296:108|364:124,2,140,2|8|2,0:3|0:1|0:0,0:0:0:0:
157,176,111709,1,2,0:3:0:0:
157,176,111903,2,0,B|186:200|186:200|232:212,1,70,8|2,0:1|0:3,0:0:0:0:
300,196,112290,2,0,B|324:225|324:225|336:271,1,70,6|2,0:3|1:2,0:0:0:0:
339,344,112677,1,8,0:1:0:0:
339,344,112871,1,6,1:3:0:0:
171,359,113258,1,6,1:3:0:0:
171,359,113451,1,8,1:0:0:0:
161,190,113838,6,0,B|256:180|208:208|316:193,1,140,4|0,0:0|0:0,0:0:0:0:
387,190,114419,1,2,0:3:0:0:
387,190,114613,1,8,0:1:0:0:
335,30,115000,1,2,0:3:0:0:
172,72,115387,6,0,B|119:74|119:74|70:56,2,105,2|2|2,0:3|0:3|0:3,0:0:0:0:
256,73,116161,2,0,P|270:146|223:210,1,140,8|2,0:1|0:3,0:0:0:0:
69,194,116935,5,2,0:3:0:0:
63,363,117322,1,2,0:0:0:0:
232,369,117709,1,8,0:1:0:0:
238,200,118096,1,10,0:3:0:0:
395,206,118484,5,2,0:3:0:0:
395,375,118871,1,2,0:3:0:0:
232,369,119258,1,8,0:1:0:0:
238,200,119645,1,2,0:3:0:0:
90,279,120032,6,0,B|185:269|137:297|245:282,1,140,2|0,0:3|0:0,0:0:0:0:
316,279,120613,1,2,0:3:0:0:
316,279,120806,1,8,0:1:0:0:
443,169,121193,1,2,0:3:0:0:
286,107,121580,6,0,B|284:54|284:54|302:5,2,105,2|2|2,0:3|0:3|0:3,0:0:0:0:
285,191,122354,2,0,P|212:205|148:158,1,140,8|2,0:1|0:3,0:0:0:0:
41,294,123129,5,2,0:3:0:0:
85,132,123516,1,2,0:0:0:0:
132,293,123903,1,8,0:1:0:0:
174,130,124290,1,10,0:3:0:0:
291,250,124677,6,0,B|316:233|342:237|342:237|375:257|433:243,3,140,2|2|2|2,0:0|0:0|0:0|0:0,0:0:0:0:
397,78,126225,6,0,P|347:64|274:78,2,105,2|2|2,0:3|0:0|0:0,0:0:0:0:
461,133,127000,1,2,0:0:0:0:
151,293,127774,6,0,P|101:306|29:293,2,105,2|2|2,0:3|0:0|0:0,0:0:0:0:
213,236,128528,2,0,B|247:227|247:227|295:235,1,70,4|0,0:1|1:0,0:0:0:0:
338,294,128906,2,0,B|372:303|372:303|420:295,1,70,4|0,0:1|1:0,0:0:0:0:
481,254,129283,6,0,L|466:131,2,105,2|2|2,0:3|0:0|0:0,0:0:0:0:
491,342,130019,1,2,0:0:0:0:
491,342,130203,1,4,0:0:0:0:
380,215,130571,1,2,1:2:0:0:
380,215,130755,6,0,L|369:130,1,70,6|2,1:3|1:2,0:0:0:0:
254,23,131297,2,0,P|171:18|106:62,1,140,2|2,1:2|1:2,0:0:0:0:
95,123,131839,1,2,1:2:0:0:
190,264,132200,6,0,B|201:315|201:315|187:374,2,105,2|2|2,0:3|0:0|0:0,0:0:0:0:
124,210,132910,2,0,B|73:199|73:199|14:213,2,105,2|2|2,0:3|0:0|0:0,0:0:0:0:
181,146,133620,6,0,B|170:95|170:95|183:36,2,105,2|2|2,0:3|0:0|0:0,0:0:0:0:
248,202,134317,2,0,B|299:191|299:191|358:205,2,105,2|2|2,0:3|0:0|0:0,0:0:0:0:
189,265,135015,5,8,0:3:0:0:
262,114,135357,1,8,0:3:0:0:
413,187,135700,1,8,0:3:0:0:
340,338,136043,1,8,0:3:0:0:
54,235,137757,6,0,L|76:93,1,140,4|8,0:0|1:0,0:0:0:0:
227,24,138443,2,0,L|212:102,1,70,4|2,0:1|1:0,0:0:0:0:
195,174,138786,1,8,1:0:0:0:
305,300,139129,6,0,B|341:310|341:310|387:301,1,70,6|0,0:1|1:0,0:0:0:0:
438,250,139472,2,0,B|448:214|448:214|439:168,1,70,12|0,0:1|1:0,0:0:0:0:
393,112,139815,1,6,0:1:0:0:
310,95,139986,1,2,1:0:0:0:
235,133,140157,1,8,0:1:0:0:
167,286,140500,6,0,P|135:261|43:299,1,140,4|8,0:0|1:0,0:0:0:0:
196,368,141186,2,0,P|233:342|250:314,1,70,4|2,0:1|1:0,0:0:0:0:
240,237,141529,1,8,1:0:0:0:
323,91,141872,6,0,P|350:111|369:141,1,70,6|2,0:3|1:2,0:0:0:0:
357,224,142215,2,0,P|383:261|411:278,1,70,8|2,0:1|1:2,0:0:0:0:
486,274,142557,1,6,0:3:0:0:
490,189,142729,1,6,0:3:0:0:
447,116,142900,1,8,1:0:0:0:
287,168,143243,6,0,L|145:146,1,140,4|8,0:0|1:0,0:0:0:0:
42,15,143929,2,0,L|120:30,1,70,4|2,0:1|1:0,0:0:0:0:
193,44,144272,1,8,1:0:0:0:
359,64,144615,6,0,B|369:100|369:100|360:146,1,70,4|0,0:1|1:0,0:0:0:0:
287,168,144957,2,0,B|251:178|251:178|205:169,1,70,12|0,0:1|1:0,0:0:0:0:
143,133,145300,1,6,0:1:0:0:
60,115,145472,1,2,1:0:0:0:
11,183,145643,1,8,0:1:0:0:
136,294,145986,6,0,P|201:325|267:287,1,140,4|8,0:0|1:0,0:0:0:0:
107,213,146672,2,0,P|70:239|53:267,1,70,4|2,0:1|1:0,0:0:0:0:
63,343,147015,1,8,1:0:0:0:
199,246,147357,5,6,0:3:0:0:
335,343,147700,1,6,0:3:0:0:
471,246,148043,1,6,0:3:0:0:
155,361,148729,5,4,0:0:0:0:
139,193,149072,2,0,B|147:138|147:138|141:118|141:118|150:44,2,140,2|2|0,0:1|0:1|1:0,0:0:0:0:
243,324,150100,2,0,B|277:333|277:333|329:323,1,70,0|0,1:0|1:0,0:0:0:0:
374,270,150443,2,0,B|429:278|429:278|449:272|449:272|523:281,2,140,2|2|0,0:1|0:1|1:0,0:0:0:0:
206,248,151472,5,4,0:0:0:0:
352,166,151815,2,0,B|407:174|407:174|427:168|427:168|501:177,2,140,2|2|0,0:1|0:1|1:0,0:0:0:0:
217,64,152843,2,0,B|208:98|208:98|218:150,1,70,0|0,1:0|1:0,0:0:0:0:
273,201,153186,1,2,0:1:0:0:
273,201,153357,2,0,B|282:235|282:235|272:287,1,70,2|8,1:2|0:1,0:0:0:0:
243,349,153700,1,2,1:2:0:0:
243,349,153872,1,2,1:2:0:0:
92,273,154215,6,0,B|74:240|74:240|81:129,2,140,4|2|2,3:0|0:1|0:1,0:0:0:0:
241,197,155243,1,0,1:0:0:0:
342,62,155586,2,0,B|308:53|308:53|256:63,1,70,0|0,1:0|1:0,0:0:0:0:
211,116,155929,2,0,B|156:108|156:108|136:114|136:114|62:105,2,140,2|2|0,0:1|0:1|1:0,0:0:0:0:
376,142,156957,5,4,0:0:0:0:
225,217,157300,2,0,B|170:209|170:209|150:215|150:215|76:206,2,140,2|2|0,0:1|0:1|1:0,0:0:0:0:
315,74,158329,6,0,B|296:7|296:7|268:72,1,140,4|8,0:3|0:0,0:0:0:0:
309,235,159015,2,0,B|328:302|328:302|356:237,1,140,4|8,0:3|0:0,0:0:0:0:
504,159,159700,6,0,P|474:100|386:101,1,140,4|0,0:0|1:0,0:0:0:0:
251,155,160386,2,0,P|216:163|159:155,2,70,12|0|0,0:1|1:0|1:0,0:0:0:0:
352,20,161072,6,0,P|330:49|321:100,1,70,6|0,0:1|1:0,0:0:0:0:
335,164,161415,2,0,P|344:197|366:224,1,70,4|0,0:1|1:0,0:0:0:0:
353,307,161757,2,0,P|319:297|292:275,1,70,12|0,0:1|1:0,0:0:0:0:
254,200,162100,1,0,0:0:0:0:
205,39,162443,6,0,P|140:22|68:66,1,140,4|0,0:0|1:0,0:0:0:0:
8,207,163129,2,0,P|0:242|8:299,2,70,12|0|0,0:1|1:0|1:0,0:0:0:0:
153,121,163815,5,2,1:0:0:0:
153,121,163986,2,0,B|192:114|192:114|236:124,1,70,4|0,0:1|1:0,0:0:0:0:
280,180,164329,2,0,B|309:186|309:186|348:179,1,70,4|8,0:1|1:0,0:0:0:0:
409,121,164672,2,0,B|438:114|438:114|477:121,1,70,4|0,0:1|1:0,0:0:0:0:
512,204,165015,1,0,1:0:0:0:
512,204,165186,6,0,B|515:255|515:255|510:270|510:270|514:348,1,140,4|0,0:3|1:0,0:0:0:0:
345,348,165872,2,0,P|310:346|276:354,2,70,12|0|0,0:1|1:0|1:0,0:0:0:0:
427,201,166557,6,0,P|398:179|347:170,1,70,6|0,0:1|1:0,0:0:0:0:
281,167,166900,2,0,P|247:176|220:198,1,70,4|0,0:1|1:0,0:0:0:0:
149,244,167243,2,0,P|115:234|88:212,1,70,12|0,0:1|1:0,0:0:0:0:
53,135,167586,1,0,0:0:0:0:
201,56,167929,6,0,P|269:38|355:50,1,140,4|0,0:0|1:0,0:0:0:0:
443,175,168615,2,0,P|477:176|511:168,2,70,4|0|0,0:1|1:0|1:0,0:0:0:0:
281,127,169300,5,6,0:3:0:0:
124,187,169643,1,6,0:3:0:0:
254,293,169986,1,6,0:3:0:0:
206,34,170672,6,0,B|275:20|275:20|359:34,2,140,4|8|2,0:0|1:0|0:1,0:0:0:0:
133,77,171529,1,4,0:1:0:0:
133,77,171700,1,8,0:1:0:0:
184,237,172043,6,0,L|273:221,1,70,2|0,1:3|1:0,0:0:0:0:
335,210,172386,2,0,L|424:194,1,70,8|0,0:1|1:0,0:0:0:0:
487,183,172729,1,4,1:0:0:0:
466,264,172900,1,4,0:1:0:0:
443,345,173072,1,8,0:1:0:0:
275,327,173415,6,0,P|175:327|136:356,1,140,4|8,0:0|1:0,0:0:0:0:
61,360,173929,2,0,B|62:320|62:320|91:277,1,70,0|2,1:0|0:1,0:0:0:0:
149,247,174272,1,4,0:1:0:0:
149,247,174443,1,8,0:1:0:0:
69,98,174786,6,0,L|158:82,1,70,2|0,1:3|1:0,0:0:0:0:
220,71,175129,2,0,L|309:55,1,70,8|0,0:1|1:0,0:0:0:0:
372,44,175472,1,0,1:0:0:0:
351,125,175643,1,4,0:1:0:0:
328,206,175815,1,8,0:1:0:0:
162,231,176157,6,0,B|102:227|102:227|87:236|87:236|4:232,2,140,4|8|2,0:1|0:1|0:1,0:0:0:0:
250,238,177015,1,4,0:1:0:0:
250,238,177186,1,8,0:1:0:0:
405,173,177529,6,0,B|372:179|372:179|319:169,1,70,0|0,1:0|1:0,0:0:0:0:
280,109,177872,2,0,B|243:98|243:98|124:109,1,140,8|4,0:1|1:0,0:0:0:0:
58,114,178386,1,4,1:0:0:0:
58,114,178557,1,8,0:1:0:0:
125,268,178900,6,0,P|191:226|277:233,1,140,4|8,0:0|1:0,0:0:0:0:
329,256,179415,2,0,B|336:291|336:291|330:332,1,70,0|2,1:0|0:1,0:0:0:0:
265,375,179757,1,4,0:1:0:0:
265,375,179929,1,8,0:1:0:0:
427,333,180272,6,0,B|433:272|433:272|424:251|424:251|434:171,1,140,6|8,0:3|0:0,0:0:0:0:
349,48,180957,2,0,B|342:103|342:103|351:124|351:124|345:185,1,140,6|8,0:3|0:0,0:0:0:0:
328,353,181643,5,6,0:3:0:0:
