osu file format v14

[General]
AudioFilename: audio.mp3
AudioLeadIn: 0
PreviewTime: 63903
Countdown: 0
SampleSet: Soft
StackLeniency: 0.4
Mode: 0
LetterboxInBreaks: 0
WidescreenStoryboard: 0

[Editor]
DistanceSpacing: 1
BeatDivisor: 4
GridSize: 4
TimelineZoom: 1.4

[Metadata]
Title:Main Theme - Dubstep Remix
TitleUnicode:Main Theme - Dubstep Remix
Artist:Lucas Fader
ArtistUnicode:Lucas Fader
Creator:Strategas
Version:Hard: N. Tropy
Source:Crash Bandicoot 3 Warped
Tags:sony playstation drum and bass drumstep dubstep game Universal Interactive Studios My Angel Azusa sahuang
BeatmapID:1329626
BeatmapSetID:588976

[Difficulty]
HPDrainRate:5
CircleSize:3.2
OverallDifficulty:6
ApproachRate:8
SliderMultiplier:1.5
SliderTickRate:1

[Events]
//Background and Video events
0,0,"cb3.jpg",0,0
//Break Periods
2,76877,87927
//Storyboard Layer 0 (Background)
//Storyboard Layer 1 (Fail)
//Storyboard Layer 2 (Pass)
//Storyboard Layer 3 (Foreground)
//Storyboard Sound Samples

[TimingPoints]
2355,387.096774193548,4,2,25,55,1,0
8161,-100,4,1,24,70,0,0
8548,-100,4,2,25,60,0,0
14354,-100,4,1,24,75,0,0
14742,-100,4,2,25,65,0,0
20548,-100,4,2,24,80,0,0
20935,-100,4,2,25,65,0,0
26742,-100,4,2,24,80,0,0
27129,-100,4,2,25,55,0,0
28290,-100,4,2,23,75,0,0
28677,-100,4,2,25,55,0,0
28967,-100,4,2,25,55,0,0
29161,-100,4,2,25,10,0,0
29258,-100,4,2,25,55,0,0
29838,-100,4,2,23,75,0,0
30225,-100,4,2,25,55,0,0
31387,-100,4,2,23,75,0,0
31774,-100,4,2,25,55,0,0
34484,-100,4,2,23,75,0,0
34871,-100,4,2,25,55,0,0
35064,-100,4,2,25,30,0,0
35161,-100,4,2,25,55,0,0
35354,-100,4,2,25,10,0,0
35451,-100,4,2,25,55,0,0
36032,-100,4,2,23,75,0,0
36419,-100,4,2,25,55,0,0
37580,-100,4,2,23,75,0,0
37967,-100,4,2,25,60,0,0
38354,-100,4,2,25,50,0,0
38742,-100,4,2,25,40,0,0
39129,-100,4,2,25,30,0,0
39516,-100,4,2,25,60,0,0
39709,-100,4,2,25,30,0,0
39806,-100,4,2,25,60,0,0
40000,-100,4,2,25,20,0,0
40096,-100,4,2,25,60,0,0
40290,-100,4,2,22,60,0,0
40871,-100,4,2,25,60,0,0
41258,-100,4,2,25,30,0,0
41354,-100,4,2,25,60,0,0
41548,-100,4,2,25,10,0,0
41645,-100,4,2,25,60,0,0
41838,-100,4,2,26,50,0,0
41935,-100,4,2,26,5,0,0
42032,-100,4,2,26,35,0,0
42129,-100,4,2,26,5,0,0
42225,-100,4,2,26,50,0,0
42322,-100,4,2,26,5,0,0
42419,-100,4,2,26,35,0,0
42516,-100,4,2,26,5,0,0
42613,-100,4,2,25,60,0,0
42806,-100,4,2,25,30,0,0
42903,-100,4,2,25,60,0,0
43096,-100,4,2,25,30,0,0
43193,-100,4,2,25,60,0,0
43387,-100,4,2,22,60,0,0
43967,-100,4,2,25,60,0,0
45709,-100,4,2,25,65,0,0
47451,-100,4,2,25,30,0,0
47548,-100,4,2,25,65,0,0
47742,-100,4,2,25,30,0,0
47838,-100,4,2,25,65,0,0
49000,-100,4,2,23,65,0,0
49193,-100,4,2,25,70,0,0
49387,-100,4,2,23,70,0,0
49580,-100,4,2,25,75,0,0
49774,-100,4,2,23,75,0,0
49967,-100,4,2,25,80,0,0
50161,-100,4,2,23,80,0,0
50354,-100,4,2,25,40,0,0
51903,-90.9090909090909,4,2,25,70,0,1
52290,-90.9090909090909,4,1,26,70,0,1
52580,-90.9090909090909,4,2,26,30,0,1
52677,-90.9090909090909,4,1,26,50,0,1
52774,-90.9090909090909,4,2,26,30,0,1
52871,-90.9090909090909,4,1,26,70,0,1
52967,-90.9090909090909,4,2,26,30,0,1
53064,-90.9090909090909,4,1,26,70,0,1
53161,-90.9090909090909,4,2,26,30,0,1
53258,-90.9090909090909,4,1,26,70,0,1
53354,-90.9090909090909,4,2,26,30,0,1
53451,-90.9090909090909,4,1,26,50,0,1
53548,-90.9090909090909,4,2,26,30,0,1
53645,-90.9090909090909,4,1,26,70,0,1
53742,-90.9090909090909,4,2,26,30,0,1
53838,-90.9090909090909,4,1,26,50,0,1
53935,-90.9090909090909,4,2,26,30,0,1
54032,-90.9090909090909,4,1,26,70,0,1
54129,-90.9090909090909,4,2,26,30,0,1
54225,-90.9090909090909,4,1,26,50,0,1
54322,-90.9090909090909,4,2,26,30,0,1
54419,-90.9090909090909,4,1,26,70,0,1
54516,-90.9090909090909,4,2,26,30,0,1
54613,-90.9090909090909,4,1,21,70,0,1
54903,-90.9090909090909,4,2,26,30,0,1
55000,-90.9090909090909,4,1,26,70,0,1
55290,-90.9090909090909,4,2,26,30,0,1
55387,-90.9090909090909,4,1,26,70,0,1
55484,-90.9090909090909,4,2,26,30,0,1
55580,-90.9090909090909,4,1,26,70,0,1
55677,-90.9090909090909,4,2,26,30,0,1
55774,-90.9090909090909,4,1,26,50,0,1
55871,-90.9090909090909,4,2,26,30,0,1
55967,-90.9090909090909,4,1,26,70,0,1
56064,-90.9090909090909,4,2,26,30,0,1
56161,-90.9090909090909,4,1,26,70,0,1
56258,-90.9090909090909,4,2,26,30,0,1
56354,-90.9090909090909,4,1,25,70,0,1
57709,-90.9090909090909,4,1,24,85,0,1
58096,-90.9090909090909,4,1,25,70,0,1
58387,-90.9090909090909,4,2,26,30,0,1
58483,-90.9090909090909,4,1,26,70,0,1
58580,-90.9090909090909,4,2,26,30,0,1
58677,-90.9090909090909,4,1,26,70,0,1
58774,-90.9090909090909,4,2,26,30,0,1
58870,-90.9090909090909,4,1,26,50,0,1
58967,-90.9090909090909,4,2,26,30,0,1
59064,-90.9090909090909,4,1,26,70,0,1
59161,-90.9090909090909,4,2,26,30,0,1
59258,-90.9090909090909,4,1,26,70,0,1
59354,-90.9090909090909,4,2,26,30,0,1
59451,-90.9090909090909,4,1,26,70,0,1
59548,-90.9090909090909,4,2,26,30,0,1
59644,-90.9090909090909,4,1,26,50,0,1
59742,-90.9090909090909,4,2,26,30,0,1
59838,-90.9090909090909,4,1,26,70,0,1
59935,-90.9090909090909,4,2,26,30,0,1
60031,-90.9090909090909,4,1,26,50,0,1
60129,-90.9090909090909,4,2,26,30,0,1
60225,-90.9090909090909,4,1,26,70,0,1
60322,-90.9090909090909,4,2,26,30,0,1
60418,-90.9090909090909,4,1,26,50,0,1
60516,-90.9090909090909,4,2,26,30,0,1
60612,-90.9090909090909,4,1,26,70,0,1
60709,-90.9090909090909,4,2,26,30,0,1
60806,-90.9090909090909,4,1,21,70,0,1
61096,-90.9090909090909,4,2,26,30,0,1
61193,-90.9090909090909,4,1,26,70,0,1
61484,-90.9090909090909,4,2,26,30,0,1
61580,-90.9090909090909,4,1,26,70,0,1
61677,-90.9090909090909,4,2,26,30,0,1
61774,-90.9090909090909,4,1,26,70,0,1
61871,-90.9090909090909,4,2,26,30,0,1
61967,-90.9090909090909,4,1,26,50,0,1
62064,-90.9090909090909,4,2,26,30,0,1
62161,-90.9090909090909,4,1,26,70,0,1
62258,-90.9090909090909,4,2,26,30,0,1
62354,-90.9090909090909,4,1,26,70,0,1
62451,-90.9090909090909,4,2,26,30,0,1
62548,-90.9090909090909,4,1,26,70,0,1
62645,-90.9090909090909,4,2,26,30,0,1
62742,-100,4,2,25,40,0,0
63032,-100,4,2,25,20,0,0
63129,-100,4,2,25,55,0,0
63419,-100,4,2,25,25,0,0
63516,-100,4,2,25,70,0,0
63806,-100,4,2,25,30,0,0
63903,-100,4,2,25,20,0,0
64193,-100,4,2,25,5,0,0
64290,-100,4,2,25,60,0,0
64677,-100,4,2,20,45,0,0
65451,-100,4,2,20,60,0,0
66225,-100,4,2,20,45,0,0
66999,-100,4,2,20,60,0,0
67193,-100,4,2,20,60,0,0
67387,-100,4,2,20,60,0,0
67774,-100,4,2,20,45,0,0
68548,-100,4,2,20,60,0,0
69516,-100,4,2,25,60,0,0
70484,-100,4,2,21,60,0,0
70871,-100,4,2,20,35,0,0
71645,-100,4,2,20,60,0,0
72419,-100,4,2,20,35,0,0
73193,-100,4,2,20,60,0,0
73387,-100,4,2,20,60,0,0
73580,-100,4,2,20,60,0,0
73967,-100,4,2,20,35,0,0
74741,-100,4,2,20,60,0,0
75129,-100,4,2,21,60,0,0
76774,-100,4,2,21,20,0,0
79774,-100,4,2,25,30,0,0
81225,-100,4,2,25,5,0,0
81322,-100,4,2,25,40,0,0
82774,-100,4,2,25,10,0,0
82871,-100,4,2,25,45,0,0
83064,-100,4,2,25,10,0,0
83161,-100,4,2,25,45,0,0
83354,-100,4,2,25,10,0,0
83451,-100,4,2,25,45,0,0
83645,-100,4,2,25,10,0,0
83742,-100,4,2,25,45,0,0
83935,-100,4,2,25,10,0,0
84032,-100,4,2,25,45,0,0
84225,-100,4,2,25,10,0,0
84419,-100,4,2,25,50,0,0
84613,-100,4,2,25,10,0,0
84709,-100,4,2,25,50,0,0
84903,-100,4,2,25,10,0,0
85000,-100,4,2,25,50,0,0
85193,-100,4,2,25,10,0,0
85290,-100,4,2,25,50,0,0
85484,-100,4,2,25,10,0,0
85580,-100,4,2,25,50,0,0
85774,-100,4,2,25,10,0,0
85967,-100,4,2,25,55,0,0
87516,-100,4,2,21,60,0,0
89064,-100,4,2,25,60,0,0
91580,-100,4,2,25,80,0,0
92161,-100,4,2,25,60,0,0
94677,-100,4,2,25,80,0,0
95258,-100,4,2,25,60,0,0
97774,-100,4,2,25,80,0,0
98354,-100,4,2,25,60,0,0
100290,-100,4,2,25,70,0,0
100677,-100,4,2,25,75,0,0
101451,-100,4,2,25,40,0,0
104548,-100,4,2,25,52,0,0
107645,-100,4,2,25,60,0,0
113451,-100,4,2,24,60,0,0
113838,-100,4,2,25,55,0,0
115000,-100,4,2,23,75,0,0
115387,-100,4,2,25,55,0,0
116548,-100,4,2,23,75,0,0
116935,-100,4,2,25,55,0,0
118096,-100,4,2,23,75,0,0
118484,-100,4,2,25,55,0,0
121193,-100,4,2,23,75,0,0
121580,-100,4,2,25,55,0,0
122742,-100,4,2,23,75,0,0
123129,-100,4,2,25,55,0,0
124290,-100,4,2,23,75,0,0
124677,-100,4,2,25,60,0,0
125064,-100,4,2,25,50,0,0
125451,-100,4,2,25,40,0,0
125838,-100,4,2,25,30,0,0
126225,-100,4,2,25,60,0,0
127000,-100,4,2,22,60,0,0
127774,377.358490566038,4,2,25,60,1,0
128528,-100,4,2,26,30,0,0
128717,-100,4,2,26,50,0,0
128906,-100,4,2,26,30,0,0
129094,-100,4,2,26,50,0,0
129283,368.098159509202,4,2,25,60,1,0
130019,-100,4,2,22,50,0,0
130571,-100,4,2,25,50,0,0
130755,361.44578313253,4,2,25,60,1,0
132200,355.029585798817,4,2,25,60,1,0
133620,348.837209302326,4,2,25,60,1,0
135015,342.857142857143,4,2,23,60,1,0
137757,-90.9090909090909,4,2,26,70,0,1
138100,-90.9090909090909,4,2,26,70,0,1
138186,-90.9090909090909,4,2,26,30,0,1
138272,-90.9090909090909,4,2,26,70,0,1
138357,-90.9090909090909,4,2,26,30,0,1
138443,-90.9090909090909,4,2,26,50,0,1
138529,-90.9090909090909,4,2,26,30,0,1
138615,-90.9090909090909,4,2,26,70,0,1
138700,-90.9090909090909,4,2,26,30,0,1
138786,-90.9090909090909,4,2,26,70,0,1
138872,-90.9090909090909,4,2,26,30,0,1
138957,-90.9090909090909,4,2,26,70,0,1
139043,-90.9090909090909,4,2,26,30,0,1
139129,-90.9090909090909,4,2,26,50,0,1
139215,-90.9090909090909,4,2,26,30,0,1
139300,-90.9090909090909,4,2,26,70,0,1
139386,-90.9090909090909,4,2,26,30,0,1
139472,-90.9090909090909,4,2,26,50,0,1
139557,-90.9090909090909,4,2,26,30,0,1
139643,-90.9090909090909,4,2,26,70,0,1
139729,-90.9090909090909,4,2,26,30,0,1
139815,-90.9090909090909,4,2,26,50,0,1
139900,-90.9090909090909,4,2,26,30,0,1
139986,-90.9090909090909,4,2,26,70,0,1
140072,-90.9090909090909,4,2,26,30,0,1
140157,-90.9090909090909,4,2,21,80,0,1
140500,-90.9090909090909,4,2,26,70,0,1
140757,-90.9090909090909,4,2,26,30,0,1
140843,-90.9090909090909,4,2,26,70,0,1
140929,-90.9090909090909,4,2,26,30,0,1
141015,-90.9090909090909,4,2,26,70,0,1
141100,-90.9090909090909,4,2,26,30,0,1
141186,-90.9090909090909,4,2,26,50,0,1
141272,-90.9090909090909,4,2,26,30,0,1
141357,-90.9090909090909,4,2,26,70,0,1
141443,-90.9090909090909,4,2,26,30,0,1
141529,-90.9090909090909,4,2,26,70,0,1
141615,-90.9090909090909,4,2,26,30,0,1
141700,-90.9090909090909,4,2,25,70,0,1
142900,-90.9090909090909,4,2,24,70,0,1
143243,-90.9090909090909,4,2,26,70,0,1
143500,-90.9090909090909,4,2,26,30,0,1
143586,-90.9090909090909,4,2,26,70,0,1
143672,-90.9090909090909,4,2,26,30,0,1
143757,-90.9090909090909,4,2,26,70,0,1
143843,-90.9090909090909,4,2,26,30,0,1
143929,-90.9090909090909,4,2,26,50,0,1
144015,-90.9090909090909,4,2,26,30,0,1
144100,-90.9090909090909,4,2,26,70,0,1
144186,-90.9090909090909,4,2,26,30,0,1
144272,-90.9090909090909,4,2,26,70,0,1
144357,-90.9090909090909,4,2,26,30,0,1
144443,-90.9090909090909,4,2,26,70,0,1
144529,-90.9090909090909,4,2,26,30,0,1
144615,-90.9090909090909,4,2,26,50,0,1
144700,-90.9090909090909,4,2,26,30,0,1
144786,-90.9090909090909,4,2,26,70,0,1
144872,-90.9090909090909,4,2,26,30,0,1
144957,-90.9090909090909,4,2,26,50,0,1
145043,-90.9090909090909,4,2,26,30,0,1
145129,-90.9090909090909,4,2,26,70,0,1
145215,-90.9090909090909,4,2,26,30,0,1
145300,-90.9090909090909,4,2,26,50,0,1
145386,-90.9090909090909,4,2,26,30,0,1
145472,-90.9090909090909,4,2,26,70,0,1
145557,-90.9090909090909,4,2,26,30,0,1
145643,-90.9090909090909,4,2,21,80,0,1
145986,-90.9090909090909,4,2,26,70,0,1
146243,-90.9090909090909,4,2,26,30,0,1
146329,-90.9090909090909,4,2,26,70,0,1
146415,-90.9090909090909,4,2,26,30,0,1
146500,-90.9090909090909,4,2,26,70,0,1
146586,-90.9090909090909,4,2,26,30,0,1
146672,-90.9090909090909,4,2,26,50,0,1
146757,-90.9090909090909,4,2,26,30,0,1
146843,-90.9090909090909,4,2,26,70,0,1
146929,-90.9090909090909,4,2,26,30,0,1
147015,-90.9090909090909,4,2,26,70,0,1
147100,-90.9090909090909,4,2,26,30,0,1
147186,-90.9090909090909,4,2,26,70,0,1
147272,-90.9090909090909,4,2,26,30,0,1
147357,-100,4,2,25,40,0,0
147615,-100,4,2,25,5,0,0
147700,-100,4,2,25,55,0,0
147957,-100,4,2,25,5,0,0
148043,-100,4,2,25,70,0,0
148300,-100,4,2,25,5,0,0
148386,-100,4,2,25,60,0,0
148643,-100,4,2,25,5,0,0
148729,-100,4,2,26,60,0,0
149072,-100,4,2,20,35,0,0
149757,-100,4,2,20,60,0,0
150443,-100,4,2,20,35,0,0
151128,-100,4,2,20,60,0,0
151300,-100,4,2,20,60,0,0
151472,-100,4,2,20,60,0,0
151815,-100,4,2,20,35,0,0
152500,-100,4,2,20,60,0,0
153357,-100,4,2,25,50,0,0
154215,-100,4,2,21,60,0,0
154557,-100,4,2,20,35,0,0
155242,-100,4,2,20,60,0,0
155929,-100,4,2,20,35,0,0
156614,-100,4,2,20,60,0,0
156786,-100,4,2,20,60,0,0
156957,-100,4,2,20,60,0,0
157300,-100,4,2,20,35,0,0
157985,-100,4,2,20,60,0,0
158329,-100,4,2,21,60,0,0
159700,-100,4,2,26,60,0,0
160043,-100,4,2,26,60,0,0
160129,-100,4,2,26,25,0,0
160215,-100,4,2,26,60,0,0
160300,-100,4,2,26,25,0,0
160386,-100,4,2,26,40,0,0
160472,-100,4,2,26,25,0,0
160557,-100,4,2,26,60,0,0
160643,-100,4,2,26,25,0,0
160729,-100,4,2,26,60,0,0
160815,-100,4,2,26,25,0,0
160900,-100,4,2,26,60,0,0
160986,-100,4,2,26,25,0,0
161072,-100,4,2,26,40,0,0
161157,-100,4,2,26,25,0,0
161243,-100,4,2,26,60,0,0
161329,-100,4,2,26,25,0,0
161415,-100,4,2,26,40,0,0
161500,-100,4,2,26,25,0,0
161586,-100,4,2,26,60,0,0
161672,-100,4,2,26,25,0,0
161757,-100,4,2,26,40,0,0
161843,-100,4,2,26,25,0,0
161929,-100,4,2,26,60,0,0
162015,-100,4,2,26,25,0,0
162100,-100,4,2,21,60,0,0
162443,-100,4,2,26,60,0,0
162700,-100,4,2,26,25,0,0
162786,-100,4,2,26,60,0,0
162872,-100,4,2,26,25,0,0
162957,-100,4,2,26,60,0,0
163043,-100,4,2,26,25,0,0
163129,-100,4,2,26,40,0,0
163215,-100,4,2,26,25,0,0
163300,-100,4,2,26,60,0,0
163386,-100,4,2,26,25,0,0
163472,-100,4,2,26,60,0,0
163557,-100,4,2,26,25,0,0
163643,-100,4,2,26,60,0,0
163729,-100,4,2,26,25,0,0
163815,-100,4,2,26,60,0,0
163900,-100,4,2,26,25,0,0
163986,-100,4,2,26,40,0,0
164072,-100,4,2,26,25,0,0
164157,-100,4,2,26,60,0,0
164243,-100,4,2,26,25,0,0
164329,-100,4,2,26,40,0,0
164415,-100,4,2,26,25,0,0
164500,-100,4,2,26,60,0,0
164586,-100,4,2,26,25,0,0
164672,-100,4,2,26,40,0,0
164757,-100,4,2,26,25,0,0
164843,-100,4,2,19,60,0,0
164929,-100,4,2,26,25,0,0
165015,-100,4,2,19,60,0,0
165100,-100,4,2,26,25,0,0
165186,-100,4,2,21,60,0,0
165529,-100,4,2,26,60,0,0
165615,-100,4,2,26,25,0,0
165700,-100,4,2,26,60,0,0
165786,-100,4,2,26,25,0,0
165872,-100,4,2,26,40,0,0
165957,-100,4,2,26,25,0,0
166043,-100,4,2,26,60,0,0
166129,-100,4,2,26,25,0,0
166215,-100,4,2,26,60,0,0
166300,-100,4,2,26,25,0,0
166386,-100,4,2,26,60,0,0
166472,-100,4,2,26,25,0,0
166557,-100,4,2,26,40,0,0
166643,-100,4,2,26,25,0,0
166729,-100,4,2,26,60,0,0
166815,-100,4,2,26,25,0,0
166900,-100,4,2,26,40,0,0
166986,-100,4,2,26,25,0,0
167072,-100,4,2,26,60,0,0
167157,-100,4,2,26,25,0,0
167243,-100,4,2,26,40,0,0
167329,-100,4,2,26,25,0,0
167415,-100,4,2,26,60,0,0
167500,-100,4,2,26,25,0,0
167586,-100,4,2,21,60,0,0
167929,-100,4,2,26,60,0,0
168186,-100,4,2,26,25,0,0
168272,-100,4,2,26,60,0,0
168357,-100,4,2,26,25,0,0
168443,-100,4,2,26,60,0,0
168529,-100,4,2,26,25,0,0
168615,-100,4,2,26,40,0,0
168700,-100,4,2,26,25,0,0
168786,-100,4,2,26,60,0,0
168872,-100,4,2,26,25,0,0
168957,-100,4,2,26,60,0,0
169043,-100,4,2,26,25,0,0
169129,-100,4,2,26,60,0,0
169215,-100,4,2,26,25,0,0
169300,-100,4,2,25,60,0,0
169557,-100,4,2,25,15,0,0
169643,-100,4,2,25,60,0,0
169900,-100,4,2,25,5,0,0
169986,-100,4,2,25,60,0,0
170243,-100,4,2,25,10,0,0
170329,-100,4,2,25,60,0,0
170586,-100,4,2,25,5,0,0
170672,-90.9090909090909,4,2,26,70,0,1
170929,-90.9090909090909,4,2,26,30,0,1
171015,-90.9090909090909,4,2,19,70,0,1
171100,-90.9090909090909,4,2,26,30,0,1
171186,-90.9090909090909,4,2,19,70,0,1
171272,-90.9090909090909,4,2,26,30,0,1
171357,-90.9090909090909,4,2,19,70,0,1
171615,-90.9090909090909,4,2,26,30,0,1
171700,-90.9090909090909,4,2,19,70,0,1
172043,-90.9090909090909,4,2,20,70,0,1
172086,-90.9090909090909,4,2,26,30,0,1
172215,-90.9090909090909,4,2,20,70,0,1
172257,-90.9090909090909,4,2,26,30,0,1
172386,-90.9090909090909,4,2,20,70,0,1
172557,-90.9090909090909,4,2,19,70,0,1
172643,-90.9090909090909,4,2,26,30,0,1
172729,-90.9090909090909,4,2,19,70,0,1
172815,-90.9090909090909,4,2,26,30,0,1
172900,-90.9090909090909,4,2,19,70,0,1
172986,-90.9090909090909,4,2,26,30,0,1
173072,-90.9090909090909,4,2,19,70,0,1
173243,-90.9090909090909,4,2,20,70,0,1
173329,-90.9090909090909,4,2,26,30,0,1
173415,-90.9090909090909,4,2,19,70,0,1
173672,-90.9090909090909,4,2,26,30,0,1
173757,-90.9090909090909,4,2,19,70,0,1
173843,-90.9090909090909,4,2,26,30,0,1
173929,-90.9090909090909,4,2,19,70,0,1
174015,-90.9090909090909,4,2,26,30,0,1
174100,-90.9090909090909,4,2,19,70,0,1
174357,-90.9090909090909,4,2,26,30,0,1
174443,-90.9090909090909,4,2,19,70,0,1
174786,-90.9090909090909,4,2,20,70,0,1
174829,-90.9090909090909,4,2,26,30,0,1
174957,-90.9090909090909,4,2,20,70,0,1
175000,-90.9090909090909,4,2,26,30,0,1
175129,-90.9090909090909,4,2,20,70,0,1
175300,-90.9090909090909,4,2,19,70,0,1
175386,-90.9090909090909,4,2,26,30,0,1
175472,-90.9090909090909,4,2,19,70,0,1
175557,-90.9090909090909,4,2,26,30,0,1
175643,-90.9090909090909,4,2,19,70,0,1
175729,-90.9090909090909,4,2,26,30,0,1
175815,-90.9090909090909,4,2,19,70,0,1
176072,-90.9090909090909,4,2,26,30,0,1
176157,-90.9090909090909,4,2,19,70,0,1
176415,-90.9090909090909,4,2,26,30,0,1
176500,-90.9090909090909,4,2,19,70,0,1
176757,-90.9090909090909,4,2,26,30,0,1
176843,-90.9090909090909,4,2,19,70,0,1
177100,-90.9090909090909,4,2,26,30,0,1
177186,-90.9090909090909,4,2,19,70,0,1
177529,-90.9090909090909,4,2,20,70,0,1
177572,-90.9090909090909,4,2,26,30,0,1
177700,-90.9090909090909,4,2,20,70,0,1
177743,-90.9090909090909,4,2,26,30,0,1
177872,-90.9090909090909,4,2,20,70,0,1
178129,-90.9090909090909,4,2,26,30,0,1
178215,-90.9090909090909,4,2,19,70,0,1
178300,-90.9090909090909,4,2,26,30,0,1
178386,-90.9090909090909,4,2,19,70,0,1
178472,-90.9090909090909,4,2,26,30,0,1
178557,-90.9090909090909,4,2,19,70,0,1
178729,-90.9090909090909,4,2,20,70,0,1
178815,-90.9090909090909,4,2,26,30,0,1
178900,-90.9090909090909,4,2,19,70,0,1
179157,-90.9090909090909,4,2,26,30,0,1
179243,-90.9090909090909,4,2,19,70,0,1
179329,-90.9090909090909,4,2,26,30,0,1
179415,-90.9090909090909,4,2,19,70,0,1
179500,-90.9090909090909,4,2,26,30,0,1
179586,-90.9090909090909,4,2,19,70,0,1
179843,-90.9090909090909,4,2,26,30,0,1
179929,-90.9090909090909,4,2,19,70,0,1
180272,-90.9090909090909,4,2,20,70,0,1
181643,-100,4,2,20,70,0,0
181900,-100,4,2,21,40,0,0

[Colours]
Combo1 : 255,207,64
Combo2 : 64,255,64
Combo3 : 64,150,255
Combo4 : 244,74,100

[HitObjects]
171,206,2355,5,0,0:0:0:0:
171,206,2742,5,8,0:1:0:0:
179,295,2935,1,0,0:0:0:0:
268,287,3129,1,0,0:0:0:0:
260,198,3322,1,2,0:3:0:0:
349,190,3516,1,8,0:1:0:0:
349,190,3903,5,2,0:3:0:0:
349,190,4290,5,8,0:1:0:0:
438,182,4484,1,0,0:0:0:0:
430,93,4677,1,0,0:0:0:0:
341,101,4871,1,2,0:3:0:0:
333,12,5064,1,8,0:1:0:0:
333,12,5451,5,2,0:3:0:0:
333,12,5838,5,8,0:1:0:0:
244,20,6032,1,0,0:0:0:0:
252,109,6225,1,0,0:0:0:0:
341,101,6419,1,2,0:3:0:0:
349,190,6613,1,8,0:1:0:0:
282,250,6806,1,2,0:3:0:0:
213,191,7000,1,2,1:3:0:0:
146,251,7193,1,2,1:2:0:0:
146,251,7580,5,6,1:3:0:0:
146,251,7967,5,6,1:3:0:0:
154,340,8161,1,8,1:0:0:0:
154,340,8548,5,6,0:3:0:0:
154,340,8935,5,8,0:1:0:0:
243,332,9129,1,2,0:0:0:0:
235,243,9322,1,2,0:0:0:0:
324,235,9516,1,2,0:3:0:0:
332,324,9709,2,0,L|410:318,1,75,8|0,0:1|0:0,0:0:0:0:
496,311,10096,1,2,0:3:0:0:
496,311,10484,5,8,0:1:0:0:
488,222,10677,1,2,0:0:0:0:
399,230,10871,1,2,0:0:0:0:
391,141,11064,1,2,0:3:0:0:
480,133,11258,2,0,L|474:55,1,75,8|0,0:1|0:0,0:0:0:0:
384,51,11645,1,2,0:3:0:0:
384,51,12032,5,8,0:1:0:0:
295,59,12225,1,2,0:0:0:0:
303,148,12419,1,2,0:0:0:0:
214,156,12613,1,2,0:3:0:0:
206,67,12806,1,8,0:1:0:0:
133,120,13000,1,2,0:3:0:0:
78,48,13193,1,2,1:3:0:0:
5,101,13387,1,2,1:2:0:0:
5,101,13774,5,6,1:3:0:0:
5,101,14161,5,6,1:3:0:0:
11,190,14354,1,8,1:0:0:0:
11,190,14742,6,0,L|16:303,1,112.5,6|2,0:3|0:0,0:0:0:0:
15,302,15129,1,8,0:1:0:0:
104,294,15322,1,2,0:0:0:0:
96,205,15516,1,2,0:0:0:0:
185,197,15709,1,2,0:3:0:0:
193,286,15903,2,0,L|271:280,1,75,8|2,0:1|0:0,0:0:0:0:
275,190,16290,6,0,L|388:195,1,112.5,2|2,0:3|0:0,0:0:0:0:
387,194,16677,1,8,0:1:0:0:
379,283,16871,1,2,0:0:0:0:
468,289,17064,1,2,0:0:0:0:
457,378,17258,1,2,0:3:0:0:
367,373,17451,2,0,L|289:367,1,75,8|0,0:1|0:0,0:0:0:0:
281,277,17838,6,0,L|276:164,1,112.5,2|2,0:3|0:0,0:0:0:0:
277,165,18225,1,8,0:1:0:0:
188,173,18419,1,2,0:0:0:0:
196,262,18613,1,2,0:0:0:0:
107,270,18806,1,2,0:3:0:0:
42,207,19000,1,8,0:1:0:0:
104,142,19193,1,2,0:3:0:0:
39,79,19387,1,2,1:3:0:0:
106,20,19580,1,2,1:2:0:0:
106,20,19967,5,6,1:3:0:0:
106,20,20354,5,6,1:3:0:0:
195,26,20548,1,8,1:0:0:0:
195,26,20935,6,0,L|200:139,1,112.5,6|2,0:3|0:0,0:0:0:0:
199,138,21322,1,8,0:1:0:0:
288,130,21516,1,2,0:0:0:0:
294,219,21709,1,2,0:0:0:0:
383,208,21903,1,2,0:3:0:0:
378,118,22096,2,0,L|372:40,1,75,8|2,0:1|0:0,0:0:0:0:
283,24,22484,6,0,L|170:29,1,112.5,2|2,0:3|0:0,0:0:0:0:
171,28,22871,1,8,0:1:0:0:
179,117,23064,1,2,0:0:0:0:
90,123,23258,1,2,0:0:0:0:
101,212,23451,1,2,0:3:0:0:
191,207,23645,2,0,L|269:201,1,75,8|0,0:1|0:0,0:0:0:0:
312,123,24032,6,0,L|425:128,1,112.5,2|2,0:3|0:0,0:0:0:0:
424,127,24419,1,8,0:1:0:0:
416,216,24613,1,2,0:0:0:0:
505,222,24806,1,2,0:0:0:0:
494,311,25000,1,2,0:3:0:0:
420,362,25193,1,8,0:1:0:0:
361,293,25387,1,2,0:3:0:0:
287,344,25580,1,2,1:3:0:0:
220,282,25774,1,2,1:2:0:0:
220,282,26161,5,6,1:3:0:0:
220,282,26548,5,6,1:3:0:0:
130,288,26742,1,8,1:0:0:0:
130,288,27129,6,0,B|148:207|107:229|130:120,1,150,2|0,0:3|0:0,0:0:0:0:
161,57,27709,1,2,0:3:0:0:
239,12,27903,1,8,0:1:0:0:
239,12,28290,5,2,0:3:0:0:
239,12,28677,6,0,B|248:66|248:66|221:133,2,112.5,2|2|2,0:3|0:3|0:3,0:0:0:0:
161,57,29451,1,8,0:1:0:0:
161,57,29838,5,2,0:3:0:0:
186,235,30225,5,6,0:3:0:0:
365,227,30613,1,2,0:0:0:0:
356,47,31000,1,8,0:1:0:0:
365,227,31387,1,10,0:3:0:0:
186,235,31774,5,6,0:3:0:0:
365,227,32161,1,6,0:3:0:0:
356,47,32548,5,8,0:1:0:0:
341,46,32645,2,0,L|265:45,1,75,2|2,0:0|0:0,0:0:0:0:
251,45,32935,1,2,0:3:0:0:
160,45,33129,1,2,0:0:0:0:
160,60,33225,1,2,0:0:0:0:
160,75,33322,6,0,B|171:155|139:131|162:233,1,150,2|0,0:3|0:0,0:0:0:0:
225,286,33903,1,2,0:3:0:0:
313,268,34096,1,8,0:1:0:0:
313,268,34484,5,2,0:3:0:0:
313,268,34871,6,0,B|304:214|304:214|331:147,2,112.5,2|2|2,0:3|0:3|0:3,0:0:0:0:
391,223,35645,1,8,0:1:0:0:
391,223,36032,5,2,0:3:0:0:
212,231,36419,5,2,0:3:0:0:
391,223,36806,1,2,0:0:0:0:
382,43,37193,1,8,0:1:0:0:
391,223,37580,1,10,0:3:0:0:
212,231,37967,5,2,0:0:0:0:
212,231,38354,5,2,0:0:0:0:
212,231,38742,5,2,0:0:0:0:
212,231,39129,5,2,0:0:0:0:
320,87,39516,6,0,B|373:72|373:72|443:89,2,112.5,2|2|2,0:3|0:0|0:0,0:0:0:0:
245,137,40290,1,2,0:0:0:0:
161,102,40484,1,4,0:0:0:0:
161,102,40871,5,2,0:0:0:0:
79,139,41064,2,0,B|64:192|64:192|81:262,2,112.5,2|2|2,0:3|0:0|0:0,0:0:0:0:
150,194,41838,2,0,L|168:271,1,75,0|4,1:0|0:1,0:0:0:0:
238,211,42225,2,0,L|256:288,1,75,0|4,1:0|0:1,0:0:0:0:
326,339,42613,6,0,B|341:286|341:286|324:216,2,112.5,2|2|2,0:3|0:0|0:0,0:0:0:0:
242,373,43387,1,2,0:0:0:0:
156,346,43580,1,4,0:0:0:0:
156,346,43967,5,2,0:2:0:0:
73,309,44161,1,2,0:3:0:0:
145,256,44354,1,2,0:2:0:0:
145,256,44742,5,6,1:3:0:0:
145,256,45129,5,6,1:3:0:0:
135,166,45322,1,2,1:2:0:0:
263,39,45709,6,0,P|314:23|389:32,2,112.5,2|2|2,0:3|0:0|0:0,0:0:0:0:
265,129,46484,2,0,P|316:145|391:136,2,112.5,2|2|2,0:3|0:0|0:0,0:0:0:0:
186,84,47258,2,0,P|135:68|60:77,2,112.5,2|2|2,0:3|0:0|0:0,0:0:0:0:
185,174,48032,2,0,P|134:190|59:181,2,112.5,2|2|2,0:3|0:0|0:0,0:0:0:0:
275,174,48806,6,0,P|283:217|271:263,1,75,2|2,0:3|0:3,0:0:0:0:
208,304,49193,2,0,P|200:347|212:393,1,75,2|2,0:3|0:3,0:0:0:0:
289,344,49580,2,0,P|325:338|362:346,1,75,2|2,0:3|0:3,0:0:0:0:
445,383,49967,2,0,P|452:347|447:310,1,75,2|2,0:3|0:3,0:0:0:0:
375,256,50354,5,2,0:0:0:0:
375,256,50742,5,2,0:0:0:0:
375,256,51129,5,2,0:0:0:0:
53,94,51903,6,0,B|76:66|123:73|123:73|167:104|222:85,1,165.000005035401,4|8,0:1|0:1,0:0:0:0:
292,59,52484,1,0,0:1:0:0:
363,114,52677,2,0,B|403:125|403:125|451:115,1,82.5000025177003,4|2,2:1|0:0,0:0:0:0:
496,43,53064,1,8,0:0:0:0:
405,32,53258,1,2,0:0:0:0:
363,114,53451,6,0,B|354:154|354:154|365:194,1,82.5000025177003,6|0,2:1|0:0,0:0:0:0:
432,255,53838,2,0,B|443:295|443:295|433:343,1,82.5000025177003,12|0,2:1|0:0,0:0:0:0:
353,375,54225,1,6,2:1:0:0:
275,327,54419,1,0,0:0:0:0:
194,370,54613,1,8,0:0:0:0:
194,370,55000,6,0,B|166:347|173:300|173:300|204:256|185:201,1,165.000005035401,4|8,3:0|0:0,0:0:0:0:
159,131,55580,1,0,0:0:0:0:
231,76,55774,2,0,B|271:67|271:67|311:78,1,82.5000025177003,4|2,2:1|0:0,0:0:0:0:
390,122,56161,1,8,0:0:0:0:
317,176,56354,1,2,0:2:0:0:
383,237,56548,1,6,0:3:0:0:
310,291,56742,6,0,P|274:300|202:285,1,82.5000025177003,2|8,0:2|0:0,0:0:0:0:
170,226,57129,2,0,P|134:217|62:232,1,82.5000025177003,2|6,0:2|0:3,0:0:0:0:
25,285,57516,1,6,0:3:0:0:
56,369,57709,1,8,0:0:0:0:
56,369,58096,6,0,B|79:341|126:348|126:348|170:379|225:360,1,165.000005035401,4|8,3:0|0:0,0:0:0:0:
297,338,58677,1,0,0:0:0:0:
374,290,58871,2,0,B|382:249|382:249|371:209,1,82.5000025177003,4|2,2:1|0:0,0:0:0:0:
340,124,59258,1,8,0:0:0:0:
280,192,59451,1,0,0:0:0:0:
225,119,59645,6,0,B|184:110|184:110|144:121,1,82.5000025177003,6|0,2:1|0:0,0:0:0:0:
101,201,60032,2,0,B|141:212|141:212|181:203,1,82.5000025177003,12|0,2:1|0:0,0:0:0:0:
271,195,60419,1,6,2:1:0:0:
233,277,60613,1,2,0:0:0:0:
181,203,60806,1,8,0:0:0:0:
181,203,61193,6,0,B|153:180|160:133|160:133|191:89|172:34,1,165.000005035401,4|8,3:0|0:0,0:0:0:0:
88,71,61774,1,0,0:0:0:0:
53,154,61967,2,0,B|44:194|44:194|55:234,1,82.5000025177003,4|2,2:1|0:0,0:0:0:0:
94,316,62354,1,8,0:0:0:0:
182,294,62548,1,0,0:0:0:0:
265,326,62742,5,4,0:3:0:0:
265,326,63129,5,4,0:3:0:0:
265,326,63516,5,4,0:3:0:0:
247,58,64290,5,4,0:0:0:0:
247,58,64677,6,0,B|300:51|300:51|323:58|323:58|343:47|343:47|411:38,2,150,2|10|0,0:1|1:0|1:0,0:0:0:0:
247,58,65838,5,2,1:3:0:0:
267,145,66032,1,0,1:0:0:0:
287,232,66225,2,0,B|340:225|340:225|363:232|363:232|383:221|383:221|451:212,2,150,2|10|0,0:1|0:1|1:0,0:0:0:0:
307,319,67193,1,0,0:0:0:0:
219,295,67387,1,2,0:3:0:0:
219,295,67774,6,0,B|166:302|166:302|143:295|143:295|123:306|123:306|55:315,2,150,2|2|0,0:1|0:1|1:0,0:0:0:0:
219,295,68935,5,2,1:3:0:0:
199,208,69129,1,0,1:0:0:0:
179,121,69322,1,2,0:1:0:0:
264,148,69516,2,0,P|301:155|349:148,1,75,2|8,1:2|0:1,0:0:0:0:
422,120,69903,1,2,1:2:0:0:
474,47,70096,1,2,1:2:0:0:
474,47,70484,6,0,B|418:33|418:33|377:44|377:44|324:34,2,150,4|2|2,0:1|0:1|0:1,0:0:0:0:
474,47,71645,5,0,1:0:0:0:
474,47,72032,5,2,1:3:0:0:
454,134,72225,1,0,1:0:0:0:
434,221,72419,2,0,B|381:214|381:214|358:221|358:221|338:210|338:210|270:201,2,150,2|2|0,0:1|0:1|1:0,0:0:0:0:
414,308,73387,1,0,0:0:0:0:
335,352,73580,1,2,0:3:0:0:
335,352,73967,6,0,B|285:345|285:345|265:334|265:334|242:341|242:341|189:334,2,150,2|2|0,0:1|0:1|1:0,0:0:0:0:
335,352,75129,6,0,B|346:303|346:303|340:291|340:291|351:233,1,112.5,4|0,3:0|0:0,0:0:0:0:
353,228,75516,2,0,L|359:191,2,37.5,8|8|8,0:0|0:3|0:3,0:0:0:0:
313,116,75903,2,0,B|264:105|264:105|252:111|252:111|194:100,1,112.5,4|0,3:0|0:0,0:0:0:0:
189,98,76290,2,0,L|152:91,2,37.5,8|8|8,0:0|0:3|0:3,0:0:0:0:
67,71,76677,5,4,0:0:0:0:
194,106,88677,6,0,L|187:167,3,37.5,8|8|8|8,0:0|0:3|0:3|0:3,0:0:0:0:
198,87,89064,6,0,P|251:71|313:82,2,112.5,2|2|2,0:3|0:0|0:0,0:0:0:0:
198,87,90032,6,0,B|114:61|140:106|38:83,1,150,2|0,0:0|0:0,0:0:0:0:
15,168,90613,2,0,P|-4:219|10:283,2,112.5,2|2|2,0:0|0:0|0:0,0:0:0:0:
15,168,91580,5,2,0:0:0:0:
81,228,91774,1,2,0:0:0:0:
147,168,91967,1,2,0:0:0:0:
220,219,92161,2,0,P|239:270|225:334,2,112.5,2|2|2,0:0|0:0|0:0,0:0:0:0:
220,219,93129,6,0,B|304:193|278:238|380:215,1,150,2|0,0:0|0:0,0:0:0:0:
435,158,93709,2,0,P|444:103|425:51,2,112.5,2|2|2,0:0|0:0|0:0,0:0:0:0:
435,158,94677,5,2,0:0:0:0:
348,133,94871,1,8,0:1:0:0:
261,108,95064,1,8,0:1:0:0:
180,147,95258,1,2,0:3:0:0:
166,141,95354,1,2,0:0:0:0:
152,135,95451,2,0,L|101:113,2,37.5,2|2|2,0:0|0:0|0:0,0:0:0:0:
224,226,95838,1,2,0:0:0:0:
194,311,96032,1,8,0:1:0:0:
282,298,96225,2,0,B|366:272|340:317|442:294,1,150,2|0,0:0|0:0,0:0:0:0:
395,213,96806,1,2,0:3:0:0:
389,199,96903,1,2,0:0:0:0:
383,185,97000,2,0,L|361:134,2,37.5,2|2|2,0:0|0:0|0:0,0:0:0:0:
430,89,97387,1,2,0:0:0:0:
430,89,97774,5,2,0:0:0:0:
342,67,97967,1,2,0:0:0:0:
281,133,98161,1,2,0:0:0:0:
193,111,98354,1,2,0:3:0:0:
178,107,98451,1,2,0:0:0:0:
163,103,98548,2,0,L|109:89,2,37.5,2|2|2,0:0|0:0|0:0,0:0:0:0:
220,199,98935,1,2,0:0:0:0:
159,265,99129,1,8,0:1:0:0:
246,286,99322,2,0,B|330:312|304:267|406:290,1,150,2|0,0:0|0:0,0:0:0:0:
457,224,99903,6,0,L|450:166,3,37.5,2|2|2|2,0:3|0:0|0:0|0:0,0:0:0:0:
420,155,100290,2,0,L|413:97,3,37.5,2|2|2|2,0:0|0:0|0:0|0:0,0:0:0:0:
383,86,100677,2,0,L|376:28,3,37.5,8|2|2|2,0:1|0:0|0:0|0:0,0:0:0:0:
348,15,101064,1,8,0:1:0:0:
333,16,101161,1,2,0:0:0:0:
318,17,101258,1,2,0:0:0:0:
303,18,101354,1,2,0:0:0:0:
288,19,101451,1,2,0:3:0:0:
256,192,101548,12,0,104548,0:0:0:0:
495,340,105709,5,2,1:2:0:0:
486,251,105903,1,2,1:2:0:0:
397,260,106096,1,2,1:2:0:0:
406,349,106290,1,2,1:2:0:0:
406,349,106677,5,2,1:2:0:0:
406,349,107064,5,2,1:2:0:0:
317,358,107258,1,2,1:2:0:0:
317,358,107645,6,0,L|312:245,1,112.5,6|2,0:3|0:0,0:0:0:0:
313,246,108032,1,8,0:1:0:0:
224,254,108225,1,2,0:0:0:0:
218,165,108419,1,2,0:0:0:0:
129,176,108613,1,2,0:3:0:0:
134,266,108806,2,0,L|140:344,1,75,8|2,0:1|0:0,0:0:0:0:
229,360,109193,6,0,L|342:355,1,112.5,2|0,0:3|0:0,0:0:0:0:
341,356,109580,1,8,0:1:0:0:
333,267,109774,1,2,0:0:0:0:
422,261,109967,1,2,0:0:0:0:
411,172,110161,1,2,0:3:0:0:
321,177,110354,2,0,L|243:183,1,75,8|0,0:1|0:0,0:0:0:0:
200,261,110742,6,0,L|87:256,1,112.5,2|2,0:3|0:0,0:0:0:0:
88,257,111129,1,8,0:1:0:0:
96,168,111322,1,2,0:0:0:0:
7,162,111516,1,2,0:0:0:0:
18,73,111709,1,2,0:3:0:0:
92,22,111903,1,8,0:1:0:0:
151,91,112096,1,2,0:3:0:0:
225,40,112290,1,6,0:3:0:0:
292,102,112484,1,2,1:2:0:0:
292,102,112871,5,6,1:3:0:0:
292,102,113258,5,6,1:3:0:0:
382,96,113451,1,8,1:0:0:0:
382,96,113838,6,0,B|364:177|405:155|382:264,1,150,4|0,0:0|0:0,0:0:0:0:
351,327,114419,1,2,0:3:0:0:
273,372,114613,1,8,0:1:0:0:
273,372,115000,5,2,0:3:0:0:
273,372,115387,6,0,B|264:318|264:318|291:251,2,112.5,2|2|2,0:3|0:3|0:3,0:0:0:0:
351,327,116161,1,8,0:1:0:0:
351,327,116548,5,2,0:3:0:0:
326,149,116935,5,2,0:3:0:0:
147,157,117322,1,2,0:0:0:0:
156,337,117709,1,8,0:1:0:0:
147,157,118096,1,10,0:3:0:0:
326,149,118484,5,2,0:3:0:0:
147,157,118871,1,2,0:3:0:0:
156,337,119258,5,8,0:1:0:0:
171,338,119354,2,0,L|247:339,1,75,2|2,0:0|0:0,0:0:0:0:
261,339,119645,1,2,0:3:0:0:
352,339,119838,1,2,0:0:0:0:
352,324,119935,1,0,0:0:0:0:
352,309,120032,6,0,B|341:229|373:253|350:151,1,150,2|0,0:3|0:0,0:0:0:0:
287,98,120613,1,2,0:3:0:0:
199,116,120806,1,8,0:1:0:0:
199,116,121193,5,2,0:3:0:0:
199,116,121580,6,0,B|208:170|208:170|181:237,2,112.5,2|2|2,0:3|0:3|0:3,0:0:0:0:
121,161,122354,1,8,0:1:0:0:
121,161,122742,5,2,0:3:0:0:
300,153,123129,5,2,0:3:0:0:
121,161,123516,1,2,0:0:0:0:
130,341,123903,1,8,0:1:0:0:
121,161,124290,1,10,0:3:0:0:
300,153,124677,5,2,0:0:0:0:
300,153,125064,5,2,0:0:0:0:
300,153,125451,5,2,0:0:0:0:
300,153,125838,5,2,0:0:0:0:
300,153,126225,6,0,B|245:141|245:141|186:153,2,112.5,2|2|2,0:3|0:0|0:0,0:0:0:0:
386,181,127000,1,2,0:0:0:0:
472,157,127193,1,4,0:0:0:0:
472,157,127580,5,2,0:0:0:0:
445,68,127774,6,0,B|390:56|390:56|334:67,2,112.5,2|2|2,0:3|0:0|0:0,0:0:0:0:
390,139,128528,2,0,L|307:155,1,75,4|0,0:1|1:0,0:0:0:0:
370,226,128906,2,0,L|287:242,1,75,4|0,0:1|1:0,0:0:0:0:
223,183,129283,6,0,B|211:238|211:238|222:293,2,112.5,2|2|2,0:3|0:0|0:0,0:0:0:0:
253,98,130019,1,2,0:0:0:0:
215,16,130203,1,4,0:0:0:0:
215,16,130571,5,2,1:2:0:0:
163,92,130755,1,6,1:3:0:0:
253,98,130935,1,2,1:2:0:0:
253,98,131297,5,2,1:2:0:0:
253,98,131658,5,2,1:2:0:0:
269,186,131839,1,2,1:2:0:0:
269,186,132200,6,0,L|150:181,2,112.5,2|2|2,0:3|0:0|0:0,0:0:0:0:
244,272,132910,2,0,L|125:267,2,112.5,2|2|2,0:3|0:0|0:0,0:0:0:0:
335,276,133620,6,0,L|454:281,2,112.5,2|2|2,0:3|0:0|0:0,0:0:0:0:
335,365,134317,2,0,L|454:370,2,112.5,2|2|2,0:3|0:0|0:0,0:0:0:0:
243,360,135015,6,0,L|163:356,1,75,8|2,0:3|0:3,0:0:0:0:
78,351,135357,2,0,L|-2:347,1,75,8|2,0:3|0:3,0:0:0:0:
10,257,135700,2,0,L|90:261,1,75,8|2,0:3|0:3,0:0:0:0:
175,266,136043,2,0,L|255:270,1,75,8|2,0:3|0:3,0:0:0:0:
340,275,136386,5,2,0:0:0:0:
340,275,136729,5,2,0:0:0:0:
340,275,137072,5,2,0:0:0:0:
345,280,137757,6,0,B|331:234|349:199|349:199|306:220|258:193,1,165.000005035401,4|8,0:0|1:0,0:0:0:0:
181,178,138272,1,0,1:0:0:0:
96,210,138443,2,0,B|56:219|56:219|15:211,1,82.5000025177003,4|2,0:1|1:0,0:0:0:0:
59,131,138786,1,8,1:0:0:0:
141,94,138957,1,0,1:0:0:0:
231,104,139129,2,0,B|270:113|270:113|311:105,1,82.5000025177003,6|0,0:1|1:0,0:0:0:0:
378,43,139472,2,0,B|417:33|417:33|458:41,1,82.5000025177003,12|0,0:1|1:0,0:0:0:0:
494,125,139815,1,6,0:1:0:0:
482,214,139986,1,2,1:0:0:0:
470,303,140157,1,8,0:1:0:0:
470,303,140500,6,0,B|424:317|389:299|389:299|410:342|383:390,1,165.000005035401,4|8,0:0|1:0,0:0:0:0:
304,342,141015,1,0,1:0:0:0:
220,308,141186,2,0,B|180:299|180:299|139:307,1,82.5000025177003,4|2,0:1|1:0,0:0:0:0:
54,339,141529,1,8,1:0:0:0:
71,250,141700,1,2,1:2:0:0:
35,166,141872,1,6,0:3:0:0:
52,77,142043,1,2,1:2:0:0:
118,138,142215,1,8,0:1:0:0:
203,108,142386,1,2,1:2:0:0:
191,197,142557,1,6,0:3:0:0:
276,167,142729,1,6,0:3:0:0:
361,137,142900,1,8,1:0:0:0:
361,137,143243,6,0,B|375:178|353:216|353:216|392:198|446:217,1,165.000005035401,4|8,0:0|1:0,0:0:0:0:
397,296,143757,1,0,1:0:0:0:
306,291,143929,2,0,B|266:282|266:282|225:290,1,82.5000025177003,4|2,0:1|1:0,0:0:0:0:
141,324,144272,1,8,1:0:0:0:
53,300,144443,1,0,1:0:0:0:
98,221,144615,2,0,B|138:212|138:212|179:220,1,82.5000025177003,4|0,0:1|1:0,0:0:0:0:
225,289,144957,2,0,B|265:298|265:298|306:290,1,82.5000025177003,12|0,0:1|1:0,0:0:0:0:
354,213,145300,1,6,0:1:0:0:
338,123,145472,1,2,1:0:0:0:
276,56,145643,1,8,0:1:0:0:
276,56,145986,6,0,B|235:70|197:48|197:48|215:87|196:141,1,165.000005035401,4|8,0:0|1:0,0:0:0:0:
173,216,146500,1,0,1:0:0:0:
132,297,146672,2,0,B|172:306|172:306|213:298,1,82.5000025177003,4|2,0:1|1:0,0:0:0:0:
287,246,147015,2,0,B|328:238|328:238|368:247,1,82.5000025177003,8|0,1:0|1:0,0:0:0:0:
439,300,147357,5,6,0:3:0:0:
439,300,147700,5,6,0:3:0:0:
439,300,148043,5,6,0:3:0:0:
143,93,148729,5,4,0:0:0:0:
143,93,149072,6,0,B|196:86|196:86|219:93|219:93|239:82|239:82|307:73,2,150,2|2|0,0:1|0:1|1:0,0:0:0:0:
143,93,150100,5,0,1:0:0:0:
163,180,150272,1,0,1:0:0:0:
183,267,150443,2,0,B|236:260|236:260|259:267|259:267|279:256|279:256|347:247,2,150,2|2|0,0:1|0:1|1:0,0:0:0:0:
115,330,151300,1,0,0:0:0:0:
199,361,151472,1,4,0:0:0:0:
199,361,151815,6,0,B|248:354|248:354|268:343|268:343|291:350|291:350|344:343,2,150,2|2|0,0:1|0:1|1:0,0:0:0:0:
199,361,152843,5,0,1:0:0:0:
181,272,153015,1,0,1:0:0:0:
163,183,153186,1,2,0:1:0:0:
252,201,153357,1,2,1:2:0:0:
341,219,153529,1,8,0:1:0:0:
323,130,153700,1,2,1:2:0:0:
305,41,153872,1,2,1:2:0:0:
305,41,154215,6,0,B|237:37|237:37|230:45|230:45|147:42,2,150,4|2|2,3:0|0:1|0:1,0:0:0:0:
305,41,155243,5,0,1:0:0:0:
305,41,155586,5,0,1:0:0:0:
323,130,155757,1,0,1:0:0:0:
341,219,155929,2,0,B|291:225|291:225|271:236|271:236|248:229|248:229|195:236,2,150,2|2|0,0:1|0:1|1:0,0:0:0:0:
421,259,156786,1,0,0:1:0:0:
352,317,156957,1,4,0:0:0:0:
352,317,157300,6,0,B|299:324|299:324|276:317|276:317|256:328|256:328|206:334,2,150,2|2|0,0:1|0:1|1:0,0:0:0:0:
352,317,158329,6,0,B|337:265|337:265|344:222|344:222|327:148,1,150,4|8,0:3|0:0,0:0:0:0:
329,156,158757,1,8,0:3:0:0:
325,141,158843,1,8,0:3:0:0:
258,79,159015,2,0,B|206:94|206:94|163:87|163:87|89:104,1,150,4|8,0:3|0:0,0:0:0:0:
97,102,159443,1,8,0:3:0:0:
82,106,159529,1,8,0:3:0:0:
20,171,159700,6,0,B|-4:207|-4:207|-10:258|24:330,1,150,4|0,0:0|1:0,0:0:0:0:
100,343,160215,1,0,1:0:0:0:
181,306,160386,2,0,L|267:297,1,75,12|0,0:1|1:0,0:0:0:0:
345,292,160729,1,0,1:0:0:0:
434,283,160900,1,0,1:0:0:0:
508,232,161072,2,0,L|499:146,1,75,6|0,0:1|1:0,0:0:0:0:
416,123,161415,2,0,L|425:209,1,75,4|0,0:1|1:0,0:0:0:0:
339,167,161757,2,0,L|330:81,1,75,12|0,0:1|1:0,0:0:0:0:
252,47,162100,1,0,0:0:0:0:
252,47,162443,6,0,B|228:83|228:83|222:134|256:206,1,150,4|0,0:0|1:0,0:0:0:0:
284,269,162957,1,0,1:0:0:0:
229,341,163129,2,0,L|143:350,1,75,12|0,0:1|1:0,0:0:0:0:
64,354,163472,1,0,1:0:0:0:
108,276,163643,1,0,1:0:0:0:
56,201,163815,5,2,1:0:0:0:
160,202,163986,1,4,0:1:0:0:
108,276,164157,1,0,1:0:0:0:
107,132,164329,1,4,0:1:0:0:
160,202,164500,1,8,1:0:0:0:
56,201,164672,1,4,0:1:0:0:
107,132,164843,1,0,1:0:0:0:
158,63,165015,1,0,1:0:0:0:
219,128,165186,6,0,B|274:141|274:141|305:126|305:126|373:136,1,150,4|0,0:3|1:0,0:0:0:0:
452,152,165700,1,0,1:0:0:0:
410,232,165872,2,0,L|311:220,1,75,12|0,0:1|1:0,0:0:0:0:
265,279,166215,1,0,1:0:0:0:
206,211,166386,1,0,1:0:0:0:
136,267,166557,2,0,L|37:255,1,75,6|0,0:1|1:0,0:0:0:0:
46,168,166900,2,0,L|145:180,1,75,4|0,0:1|1:0,0:0:0:0:
187,116,167243,2,0,L|261:125,1,75,12|0,0:1|1:0,0:0:0:0:
350,141,167586,1,0,0:0:0:0:
350,141,167929,6,0,B|326:177|326:177|320:228|354:300,1,150,4|0,0:0|1:0,0:0:0:0:
394,356,168443,1,0,1:0:0:0:
303,359,168615,2,0,L|204:347,1,75,4|0,0:1|1:0,0:0:0:0:
142,324,168957,1,0,1:0:0:0:
52,335,169129,1,0,1:0:0:0:
87,252,169300,5,6,0:3:0:0:
87,252,169643,5,6,0:3:0:0:
87,252,169986,5,6,0:3:0:0:
435,62,170672,6,0,L|269:54,1,165.000005035401,4|8,0:0|1:0,0:0:0:0:
170,49,171186,1,0,1:0:0:0:
218,135,171357,2,0,B|228:174|228:174|208:228,1,82.5000025177003,2|4,0:1|0:1,0:0:0:0:
170,303,171700,1,8,0:1:0:0:
170,303,172043,6,0,B|212:311|212:311|271:303,1,82.5000025177003,2|0,1:3|1:0,0:0:0:0:
213,213,172386,1,8,0:1:0:0:
115,225,172557,1,0,1:0:0:0:
170,303,172729,1,4,1:0:0:0:
213,213,172900,1,4,0:1:0:0:
152,133,173072,1,8,0:1:0:0:
115,225,173243,1,0,0:0:0:0:
44,294,173415,6,0,P|17:219|53:147,1,165.000005035401,4|8,0:0|1:0,0:0:0:0:
115,225,173929,1,0,1:0:0:0:
213,213,174100,2,0,B|313:202,1,82.5000025177003,2|4,0:1|0:1,0:0:0:0:
394,196,174443,1,8,0:1:0:0:
394,196,174786,6,0,B|436:187|436:187|500:201,1,82.5000025177003,2|0,1:3|1:0,0:0:0:0:
437,286,175129,1,8,0:1:0:0:
339,274,175300,1,0,1:0:0:0:
394,196,175472,1,0,1:0:0:0:
437,286,175643,1,4,0:1:0:0:
339,274,175815,1,8,0:1:0:0:
394,196,175986,1,0,1:0:0:0:
357,107,176157,6,0,B|313:94|313:94|186:115,2,165.000005035401,4|8|2,0:1|0:1|0:1,0:0:0:0:
307,193,177015,1,4,0:1:0:0:
209,205,177186,1,8,0:1:0:0:
209,205,177529,5,0,1:0:0:0:
183,300,177700,1,0,1:0:0:0:
114,228,177872,2,0,B|109:184|109:184|136:132,1,82.5000025177003,8|0,0:1|0:0,0:0:0:0:
205,90,178215,1,4,1:0:0:0:
287,143,178386,1,4,1:0:0:0:
209,205,178557,1,8,0:1:0:0:
126,150,178729,1,0,0:0:0:0:
205,90,178900,6,0,L|371:98,1,165.000005035401,4|8,0:0|1:0,0:0:0:0:
453,152,179415,1,0,1:0:0:0:
378,217,179586,2,0,B|367:257|367:257|374:326,1,82.5000025177003,2|4,0:1|0:1,0:0:0:0:
425,380,179929,1,8,0:1:0:0:
425,380,180272,6,0,B|378:354|378:354|257:365,1,165.000005035401,6|8,0:3|0:0,0:0:0:0:
251,368,180700,1,8,0:3:0:0:
235,371,180786,1,8,0:3:0:0:
136,373,180957,2,0,B|110:326|110:326|121:205,1,165.000005035401,6|8,0:3|0:0,0:0:0:0:
124,199,181386,1,8,0:3:0:0:
127,183,181472,1,8,0:3:0:0:
203,135,181643,2,0,B|249:132|249:132|258:141|258:141|329:137,1,112.5,6|0,0:3|0:0,0:0:0:0:
