osu file format v14

[General]
AudioFilename: audio.mp3
AudioLeadIn: 0
PreviewTime: 63903
Countdown: 0
SampleSet: Soft
StackLeniency: 0.4
Mode: 0
LetterboxInBreaks: 0
WidescreenStoryboard: 0

[Editor]
DistanceSpacing: 1
BeatDivisor: 4
GridSize: 4
TimelineZoom: 1.4

[Metadata]
Title:Main Theme - Dubstep Remix
TitleUnicode:Main Theme - Dubstep Remix
Artist:Lucas Fader
ArtistUnicode:Lucas Fader
Creator:Strategas
Version:Easy: Tiny Tiger
Source:Crash Bandicoot 3 Warped
Tags:sony playstation drum and bass drumstep dubstep game Universal Interactive Studios My Angel Azusa sahuang
BeatmapID:1272701
BeatmapSetID:588976

[Difficulty]
HPDrainRate:2
CircleSize:2.5
OverallDifficulty:2
ApproachRate:3.5
SliderMultiplier:1.1
SliderTickRate:1

[Events]
//Background and Video events
0,0,"cb3.jpg",0,0
//Break Periods
//Storyboard Layer 0 (Background)
//Storyboard Layer 1 (Fail)
//Storyboard Layer 2 (Pass)
//Storyboard Layer 3 (Foreground)
//Storyboard Sound Samples

[TimingPoints]
2355,387.096774193548,4,2,25,55,1,0
8161,-100,4,1,24,70,0,0
8548,-100,4,2,25,60,0,0
14354,-100,4,1,24,75,0,0
14742,-100,4,2,25,65,0,0
20548,-100,4,2,24,80,0,0
20935,-100,4,2,25,65,0,0
26742,-100,4,2,24,80,0,0
27129,-100,4,2,25,55,0,0
28290,-100,4,2,23,75,0,0
28677,-100,4,2,25,55,0,0
28967,-100,4,2,25,55,0,0
29161,-100,4,2,25,10,0,0
29258,-100,4,2,25,55,0,0
29838,-100,4,2,23,75,0,0
30225,-100,4,2,25,55,0,0
31387,-100,4,2,23,75,0,0
31774,-100,4,2,25,55,0,0
34484,-100,4,2,23,75,0,0
34871,-100,4,2,25,55,0,0
35064,-100,4,2,25,30,0,0
35161,-100,4,2,25,55,0,0
35354,-100,4,2,25,10,0,0
35451,-100,4,2,25,55,0,0
36032,-100,4,2,23,75,0,0
36419,-100,4,2,25,55,0,0
37580,-100,4,2,23,75,0,0
37967,-100,4,2,25,60,0,0
38354,-100,4,2,25,50,0,0
38742,-100,4,2,25,40,0,0
39129,-100,4,2,25,30,0,0
39516,-100,4,2,25,60,0,0
39709,-100,4,2,25,30,0,0
39806,-100,4,2,25,60,0,0
40000,-100,4,2,25,20,0,0
40096,-100,4,2,25,60,0,0
40290,-100,4,2,22,60,0,0
40871,-100,4,2,25,60,0,0
41258,-100,4,2,25,30,0,0
41354,-100,4,2,25,60,0,0
41548,-100,4,2,25,10,0,0
41645,-100,4,2,25,60,0,0
41838,-100,4,2,26,50,0,0
41935,-100,4,2,26,5,0,0
42032,-100,4,2,26,35,0,0
42129,-100,4,2,26,5,0,0
42225,-100,4,2,26,50,0,0
42322,-100,4,2,26,5,0,0
42419,-100,4,2,26,35,0,0
42516,-100,4,2,26,5,0,0
42613,-100,4,2,25,60,0,0
42806,-100,4,2,25,30,0,0
42903,-100,4,2,25,60,0,0
43096,-100,4,2,25,30,0,0
43193,-100,4,2,25,60,0,0
43387,-100,4,2,22,60,0,0
43967,-100,4,2,25,60,0,0
45709,-100,4,2,25,65,0,0
47451,-100,4,2,25,30,0,0
47548,-100,4,2,25,65,0,0
47742,-100,4,2,25,30,0,0
47838,-100,4,2,25,65,0,0
49000,-100,4,2,23,65,0,0
49193,-100,4,2,25,70,0,0
49387,-100,4,2,23,70,0,0
49580,-100,4,2,25,75,0,0
49774,-100,4,2,23,75,0,0
49967,-100,4,2,25,80,0,0
50161,-100,4,2,23,80,0,0
50354,-100,4,2,25,40,0,0
51903,-100,4,2,25,70,0,1
52290,-100,4,1,26,70,0,1
52580,-100,4,2,26,30,0,1
52677,-100,4,1,26,50,0,1
52774,-100,4,2,26,30,0,1
52871,-100,4,1,26,70,0,1
52967,-100,4,2,26,30,0,1
53064,-100,4,1,26,70,0,1
53161,-100,4,2,26,30,0,1
53258,-100,4,1,26,70,0,1
53354,-100,4,2,26,30,0,1
53451,-100,4,1,26,50,0,1
53548,-100,4,2,26,30,0,1
53645,-100,4,1,26,70,0,1
53742,-100,4,2,26,30,0,1
53838,-100,4,1,26,50,0,1
53935,-100,4,2,26,30,0,1
54032,-100,4,1,26,70,0,1
54129,-100,4,2,26,30,0,1
54225,-100,4,1,26,50,0,1
54322,-100,4,2,26,30,0,1
54419,-100,4,1,26,70,0,1
54516,-100,4,2,26,30,0,1
54613,-100,4,1,21,70,0,1
54903,-100,4,2,26,30,0,1
55000,-100,4,1,26,70,0,1
55290,-100,4,2,26,30,0,1
55387,-100,4,1,26,70,0,1
55484,-100,4,2,26,30,0,1
55580,-100,4,1,26,70,0,1
55677,-100,4,2,26,30,0,1
55774,-100,4,1,26,50,0,1
55871,-100,4,2,26,30,0,1
55967,-100,4,1,26,70,0,1
56064,-100,4,2,26,30,0,1
56161,-100,4,1,26,70,0,1
56258,-100,4,2,26,30,0,1
56354,-100,4,1,25,70,0,1
57709,-100,4,1,24,85,0,1
58096,-100,4,1,25,70,0,1
58387,-100,4,2,26,30,0,1
58483,-100,4,1,26,70,0,1
58580,-100,4,2,26,30,0,1
58677,-100,4,1,26,70,0,1
58774,-100,4,2,26,30,0,1
58870,-100,4,1,26,50,0,1
58967,-100,4,2,26,30,0,1
59064,-100,4,1,26,70,0,1
59161,-100,4,2,26,30,0,1
59258,-100,4,1,26,70,0,1
59354,-100,4,2,26,30,0,1
59451,-100,4,1,26,70,0,1
59548,-100,4,2,26,30,0,1
59644,-100,4,1,26,50,0,1
59742,-100,4,2,26,30,0,1
59838,-100,4,1,26,70,0,1
59935,-100,4,2,26,30,0,1
60031,-100,4,1,26,50,0,1
60129,-100,4,2,26,30,0,1
60225,-100,4,1,26,70,0,1
60322,-100,4,2,26,30,0,1
60418,-100,4,1,26,50,0,1
60516,-100,4,2,26,30,0,1
60612,-100,4,1,26,70,0,1
60709,-100,4,2,26,30,0,1
60806,-100,4,1,21,70,0,1
61096,-100,4,2,26,30,0,1
61193,-100,4,1,26,70,0,1
61484,-100,4,2,26,30,0,1
61580,-100,4,1,26,70,0,1
61677,-100,4,2,26,30,0,1
61774,-100,4,1,26,70,0,1
61871,-100,4,2,26,30,0,1
61967,-100,4,1,26,50,0,1
62064,-100,4,2,26,30,0,1
62161,-100,4,1,26,70,0,1
62258,-100,4,2,26,30,0,1
62354,-100,4,1,26,70,0,1
62451,-100,4,2,26,30,0,1
62548,-100,4,1,26,70,0,1
62645,-100,4,2,26,30,0,1
62742,-100,4,2,25,40,0,0
63032,-100,4,2,25,20,0,0
63129,-100,4,2,25,55,0,0
63419,-100,4,2,25,25,0,0
63516,-100,4,2,25,70,0,0
63806,-100,4,2,25,30,0,0
63903,-100,4,2,25,20,0,0
64193,-100,4,2,25,5,0,0
64290,-100,4,2,25,60,0,0
64677,-100,4,2,20,45,0,0
65451,-100,4,2,20,60,0,0
66225,-100,4,2,20,45,0,0
66999,-100,4,2,20,60,0,0
67193,-100,4,2,20,60,0,0
67387,-100,4,2,20,60,0,0
67774,-100,4,2,20,45,0,0
68548,-100,4,2,20,60,0,0
69516,-100,4,2,25,60,0,0
70484,-100,4,2,21,60,0,0
70871,-100,4,2,20,35,0,0
71645,-100,4,2,20,60,0,0
72419,-100,4,2,20,35,0,0
73193,-100,4,2,20,60,0,0
73387,-100,4,2,20,60,0,0
73580,-100,4,2,20,60,0,0
73967,-100,4,2,20,35,0,0
74741,-100,4,2,20,60,0,0
75129,-100,4,2,21,60,0,0
76774,-100,4,2,21,20,0,0
79774,-100,4,2,25,30,0,0
81225,-100,4,2,25,5,0,0
81322,-100,4,2,25,40,0,0
82774,-100,4,2,25,10,0,0
82871,-100,4,2,25,45,0,0
83064,-100,4,2,25,10,0,0
83161,-100,4,2,25,45,0,0
83354,-100,4,2,25,10,0,0
83451,-100,4,2,25,45,0,0
83645,-100,4,2,25,10,0,0
83742,-100,4,2,25,45,0,0
83935,-100,4,2,25,10,0,0
84032,-100,4,2,25,45,0,0
84225,-100,4,2,25,10,0,0
84419,-100,4,2,25,50,0,0
84613,-100,4,2,25,10,0,0
84709,-100,4,2,25,50,0,0
84903,-100,4,2,25,10,0,0
85000,-100,4,2,25,50,0,0
85193,-100,4,2,25,10,0,0
85290,-100,4,2,25,50,0,0
85484,-100,4,2,25,10,0,0
85580,-100,4,2,25,50,0,0
85774,-100,4,2,25,10,0,0
85967,-100,4,2,25,55,0,0
87516,-100,4,2,21,60,0,0
89064,-100,4,2,25,60,0,0
91580,-100,4,2,25,80,0,0
92161,-100,4,2,25,60,0,0
94677,-100,4,2,25,80,0,0
95258,-100,4,2,25,60,0,0
97774,-100,4,2,25,80,0,0
98354,-100,4,2,25,60,0,0
100290,-100,4,2,25,70,0,0
100677,-100,4,2,25,75,0,0
101451,-100,4,2,25,40,0,0
104548,-100,4,2,25,52,0,0
107645,-100,4,2,25,60,0,0
113451,-100,4,2,24,60,0,0
113838,-100,4,2,25,55,0,0
115000,-100,4,2,23,75,0,0
115387,-100,4,2,25,55,0,0
116548,-100,4,2,23,75,0,0
116935,-100,4,2,25,55,0,0
118096,-100,4,2,23,75,0,0
118484,-100,4,2,25,55,0,0
121193,-100,4,2,23,75,0,0
121580,-100,4,2,25,55,0,0
122742,-100,4,2,23,75,0,0
123129,-100,4,2,25,55,0,0
124290,-100,4,2,23,75,0,0
124677,-100,4,2,25,60,0,0
125064,-100,4,2,25,50,0,0
125451,-100,4,2,25,40,0,0
125838,-100,4,2,25,30,0,0
126225,-100,4,2,25,60,0,0
127000,-100,4,2,22,60,0,0
127774,377.358490566038,4,2,25,60,1,0
128528,-100,4,2,26,30,0,0
128717,-100,4,2,26,50,0,0
128906,-100,4,2,26,30,0,0
129094,-100,4,2,26,50,0,0
129283,368.098159509202,4,2,25,60,1,0
130019,-100,4,2,22,50,0,0
130571,-100,4,2,25,50,0,0
130755,361.44578313253,4,2,25,60,1,0
132200,355.029585798817,4,2,25,60,1,0
133620,348.837209302326,4,2,25,60,1,0
135015,342.857142857143,4,2,23,60,1,0
137757,-100,4,2,26,70,0,1
138100,-100,4,2,26,70,0,1
138186,-100,4,2,26,30,0,1
138272,-100,4,2,26,70,0,1
138357,-100,4,2,26,30,0,1
138443,-100,4,2,26,50,0,1
138529,-100,4,2,26,30,0,1
138615,-100,4,2,26,70,0,1
138700,-100,4,2,26,30,0,1
138786,-100,4,2,26,70,0,1
138872,-100,4,2,26,30,0,1
138957,-100,4,2,26,70,0,1
139043,-100,4,2,26,30,0,1
139129,-100,4,2,26,50,0,1
139215,-100,4,2,26,30,0,1
139300,-100,4,2,26,70,0,1
139386,-100,4,2,26,30,0,1
139472,-100,4,2,26,50,0,1
139557,-100,4,2,26,30,0,1
139643,-100,4,2,26,70,0,1
139729,-100,4,2,26,30,0,1
139815,-100,4,2,26,50,0,1
139900,-100,4,2,26,30,0,1
139986,-100,4,2,26,70,0,1
140072,-100,4,2,26,30,0,1
140157,-100,4,2,21,80,0,1
140500,-100,4,2,26,70,0,1
140757,-100,4,2,26,30,0,1
140843,-100,4,2,26,70,0,1
140929,-100,4,2,26,30,0,1
141015,-100,4,2,26,70,0,1
141100,-100,4,2,26,30,0,1
141186,-100,4,2,26,50,0,1
141272,-100,4,2,26,30,0,1
141357,-100,4,2,26,70,0,1
141443,-100,4,2,26,30,0,1
141529,-100,4,2,26,70,0,1
141615,-100,4,2,26,30,0,1
141700,-100,4,2,25,70,0,1
142900,-100,4,2,24,70,0,1
143243,-100,4,2,26,70,0,1
143500,-100,4,2,26,30,0,1
143586,-100,4,2,26,70,0,1
143672,-100,4,2,26,30,0,1
143757,-100,4,2,26,70,0,1
143843,-100,4,2,26,30,0,1
143929,-100,4,2,26,50,0,1
144015,-100,4,2,26,30,0,1
144100,-100,4,2,26,70,0,1
144186,-100,4,2,26,30,0,1
144272,-100,4,2,26,70,0,1
144357,-100,4,2,26,30,0,1
144443,-100,4,2,26,70,0,1
144529,-100,4,2,26,30,0,1
144615,-100,4,2,26,50,0,1
144700,-100,4,2,26,30,0,1
144786,-100,4,2,26,70,0,1
144872,-100,4,2,26,30,0,1
144957,-100,4,2,26,50,0,1
145043,-100,4,2,26,30,0,1
145129,-100,4,2,26,70,0,1
145215,-100,4,2,26,30,0,1
145300,-100,4,2,26,50,0,1
145386,-100,4,2,26,30,0,1
145472,-100,4,2,26,70,0,1
145557,-100,4,2,26,30,0,1
145643,-100,4,2,21,80,0,1
145986,-100,4,2,26,70,0,1
146243,-100,4,2,26,30,0,1
146329,-100,4,2,26,70,0,1
146415,-100,4,2,26,30,0,1
146500,-100,4,2,26,70,0,1
146586,-100,4,2,26,30,0,1
146672,-100,4,2,26,50,0,1
146757,-100,4,2,26,30,0,1
146843,-100,4,2,26,70,0,1
146929,-100,4,2,26,30,0,1
147015,-100,4,2,26,70,0,1
147100,-100,4,2,26,30,0,1
147186,-100,4,2,26,70,0,1
147272,-100,4,2,26,30,0,1
147357,-100,4,2,25,40,0,0
147615,-100,4,2,25,5,0,0
147700,-100,4,2,25,55,0,0
147957,-100,4,2,25,5,0,0
148043,-100,4,2,25,70,0,0
148300,-100,4,2,25,5,0,0
148386,-100,4,2,25,60,0,0
148643,-100,4,2,25,5,0,0
148729,-100,4,2,26,60,0,0
149072,-100,4,2,20,35,0,0
149757,-100,4,2,20,60,0,0
150443,-100,4,2,20,35,0,0
151128,-100,4,2,20,60,0,0
151300,-100,4,2,20,60,0,0
151472,-100,4,2,20,60,0,0
151815,-100,4,2,20,35,0,0
152500,-100,4,2,20,60,0,0
153357,-100,4,2,25,50,0,0
154215,-100,4,2,21,60,0,0
154557,-100,4,2,20,35,0,0
155242,-100,4,2,20,60,0,0
155929,-100,4,2,20,35,0,0
156614,-100,4,2,20,60,0,0
156786,-100,4,2,20,60,0,0
156957,-100,4,2,20,60,0,0
157300,-100,4,2,20,35,0,0
157985,-100,4,2,20,60,0,0
158329,-100,4,2,21,60,0,0
159700,-100,4,2,26,60,0,0
160043,-100,4,2,26,60,0,0
160129,-100,4,2,26,25,0,0
160215,-100,4,2,26,60,0,0
160300,-100,4,2,26,25,0,0
160386,-100,4,2,26,40,0,0
160472,-100,4,2,26,25,0,0
160557,-100,4,2,26,60,0,0
160643,-100,4,2,26,25,0,0
160729,-100,4,2,26,60,0,0
160815,-100,4,2,26,25,0,0
160900,-100,4,2,26,60,0,0
160986,-100,4,2,26,25,0,0
161072,-100,4,2,26,40,0,0
161157,-100,4,2,26,25,0,0
161243,-100,4,2,26,60,0,0
161329,-100,4,2,26,25,0,0
161415,-100,4,2,26,40,0,0
161500,-100,4,2,26,25,0,0
161586,-100,4,2,26,60,0,0
161672,-100,4,2,26,25,0,0
161757,-100,4,2,26,40,0,0
161843,-100,4,2,26,25,0,0
161929,-100,4,2,26,60,0,0
162015,-100,4,2,26,25,0,0
162100,-100,4,2,21,60,0,0
162443,-100,4,2,26,60,0,0
162700,-100,4,2,26,25,0,0
162786,-100,4,2,26,60,0,0
162872,-100,4,2,26,25,0,0
162957,-100,4,2,26,60,0,0
163043,-100,4,2,26,25,0,0
163129,-100,4,2,26,40,0,0
163215,-100,4,2,26,25,0,0
163300,-100,4,2,26,60,0,0
163386,-100,4,2,26,25,0,0
163472,-100,4,2,26,60,0,0
163557,-100,4,2,26,25,0,0
163643,-100,4,2,26,60,0,0
163729,-100,4,2,26,25,0,0
163815,-100,4,2,26,60,0,0
163900,-100,4,2,26,25,0,0
163986,-100,4,2,26,40,0,0
164072,-100,4,2,26,25,0,0
164157,-100,4,2,26,60,0,0
164243,-100,4,2,26,25,0,0
164329,-100,4,2,26,40,0,0
164415,-100,4,2,26,25,0,0
164500,-100,4,2,26,60,0,0
164586,-100,4,2,26,25,0,0
164672,-100,4,2,26,40,0,0
164757,-100,4,2,26,25,0,0
164843,-100,4,2,19,60,0,0
164929,-100,4,2,26,25,0,0
165015,-100,4,2,19,60,0,0
165100,-100,4,2,26,25,0,0
165186,-100,4,2,21,60,0,0
165529,-100,4,2,26,60,0,0
165615,-100,4,2,26,25,0,0
165700,-100,4,2,26,60,0,0
165786,-100,4,2,26,25,0,0
165872,-100,4,2,26,40,0,0
165957,-100,4,2,26,25,0,0
166043,-100,4,2,26,60,0,0
166129,-100,4,2,26,25,0,0
166215,-100,4,2,26,60,0,0
166300,-100,4,2,26,25,0,0
166386,-100,4,2,26,60,0,0
166472,-100,4,2,26,25,0,0
166557,-100,4,2,26,40,0,0
166643,-100,4,2,26,25,0,0
166729,-100,4,2,26,60,0,0
166815,-100,4,2,26,25,0,0
166900,-100,4,2,26,40,0,0
166986,-100,4,2,26,25,0,0
167072,-100,4,2,26,60,0,0
167157,-100,4,2,26,25,0,0
167243,-100,4,2,26,40,0,0
167329,-100,4,2,26,25,0,0
167415,-100,4,2,26,60,0,0
167500,-100,4,2,26,25,0,0
167586,-100,4,2,21,60,0,0
167929,-100,4,2,26,60,0,0
168186,-100,4,2,26,25,0,0
168272,-100,4,2,26,60,0,0
168357,-100,4,2,26,25,0,0
168443,-100,4,2,26,60,0,0
168529,-100,4,2,26,25,0,0
168615,-100,4,2,26,40,0,0
168700,-100,4,2,26,25,0,0
168786,-100,4,2,26,60,0,0
168872,-100,4,2,26,25,0,0
168957,-100,4,2,26,60,0,0
169043,-100,4,2,26,25,0,0
169129,-100,4,2,26,60,0,0
169215,-100,4,2,26,25,0,0
169300,-100,4,2,25,60,0,0
169557,-100,4,2,25,15,0,0
169643,-100,4,2,25,60,0,0
169900,-100,4,2,25,5,0,0
169986,-100,4,2,25,60,0,0
170243,-100,4,2,25,10,0,0
170329,-100,4,2,25,60,0,0
170586,-100,4,2,25,5,0,0
170672,-100,4,2,26,70,0,1
170929,-100,4,2,26,30,0,1
171015,-100,4,2,19,70,0,1
171100,-100,4,2,26,30,0,1
171186,-100,4,2,19,70,0,1
171272,-100,4,2,26,30,0,1
171357,-100,4,2,19,70,0,1
171615,-100,4,2,26,30,0,1
171700,-100,4,2,19,70,0,1
172043,-100,4,2,20,70,0,1
172086,-100,4,2,26,30,0,1
172215,-100,4,2,20,70,0,1
172257,-100,4,2,26,30,0,1
172386,-100,4,2,20,70,0,1
172557,-100,4,2,19,70,0,1
172643,-100,4,2,26,30,0,1
172729,-100,4,2,19,70,0,1
172815,-100,4,2,26,30,0,1
172900,-100,4,2,19,70,0,1
172986,-100,4,2,26,30,0,1
173072,-100,4,2,19,70,0,1
173243,-100,4,2,20,70,0,1
173329,-100,4,2,26,30,0,1
173415,-100,4,2,19,70,0,1
173672,-100,4,2,26,30,0,1
173757,-100,4,2,19,70,0,1
173843,-100,4,2,26,30,0,1
173929,-100,4,2,19,70,0,1
174015,-100,4,2,26,30,0,1
174100,-100,4,2,19,70,0,1
174357,-100,4,2,26,30,0,1
174443,-100,4,2,19,70,0,1
174786,-100,4,2,20,70,0,1
174829,-100,4,2,26,30,0,1
174957,-100,4,2,20,70,0,1
175000,-100,4,2,26,30,0,1
175129,-100,4,2,20,70,0,1
175300,-100,4,2,19,70,0,1
175386,-100,4,2,26,30,0,1
175472,-100,4,2,19,70,0,1
175557,-100,4,2,26,30,0,1
175643,-100,4,2,19,70,0,1
175729,-100,4,2,26,30,0,1
175815,-100,4,2,19,70,0,1
176072,-100,4,2,26,30,0,1
176157,-100,4,2,19,70,0,1
176415,-100,4,2,26,30,0,1
176500,-100,4,2,19,70,0,1
176757,-100,4,2,26,30,0,1
176843,-100,4,2,19,70,0,1
177100,-100,4,2,26,30,0,1
177186,-100,4,2,19,70,0,1
177529,-100,4,2,20,70,0,1
177572,-100,4,2,26,30,0,1
177700,-100,4,2,20,70,0,1
177743,-100,4,2,26,30,0,1
177872,-100,4,2,20,70,0,1
178129,-100,4,2,26,30,0,1
178215,-100,4,2,19,70,0,1
178300,-100,4,2,26,30,0,1
178386,-100,4,2,19,70,0,1
178472,-100,4,2,26,30,0,1
178557,-100,4,2,19,70,0,1
178729,-100,4,2,20,70,0,1
178815,-100,4,2,26,30,0,1
178900,-100,4,2,19,70,0,1
179157,-100,4,2,26,30,0,1
179243,-100,4,2,19,70,0,1
179329,-100,4,2,26,30,0,1
179415,-100,4,2,19,70,0,1
179500,-100,4,2,26,30,0,1
179586,-100,4,2,19,70,0,1
179843,-100,4,2,26,30,0,1
179929,-100,4,2,19,70,0,1
180272,-100,4,2,20,70,0,1
181643,-100,4,2,20,70,0,0
181900,-100,4,2,21,40,0,0

[Colours]
Combo1 : 255,207,64
Combo2 : 64,255,64
Combo3 : 64,150,255
Combo4 : 244,74,100

[HitObjects]
87,111,2355,6,0,B|142:98|142:98|214:113,2,110,0|8|0,0:0|0:1|0:0,0:0:0:0:
142,206,3516,1,8,0:1:0:0:
198,300,3903,2,0,B|143:313|143:313|71:298,2,110,2|8|0,0:3|0:1|0:0,0:0:0:0:
143,205,5064,1,8,0:1:0:0:
252,205,5451,6,0,L|379:211,2,110,2|8|0,0:3|0:1|0:0,0:0:0:0:
143,205,6613,1,8,0:1:0:0:
202,112,7000,2,0,L|207:2,1,110,2|8,1:3|0:1,0:0:0:0:
50,155,8161,1,8,1:0:0:0:
44,264,8548,5,6,0:3:0:0:
147,302,8935,2,0,B|205:325|205:325|295:293|295:293|364:314,1,220,8|8,0:1|0:1,0:0:0:0:
459,342,10096,1,2,0:3:0:0:
469,232,10484,2,0,B|463:160|463:160|405:134|311:163,1,220,8|8,0:1|0:1,0:0:0:0:
212,187,11645,5,2,0:3:0:0:
125,119,12032,2,0,P|174:83|231:78,2,110,8|2|8,0:1|0:0|0:1,0:0:0:0:
108,224,13193,2,0,P|136:269|188:296,1,110,2|8,1:3|0:1,0:0:0:0:
18,151,14354,1,8,1:0:0:0:
125,119,14742,6,0,B|178:107|178:107|252:120,1,110,6|8,0:3|0:1,0:0:0:0:
339,141,15516,1,2,0:0:0:0:
444,170,15903,1,8,0:1:0:0:
499,264,16290,2,0,B|446:276|446:276|372:263,1,110,2|8,0:3|0:1,0:0:0:0:
285,242,17064,1,2,0:0:0:0:
180,213,17451,1,8,0:1:0:0:
259,136,17838,6,0,P|303:113|376:107,1,110,2|8,0:3|0:1,0:0:0:0:
439,183,18613,2,0,P|436:232|405:298,1,110,2|8,0:0|0:1,0:0:0:0:
329,358,19387,1,2,1:3:0:0:
221,334,19774,1,8,0:1:0:0:
143,128,20548,1,8,1:0:0:0:
252,119,20935,6,0,L|238:231,1,110,6|8,0:3|0:1,0:0:0:0:
129,237,21709,2,0,L|143:125,1,110,2|8,0:0|0:1,0:0:0:0:
252,119,22484,2,0,L|364:133,1,110,2|8,0:3|0:1,0:0:0:0:
347,241,23258,2,0,L|235:227,1,110,2|8,0:0|0:1,0:0:0:0:
129,209,24032,5,2,0:3:0:0:
55,127,24419,2,0,B|110:76|196:114|196:114|225:93|270:97,1,220,8|8,0:1|0:1,0:0:0:0:
365,132,25580,1,2,1:3:0:0:
408,233,25967,2,0,P|345:240|288:210,1,110,8|0,0:1|0:0,0:0:0:0:
253,124,26742,1,8,1:0:0:0:
315,33,27129,5,2,0:3:0:0:
190,214,27903,1,8,0:1:0:0:
409,199,28677,2,0,L|484:242,2,82.4999999999999,2|2|2,0:3|0:3|0:3,0:0:0:0:
143,268,30225,6,0,P|117:313|119:379,2,110,6|2|8,0:3|0:0|0:1,0:0:0:0:
223,343,31387,1,10,0:3:0:0:
330,366,31774,2,0,P|329:314|293:258,1,110,6|6,0:3|0:3,0:0:0:0:
220,189,32548,2,0,P|221:134|249:87,1,110,8|2,0:1|0:3,0:0:0:0:
347,39,33322,5,2,0:3:0:0:
128,66,34096,1,8,0:1:0:0:
272,232,34871,2,0,L|286:322,2,82.4999999999999,2|2|2,0:3|0:3|0:3,0:0:0:0:
46,73,36419,6,0,B|104:63|104:63|171:76,2,110,2|2|8,0:3|0:0|0:1,0:0:0:0:
104,166,37580,1,10,0:3:0:0:
213,165,37967,2,0,B|277:172|323:153|323:153|351:212|344:259|344:259|401:266|451:251,1,330,2|2,0:0|0:0,0:0:0:0:
508,156,39516,5,2,0:3:0:0:
508,156,41064,1,2,0:3:0:0:
74,232,42613,5,2,0:3:0:0:
74,232,44161,1,2,0:3:0:0:
306,86,45709,5,2,0:3:0:0:
306,86,46484,1,2,0:3:0:0:
205,281,47258,5,2,0:3:0:0:
205,281,48032,1,2,0:3:0:0:
373,140,48806,5,2,0:3:0:0:
282,77,49193,1,2,0:3:0:0:
219,168,49580,1,2,0:3:0:0:
310,231,49967,1,2,0:3:0:0:
66,64,51903,6,0,L|71:177,1,110,4|8,0:1|0:1,0:0:0:0:
180,173,52677,2,0,L|175:60,1,110,4|8,2:1|0:0,0:0:0:0:
284,62,53451,2,0,L|289:172,2,110,6|12|6,2:1|2:1|2:1,0:0:0:0:
394,59,54613,1,8,0:0:0:0:
454,150,55000,6,0,B|465:205|465:205|454:269,1,110,4|8,3:0|0:0,0:0:0:0:
345,259,55774,2,0,B|334:204|334:204|345:140,1,110,4|8,2:1|0:0,0:0:0:0:
294,52,56548,2,0,B|214:36|214:36|125:51,2,165,6|2|8,0:3|0:2|0:0,0:0:0:0:
257,155,58096,6,0,P|238:206|251:278,1,110,4|8,3:0|0:0,0:0:0:0:
331,326,58871,2,0,P|351:276|346:222,1,110,4|8,2:1|0:0,0:0:0:0:
359,112,59645,2,0,P|413:106|463:126,2,110,6|12|6,2:1|2:1|2:1,0:0:0:0:
257,155,60806,1,8,0:0:0:0:
156,110,61193,6,0,B|102:102|102:102|29:111,1,110,4|8,3:0|0:0,0:0:0:0:
56,218,61967,2,0,B|110:224|110:224|164:216,1,110,4|8,2:1|0:0,0:0:0:0:
257,155,62742,1,4,0:3:0:0:
359,195,63129,1,4,0:3:0:0:
342,86,63516,1,4,0:3:0:0:
126,42,64290,5,4,0:0:0:0:
86,144,64677,2,0,B|116:189|116:189|154:147,2,110,2|10|0,0:1|1:0|1:0,0:0:0:0:
294,75,66225,2,0,B|264:30|264:30|226:72,2,110,2|10|0,0:1|0:1|1:0,0:0:0:0:
336,176,67387,5,2,0:3:0:0:
370,280,67774,2,0,B|332:322|332:322|302:277,2,110,2|2|0,0:1|0:1|1:0,0:0:0:0:
336,176,68935,2,0,P|250:183|199:250,2,165,2|2|2,1:3|1:2|1:2,0:0:0:0:
302,277,70484,5,4,0:1:0:0:
404,315,70871,2,0,B|449:285|449:285|407:247,2,110,2|2|0,0:1|0:1|1:0,0:0:0:0:
340,108,72419,2,0,B|295:138|295:138|337:176,2,110,2|2|0,0:1|0:1|1:0,0:0:0:0:
442,146,73580,5,2,0:3:0:0:
480,249,73967,2,0,B|450:294|450:294|412:252,2,110,2|2|0,0:1|0:1|1:0,0:0:0:0:
442,146,75129,2,0,B|386:140|386:140|333:157,1,110,4|8,3:0|0:0,0:0:0:0:
238,208,75903,2,0,B|182:214|182:214|129:197,1,110,4|8,3:0|0:0,0:0:0:0:
37,140,76677,5,4,0:0:0:0:
256,192,76871,12,2,81322,0:0:0:0:
146,96,82871,6,0,L|153:192,2,82.5,2|2|2,0:0|2:0|0:0,0:0:0:0:
404,191,84419,2,0,L|409:273,2,82.5,2|2|2,0:0|0:0|0:0,0:0:0:0:
148,293,85967,6,0,L|52:300,2,82.5,2|2|2,0:0|0:0|0:0,0:0:0:0:
344,99,87516,2,0,L|440:92,2,82.5,2|2|2,0:0|0:0|0:0,0:0:0:0:
69,109,89064,6,0,P|69:150|83:188,2,82.5,2|2|2,0:3|0:0|0:0,0:0:0:0:
177,130,90032,1,2,0:0:0:0:
325,202,90613,2,0,P|324:243|310:281,2,82.5,2|2|2,0:0|0:0|0:0,0:0:0:0:
216,222,91580,1,2,0:0:0:0:
172,62,92161,6,0,P|130:62|92:76,2,82.5,2|2|2,0:0|0:0|0:0,0:0:0:0:
149,169,93129,1,2,0:0:0:0:
78,318,93709,2,0,P|36:317|-2:303,2,82.5,2|0|0,0:0|0:0|0:0,0:0:0:0:
63,208,94677,1,2,0:0:0:0:
131,58,95258,6,0,B|256:20|225:95|361:52,1,220,2|8,0:3|0:1,0:0:0:0:
509,205,96806,2,0,B|384:243|415:168|279:211,1,220,2|8,0:3|0:1,0:0:0:0:
86,281,98354,6,0,B|48:156|123:187|80:51,1,220,2|8,0:3|0:1,0:0:0:0:
304,64,99903,2,0,B|266:189|341:158|298:294,1,220,2|8,0:3|0:1,0:0:0:0:
205,227,101064,1,8,0:1:0:0:
100,262,101451,5,2,0:3:0:0:
115,153,101838,1,0,0:0:0:0:
333,128,102613,1,2,0:0:0:0:
131,40,103387,1,0,0:0:0:0:
349,15,104161,1,2,0:0:0:0:
318,237,104935,1,0,0:0:0:0:
100,262,105709,1,2,1:2:0:0:
113,153,106096,6,0,L|294:130,2,165,2|2|2,1:2|1:2|1:2,0:0:0:0:
118,42,107645,6,0,L|236:27,1,110,6|8,0:3|0:1,0:0:0:0:
335,46,108419,2,0,L|453:61,1,110,2|8,0:0|0:1,0:0:0:0:
441,169,109193,2,0,L|323:184,1,110,2|8,0:3|0:1,0:0:0:0:
224,165,109967,2,0,L|106:150,1,110,2|8,0:0|0:1,0:0:0:0:
30,222,110742,5,2,0:3:0:0:
93,311,111129,2,0,B|146:328|146:328|252:300|252:300|321:316,1,220,8|8,0:1|0:1,0:0:0:0:
413,330,112290,1,6,0:3:0:0:
493,254,112677,2,0,P|511:202|503:149,1,110,8|0,1:0|0:0,0:0:0:0:
402,192,113451,1,8,1:0:0:0:
309,132,113838,5,4,0:0:0:0:
184,313,114613,1,8,0:1:0:0:
403,298,115387,2,0,L|478:341,2,82.4999999999999,2|2|2,0:3|0:3|0:3,0:0:0:0:
308,39,116935,6,0,P|263:13|197:15,2,110,2|2|8,0:3|0:0|0:1,0:0:0:0:
233,119,118096,1,10,0:3:0:0:
210,226,118484,2,0,P|262:225|318:189,1,110,2|2,0:3|0:3,0:0:0:0:
392,122,119258,2,0,P|447:123|494:151,1,110,8|2,0:1|0:3,0:0:0:0:
417,230,120032,5,2,0:3:0:0:
284,54,120806,1,8,0:1:0:0:
208,260,121580,2,0,L|118:274,2,82.4999999999999,2|2|2,0:3|0:3|0:3,0:0:0:0:
471,180,123129,6,0,B|481:122|481:122|468:55,2,110,2|2|8,0:3|0:0|0:1,0:0:0:0:
375,126,124290,1,10,0:3:0:0:
272,165,124677,2,0,B|208:172|162:153|162:153|134:212|141:259|141:259|84:266|34:251,1,330,2|2,0:0|0:0,0:0:0:0:
49,141,126225,5,2,0:3:0:0:
49,141,127774,1,2,0:3:0:0:
499,125,129283,5,2,0:3:0:0:
499,125,130755,1,6,1:3:0:0:
52,98,132200,6,0,L|177:87,1,110,2|0,0:3|0:0,0:0:0:0:
271,78,132910,2,0,L|396:67,1,110,2|0,0:3|0:0,0:0:0:0:
402,178,133620,6,0,L|277:189,1,110,2|0,0:3|0:0,0:0:0:0:
179,200,134317,2,0,L|54:211,1,110,2|0,0:3|0:0,0:0:0:0:
34,312,135015,5,8,0:3:0:0:
143,302,135357,1,8,0:3:0:0:
252,292,135700,1,8,0:3:0:0:
361,282,136043,1,8,0:3:0:0:
398,75,137757,6,0,B|344:66|344:66|269:77,1,110,4|8,0:0|1:0,0:0:0:0:
207,148,138443,2,0,B|153:157|153:157|78:146,1,110,4|8,0:1|1:0,0:0:0:0:
0,93,139129,2,0,B|-9:147|-9:147|2:222,2,110,6|12|6,0:1|0:1|0:1,0:0:0:0:
97,42,140157,1,8,0:1:0:0:
184,108,140500,6,0,B|238:117|238:117|313:106,1,110,4|8,0:0|1:0,0:0:0:0:
375,35,141186,2,0,B|429:26|429:26|504:37,1,110,4|8,0:1|1:0,0:0:0:0:
443,136,141872,2,0,B|433:188|433:188|456:317,2,165,6|2|8,0:3|1:2|1:0,0:0:0:0:
469,29,143243,5,4,0:0:0:0:
359,39,143586,2,0,B|250:61|250:61|128:41,1,220,8|8,1:0|1:0,0:0:0:0:
32,31,144615,1,4,0:1:0:0:
74,132,144957,1,12,0:1:0:0:
37,235,145300,1,6,0:1:0:0:
84,334,145643,1,8,0:1:0:0:
158,252,145986,6,0,P|208:231|267:241,1,110,4|8,0:0|1:0,0:0:0:0:
327,327,146672,2,0,P|377:348|436:338,1,110,4|8,0:1|1:0,0:0:0:0:
480,242,147357,1,6,0:3:0:0:
444,137,147700,1,6,0:3:0:0:
355,71,148043,1,6,0:3:0:0:
137,36,148729,5,4,0:0:0:0:
83,132,149072,2,0,B|91:183|91:183|86:182|86:182|96:255,2,110,2|2|0,0:1|0:1|1:0,0:0:0:0:
272,120,150443,2,0,B|280:172|280:172|275:170|275:170|283:223,2,110,2|2|0,0:1|0:1|1:0,0:0:0:0:
257,11,151472,5,4,0:0:0:0:
171,80,151815,2,0,B|119:88|119:88|121:83|121:83|68:90,2,110,2|2|0,0:1|0:1|1:0,0:0:0:0:
273,121,152843,2,0,P|351:86|380:6,2,165,0|2|2,1:0|1:2|1:2,0:0:0:0:
171,80,154215,5,4,3:0:0:0:
101,165,154557,2,0,B|109:216|109:216|104:215|104:215|111:267,2,110,2|2|0,0:1|0:1|1:0,0:0:0:0:
227,345,155929,2,0,B|219:292|219:292|224:294|224:294|216:242,2,110,2|2|0,0:1|0:1|1:0,0:0:0:0:
334,321,156957,5,4,0:0:0:0:
434,277,157300,2,0,B|442:328|442:328|437:327|437:327|444:379,2,110,2|2|0,0:1|0:1|1:0,0:0:0:0:
355,199,158329,2,0,P|302:185|242:193,1,110,4|8,0:3|0:0,0:0:0:0:
172,272,159015,2,0,P|119:286|59:278,1,110,4|8,0:3|0:0,0:0:0:0:
0,190,159700,5,4,0:0:0:0:
171,51,160386,2,0,B|225:38|225:38|288:47,1,110,12|0,0:1|1:0,0:0:0:0:
361,118,161072,1,6,0:1:0:0:
325,222,161415,1,4,0:1:0:0:
293,326,161757,1,12,0:1:0:0:
210,253,162100,1,0,0:0:0:0:
114,197,162443,6,0,P|162:152|219:141,1,110,4|0,0:0|1:0,0:0:0:0:
303,188,163129,2,0,P|348:140|359:83,1,110,12|0,0:1|1:0,0:0:0:0:
309,0,163815,2,0,L|246:5,2,55,2|4|0,1:0|0:1|1:0,0:0:0:0:
418,9,164500,2,0,L|472:4,2,55,8|4|0,1:0|0:1|1:0,0:0:0:0:
356,100,165186,6,0,B|361:149|361:149|364:152|364:152|371:210,1,110,4|0,0:3|1:0,0:0:0:0:
314,303,165872,2,0,L|195:317,1,110,12|0,0:1|1:0,0:0:0:0:
98,287,166557,1,6,0:1:0:0:
101,177,166900,1,4,0:1:0:0:
109,67,167243,1,12,0:1:0:0:
199,128,167586,1,0,0:0:0:0:
299,83,167929,6,0,B|355:71|355:71|414:82,2,110,4|0|4,0:0|1:0|0:1,0:0:0:0:
182,269,169300,1,6,0:3:0:0:
291,277,169643,1,6,0:3:0:0:
243,177,169986,1,6,0:3:0:0:
33,110,170672,6,0,P|21:169|29:243,1,110,4|8,0:0|1:0,0:0:0:0:
98,298,171357,2,0,B|152:296|152:296|156:292|156:292|219:287,1,110,2|8,0:1|0:1,0:0:0:0:
301,232,172043,2,0,B|355:219|355:219|429:243,2,110,2|8|4,1:3|0:1|1:0,0:0:0:0:
353,329,173072,1,8,0:1:0:0:
246,357,173415,6,0,P|187:369|113:361,1,110,4|8,0:0|1:0,0:0:0:0:
54,293,174100,2,0,B|56:239|56:239|60:235|60:235|65:172,1,110,2|8,0:1|0:1,0:0:0:0:
164,139,174786,2,0,B|218:152|218:152|292:128,2,110,2|8|0,1:3|0:1|1:0,0:0:0:0:
212,39,175815,1,8,0:1:0:0:
321,36,176157,6,0,B|375:38|375:38|379:42|379:42|442:47,1,110,4|8,0:1|0:1,0:0:0:0:
405,153,176843,2,0,B|351:151|351:151|347:147|347:147|284:142,1,110,2|8,0:1|0:1,0:0:0:0:
195,100,177529,2,0,P|187:159|211:216,2,110,0|8|4,1:0|0:1|1:0,0:0:0:0:
280,31,178557,1,8,0:1:0:0:
389,25,178900,5,4,0:0:0:0:
485,78,179243,1,8,1:0:0:0:
502,186,179586,2,0,B|497:235|497:235|501:248|501:248|495:298,1,110,2|8,0:1|0:1,0:0:0:0:
387,317,180272,6,0,P|293:299|264:313,1,110,6|8,0:3|0:0,0:0:0:0:
201,228,180957,2,0,P|107:210|78:224,1,110,6|8,0:3|0:0,0:0:0:0:
15,139,181643,5,6,0:3:0:0:
