osu file format v14

[General]
AudioFilename: audio.ogg
AudioLeadIn: 0
PreviewTime: 52723
Countdown: 0
SampleSet: None
StackLeniency: 0.7
Mode: 3
LetterboxInBreaks: 0
SpecialStyle: 0
WidescreenStoryboard: 1

[Editor]
Bookmarks: 62497,64046,65594,77981,96562,102755,108949,115142,125981,127529
DistanceSpacing: 2.6
BeatDivisor: 4
GridSize: 32
TimelineZoom: 1.699999

[Metadata]
Title:Pleiades
TitleUnicode:Pleiades
Artist:LucaProject
ArtistUnicode:LucaProject
Creator:MapRequester
Version:MUZ's Expert
Source:Cosmic Radio 2025
Tags:
BeatmapID:5189012
BeatmapSetID:2383292

[Difficulty]
HPDrainRate:8
CircleSize:7
OverallDifficulty:7
ApproachRate:5
SliderMultiplier:1.4
SliderTickRate:1

[Events]
//Background and Video events
0,0,"ofrvoIro.jpg",0,0
//Break Periods
//Storyboard Layer 0 (Background)
//Storyboard Layer 1 (Fail)
//Storyboard Layer 2 (Pass)
//Storyboard Layer 3 (Foreground)
//Storyboard Layer 4 (Overlay)
//Storyboard Sound Samples

[TimingPoints]
3659,387.096774193548,4,2,1,35,1,0
65594,-100,4,2,1,60,0,1
87271,-100,4,2,1,35,0,0
127529,-100,4,2,1,60,0,1
138368,-100,4,2,1,35,0,0

[HitObjects]
256,192,1917,128,0,3659:0:0:0:0:
475,192,3659,1,0,0:0:0:0:
36,192,3659,1,0,0:0:0:0:
182,192,3659,1,0,0:0:0:0:
402,192,3707,1,0,0:0:0:0:
329,192,3755,128,0,5207:0:0:0:0:
182,192,5110,1,0,0:0:0:0:
109,192,5158,1,0,0:0:0:0:
36,192,5207,128,0,5981:0:0:0:0:
475,192,5207,1,0,0:0:0:0:
256,192,5207,1,0,0:0:0:0:
256,192,5981,1,0,0:0:0:0:
109,192,5981,1,0,0:0:0:0:
329,192,6029,1,0,0:0:0:0:
402,192,6078,128,0,6755:0:0:0:0:
256,192,6658,1,0,0:0:0:0:
182,192,6707,1,0,0:0:0:0:
109,192,6755,128,0,7529:0:0:0:0:
329,192,6755,1,0,0:0:0:0:
475,192,6755,1,0,0:0:0:0:
475,192,7529,1,0,0:0:0:0:
182,192,7529,1,0,0:0:0:0:
36,192,7529,1,0,0:0:0:0:
402,192,7578,1,0,0:0:0:0:
329,192,7626,128,0,8304:0:0:0:0:
182,192,8304,1,0,0:0:0:0:
402,192,8304,1,0,0:0:0:0:
475,192,8304,1,0,0:0:0:0:
109,192,8352,1,0,0:0:0:0:
36,192,8400,128,0,9078:0:0:0:0:
109,192,9078,1,0,0:0:0:0:
329,192,9078,1,0,0:0:0:0:
475,192,9078,1,0,0:0:0:0:
182,192,9126,1,0,0:0:0:0:
256,192,9175,128,0,9852:0:0:0:0:
475,192,9755,1,0,0:0:0:0:
402,192,9804,1,0,0:0:0:0:
329,192,9852,128,0,11400:0:0:0:0:
182,192,9852,1,0,0:0:0:0:
36,192,9852,1,0,0:0:0:0:
109,192,10626,1,0,0:0:0:0:
256,192,11400,1,0,0:0:0:0:
402,192,11400,1,0,0:0:0:0:
475,192,11400,1,0,0:0:0:0:
182,192,11449,1,0,0:0:0:0:
109,192,11497,128,0,12175:0:0:0:0:
329,192,12175,1,0,0:0:0:0:
36,192,12175,1,0,0:0:0:0:
402,192,12223,1,0,0:0:0:0:
475,192,12271,128,0,12949:0:0:0:0:
182,192,12852,1,0,0:0:0:0:
109,192,12900,1,0,0:0:0:0:
36,192,12949,128,0,16046:0:0:0:0:
329,192,12949,1,0,0:0:0:0:
402,192,12949,1,0,0:0:0:0:
182,192,13723,1,0,0:0:0:0:
256,192,14497,1,0,0:0:0:0:
475,192,14497,128,0,16046:0:0:0:0:
329,192,14691,128,0,14788:0:0:0:0:
402,192,14788,128,0,14884:0:0:0:0:
256,192,14884,128,0,14981:0:0:0:0:
329,192,14981,128,0,15078:0:0:0:0:
182,192,15078,128,0,15175:0:0:0:0:
256,192,15175,128,0,15271:0:0:0:0:
182,192,15271,128,0,15368:0:0:0:0:
109,192,15368,128,0,15465:0:0:0:0:
256,192,15465,128,0,15562:0:0:0:0:
182,192,15562,128,0,15658:0:0:0:0:
329,192,15658,128,0,15755:0:0:0:0:
256,192,15755,128,0,15852:0:0:0:0:
402,192,15852,128,0,15949:0:0:0:0:
329,192,15949,128,0,16046:0:0:0:0:
256,192,16046,1,0,0:0:0:0:
182,192,16046,1,0,0:0:0:0:
109,192,16046,1,0,0:0:0:0:
182,192,16336,1,0,0:0:0:0:
109,192,16336,1,0,0:0:0:0:
402,192,16433,1,0,0:0:0:0:
329,192,16626,1,0,0:0:0:0:
256,192,16820,1,0,0:0:0:0:
475,192,16820,1,0,0:0:0:0:
109,192,16917,1,0,0:0:0:0:
182,192,16917,1,0,0:0:0:0:
109,192,17207,1,0,0:0:0:0:
182,192,17207,1,0,0:0:0:0:
182,192,17400,1,0,0:0:0:0:
109,192,17400,1,0,0:0:0:0:
256,192,17497,1,0,0:0:0:0:
329,192,17594,1,0,0:0:0:0:
402,192,17594,1,0,0:0:0:0:
36,192,17594,1,0,0:0:0:0:
329,192,17884,1,0,0:0:0:0:
402,192,17884,1,0,0:0:0:0:
109,192,17981,1,0,0:0:0:0:
182,192,18175,1,0,0:0:0:0:
256,192,18368,1,0,0:0:0:0:
36,192,18368,1,0,0:0:0:0:
402,192,18465,1,0,0:0:0:0:
329,192,18465,1,0,0:0:0:0:
329,192,18755,1,0,0:0:0:0:
402,192,18755,1,0,0:0:0:0:
402,192,18949,1,0,0:0:0:0:
329,192,18949,1,0,0:0:0:0:
256,192,19046,1,0,0:0:0:0:
182,192,19142,1,0,0:0:0:0:
36,192,19142,1,0,0:0:0:0:
475,192,19142,1,0,0:0:0:0:
256,192,19433,1,0,0:0:0:0:
109,192,19529,1,0,0:0:0:0:
402,192,19529,1,0,0:0:0:0:
182,192,19723,1,0,0:0:0:0:
329,192,19917,1,0,0:0:0:0:
475,192,19917,1,0,0:0:0:0:
36,192,19917,1,0,0:0:0:0:
182,192,20013,1,0,0:0:0:0:
109,192,20304,1,0,0:0:0:0:
402,192,20304,1,0,0:0:0:0:
329,192,20497,1,0,0:0:0:0:
256,192,20691,1,0,0:0:0:0:
36,192,20691,1,0,0:0:0:0:
475,192,20691,1,0,0:0:0:0:
182,192,20884,128,0,20981:0:0:0:0:
36,192,20981,128,0,21078:0:0:0:0:
256,192,21078,128,0,21175:0:0:0:0:
109,192,21175,128,0,21271:0:0:0:0:
329,192,21271,128,0,21368:0:0:0:0:
182,192,21368,128,0,21465:0:0:0:0:
329,192,21465,128,0,21562:0:0:0:0:
36,192,21465,1,0,0:0:0:0:
109,192,21465,1,0,0:0:0:0:
475,192,21562,128,0,21658:0:0:0:0:
256,192,21658,128,0,21755:0:0:0:0:
402,192,21755,128,0,21852:0:0:0:0:
182,192,21852,128,0,21949:0:0:0:0:
329,192,21949,128,0,22046:0:0:0:0:
109,192,22046,128,0,22142:0:0:0:0:
256,192,22142,128,0,22239:0:0:0:0:
182,192,22239,1,0,0:0:0:0:
36,192,22239,1,0,0:0:0:0:
475,192,22239,1,0,0:0:0:0:
329,192,22336,1,0,0:0:0:0:
109,192,22433,1,0,0:0:0:0:
402,192,22433,1,0,0:0:0:0:
256,192,22529,1,0,0:0:0:0:
36,192,22626,1,0,0:0:0:0:
329,192,22626,1,0,0:0:0:0:
182,192,22723,1,0,0:0:0:0:
256,192,22820,1,0,0:0:0:0:
475,192,22820,1,0,0:0:0:0:
109,192,22917,1,0,0:0:0:0:
36,192,23013,1,0,0:0:0:0:
329,192,23013,1,0,0:0:0:0:
475,192,23013,1,0,0:0:0:0:
182,192,23110,1,0,0:0:0:0:
109,192,23207,1,0,0:0:0:0:
402,192,23207,1,0,0:0:0:0:
256,192,23304,1,0,0:0:0:0:
182,192,23400,1,0,0:0:0:0:
475,192,23400,1,0,0:0:0:0:
329,192,23497,1,0,0:0:0:0:
256,192,23594,1,0,0:0:0:0:
36,192,23594,1,0,0:0:0:0:
402,192,23691,1,0,0:0:0:0:
182,192,23788,1,0,0:0:0:0:
36,192,23788,1,0,0:0:0:0:
475,192,23788,1,0,0:0:0:0:
256,192,23884,1,0,0:0:0:0:
109,192,23981,1,0,0:0:0:0:
329,192,23981,1,0,0:0:0:0:
182,192,24078,1,0,0:0:0:0:
36,192,24175,1,0,0:0:0:0:
256,192,24175,1,0,0:0:0:0:
109,192,24271,1,0,0:0:0:0:
182,192,24368,1,0,0:0:0:0:
329,192,24368,1,0,0:0:0:0:
402,192,24465,1,0,0:0:0:0:
256,192,24562,1,0,0:0:0:0:
475,192,24562,1,0,0:0:0:0:
36,192,24562,1,0,0:0:0:0:
182,192,24658,1,0,0:0:0:0:
329,192,24755,1,0,0:0:0:0:
109,192,24755,1,0,0:0:0:0:
256,192,24852,1,0,0:0:0:0:
402,192,24949,1,0,0:0:0:0:
182,192,24949,1,0,0:0:0:0:
329,192,25046,1,0,0:0:0:0:
475,192,25142,1,0,0:0:0:0:
256,192,25142,1,0,0:0:0:0:
402,192,25239,1,0,0:0:0:0:
36,192,25336,1,0,0:0:0:0:
109,192,25384,1,0,0:0:0:0:
182,192,25433,1,0,0:0:0:0:
256,192,25481,1,0,0:0:0:0:
475,192,25529,1,0,0:0:0:0:
402,192,25578,1,0,0:0:0:0:
329,192,25626,1,0,0:0:0:0:
182,192,25675,1,0,0:0:0:0:
109,192,25723,1,0,0:0:0:0:
36,192,25771,1,0,0:0:0:0:
256,192,25820,1,0,0:0:0:0:
329,192,25868,1,0,0:0:0:0:
402,192,25917,1,0,0:0:0:0:
475,192,25965,1,0,0:0:0:0:
109,192,26013,1,0,0:0:0:0:
182,192,26062,1,0,0:0:0:0:
256,192,26110,1,0,0:0:0:0:
402,192,26158,1,0,0:0:0:0:
36,192,26207,1,0,0:0:0:0:
182,192,26255,1,0,0:0:0:0:
329,192,26304,1,0,0:0:0:0:
475,192,26352,1,0,0:0:0:0:
256,192,26400,1,0,0:0:0:0:
182,192,26449,1,0,0:0:0:0:
109,192,26497,1,0,0:0:0:0:
36,192,26546,1,0,0:0:0:0:
402,192,26594,1,0,0:0:0:0:
256,192,26642,1,0,0:0:0:0:
109,192,26691,1,0,0:0:0:0:
475,192,26739,1,0,0:0:0:0:
329,192,26788,1,0,0:0:0:0:
182,192,26836,1,0,0:0:0:0:
36,192,26884,1,0,0:0:0:0:
109,192,26884,1,0,0:0:0:0:
256,192,27078,128,0,27271:0:0:0:0:
402,192,27078,128,0,27271:0:0:0:0:
329,192,27271,128,0,27465:0:0:0:0:
475,192,27271,128,0,27465:0:0:0:0:
256,192,27465,128,0,27658:0:0:0:0:
109,192,27465,128,0,27658:0:0:0:0:
36,192,27562,128,0,27658:0:0:0:0:
329,192,27658,128,0,27755:0:0:0:0:
402,192,27658,128,0,27755:0:0:0:0:
182,192,27755,128,0,27852:0:0:0:0:
36,192,27755,128,0,27852:0:0:0:0:
402,192,27852,1,0,0:0:0:0:
475,192,27852,1,0,0:0:0:0:
36,192,27949,128,0,28046:0:0:0:0:
182,192,27949,128,0,28046:0:0:0:0:
256,192,28046,1,0,0:0:0:0:
329,192,28046,1,0,0:0:0:0:
475,192,28046,1,0,0:0:0:0:
182,192,28239,128,0,28433:0:0:0:0:
329,192,28336,128,0,28433:0:0:0:0:
256,192,28433,1,0,0:0:0:0:
36,192,28433,128,0,28626:0:0:0:0:
402,192,28433,128,0,28723:0:0:0:0:
475,192,28433,128,0,28723:0:0:0:0:
109,192,28529,128,0,28723:0:0:0:0:
182,192,28626,128,0,28820:0:0:0:0:
256,192,28723,128,0,28820:0:0:0:0:
329,192,28820,128,0,28884:0:0:0:0:
475,192,28820,128,0,28884:0:0:0:0:
182,192,28884,128,0,28949:0:0:0:0:
36,192,28884,128,0,28949:0:0:0:0:
329,192,28949,128,0,29013:0:0:0:0:
475,192,28949,128,0,29013:0:0:0:0:
182,192,29013,128,0,29110:0:0:0:0:
36,192,29013,128,0,29110:0:0:0:0:
329,192,29110,128,0,29207:0:0:0:0:
475,192,29110,128,0,29207:0:0:0:0:
402,192,29207,128,0,29400:0:0:0:0:
329,192,29400,128,0,29594:0:0:0:0:
182,192,29594,128,0,29788:0:0:0:0:
36,192,29691,1,0,0:0:0:0:
109,192,29788,128,0,29981:0:0:0:0:
475,192,29788,1,0,0:0:0:0:
256,192,29981,1,0,0:0:0:0:
402,192,30078,1,0,0:0:0:0:
256,192,30175,1,0,0:0:0:0:
109,192,30271,1,0,0:0:0:0:
256,192,30368,1,0,0:0:0:0:
36,192,30368,128,0,30562:0:0:0:0:
475,192,30368,128,0,30562:0:0:0:0:
402,192,30465,128,0,30658:0:0:0:0:
109,192,30465,128,0,30658:0:0:0:0:
182,192,30562,128,0,30755:0:0:0:0:
329,192,30562,128,0,30755:0:0:0:0:
256,192,30658,128,0,30755:0:0:0:0:
475,192,30658,128,0,30755:0:0:0:0:
109,192,30755,128,0,30949:0:0:0:0:
36,192,30852,128,0,30949:0:0:0:0:
182,192,30949,128,0,31142:0:0:0:0:
109,192,31046,128,0,31142:0:0:0:0:
256,192,31142,128,0,31336:0:0:0:0:
402,192,31142,1,0,0:0:0:0:
182,192,31239,128,0,31336:0:0:0:0:
329,192,31336,128,0,31529:0:0:0:0:
256,192,31433,128,0,31529:0:0:0:0:
182,192,31529,1,0,0:0:0:0:
109,192,31529,1,0,0:0:0:0:
329,192,31626,1,0,0:0:0:0:
402,192,31626,1,0,0:0:0:0:
182,192,31723,1,0,0:0:0:0:
109,192,31723,1,0,0:0:0:0:
329,192,31820,1,0,0:0:0:0:
402,192,31820,1,0,0:0:0:0:
36,192,31917,128,0,32110:0:0:0:0:
475,192,31917,128,0,32110:0:0:0:0:
256,192,31917,128,0,32013:0:0:0:0:
182,192,32110,128,0,32304:0:0:0:0:
329,192,32110,128,0,32304:0:0:0:0:
256,192,32110,128,0,32207:0:0:0:0:
109,192,32304,1,0,0:0:0:0:
402,192,32304,1,0,0:0:0:0:
475,192,32400,1,0,0:0:0:0:
256,192,32497,1,0,0:0:0:0:
182,192,32594,128,0,32788:0:0:0:0:
329,192,32594,1,0,0:0:0:0:
402,192,32691,1,0,0:0:0:0:
36,192,32788,1,0,0:0:0:0:
109,192,32884,1,0,0:0:0:0:
182,192,32981,1,0,0:0:0:0:
256,192,33078,128,0,33368:0:0:0:0:
402,192,33078,128,0,33368:0:0:0:0:
475,192,33078,128,0,33368:0:0:0:0:
36,192,33271,1,0,0:0:0:0:
109,192,33368,1,0,0:0:0:0:
182,192,33465,128,0,33755:0:0:0:0:
329,192,33465,128,0,33755:0:0:0:0:
402,192,33465,128,0,33755:0:0:0:0:
36,192,33562,1,0,0:0:0:0:
475,192,33755,1,0,0:0:0:0:
109,192,33852,128,0,34142:0:0:0:0:
256,192,33852,128,0,34142:0:0:0:0:
329,192,33852,128,0,34142:0:0:0:0:
402,192,34046,1,0,0:0:0:0:
36,192,34239,128,0,34529:0:0:0:0:
182,192,34239,128,0,34529:0:0:0:0:
256,192,34239,128,0,34529:0:0:0:0:
475,192,34336,1,0,0:0:0:0:
402,192,34433,1,0,0:0:0:0:
329,192,34529,1,0,0:0:0:0:
256,192,34626,1,0,0:0:0:0:
109,192,34626,128,0,34917:0:0:0:0:
475,192,34626,128,0,34820:0:0:0:0:
36,192,34626,128,0,34917:0:0:0:0:
402,192,34723,128,0,34917:0:0:0:0:
329,192,34820,128,0,35013:0:0:0:0:
256,192,34917,128,0,35013:0:0:0:0:
36,192,35013,128,0,35078:0:0:0:0:
182,192,35013,128,0,35078:0:0:0:0:
475,192,35078,128,0,35142:0:0:0:0:
329,192,35078,128,0,35142:0:0:0:0:
182,192,35142,128,0,35207:0:0:0:0:
36,192,35142,128,0,35207:0:0:0:0:
329,192,35207,128,0,35304:0:0:0:0:
475,192,35207,128,0,35304:0:0:0:0:
36,192,35304,128,0,35400:0:0:0:0:
182,192,35304,128,0,35400:0:0:0:0:
109,192,35400,128,0,35497:0:0:0:0:
402,192,35594,128,0,35691:0:0:0:0:
109,192,35788,128,0,35884:0:0:0:0:
329,192,35884,1,0,0:0:0:0:
256,192,35981,128,0,36078:0:0:0:0:
36,192,35981,1,0,0:0:0:0:
182,192,36175,128,0,36562:0:0:0:0:
256,192,36239,128,0,36562:0:0:0:0:
329,192,36304,128,0,36562:0:0:0:0:
36,192,36562,1,0,0:0:0:0:
475,192,36562,1,0,0:0:0:0:
109,192,36562,128,0,36755:0:0:0:0:
402,192,36562,128,0,36755:0:0:0:0:
329,192,36755,1,0,0:0:0:0:
182,192,36755,1,0,0:0:0:0:
329,192,36852,1,0,0:0:0:0:
182,192,36852,1,0,0:0:0:0:
256,192,36949,128,0,37142:0:0:0:0:
475,192,37046,1,0,0:0:0:0:
182,192,37142,128,0,37336:0:0:0:0:
402,192,37239,1,0,0:0:0:0:
256,192,37336,128,0,37433:0:0:0:0:
329,192,37433,128,0,37626:0:0:0:0:
256,192,37529,128,0,37723:0:0:0:0:
182,192,37626,128,0,37723:0:0:0:0:
36,192,37723,128,0,38304:0:0:0:0:
402,192,37723,1,0,0:0:0:0:
475,192,37723,1,0,0:0:0:0:
256,192,37917,1,0,0:0:0:0:
329,192,38013,1,0,0:0:0:0:
402,192,38110,1,0,0:0:0:0:
182,192,38110,1,0,0:0:0:0:
109,192,38110,1,0,0:0:0:0:
329,192,38304,128,0,38400:0:0:0:0:
402,192,38400,128,0,38497:0:0:0:0:
475,192,38497,128,0,38884:0:0:0:0:
182,192,38497,1,0,0:0:0:0:
36,192,38497,1,0,0:0:0:0:
256,192,38691,1,0,0:0:0:0:
182,192,38788,1,0,0:0:0:0:
109,192,38884,128,0,39271:0:0:0:0:
329,192,38884,1,0,0:0:0:0:
402,192,38884,1,0,0:0:0:0:
256,192,38981,1,0,0:0:0:0:
475,192,39078,1,0,0:0:0:0:
402,192,39175,1,0,0:0:0:0:
329,192,39271,128,0,39562:0:0:0:0:
182,192,39271,1,0,0:0:0:0:
36,192,39271,1,0,0:0:0:0:
256,192,39368,1,0,0:0:0:0:
109,192,39465,1,0,0:0:0:0:
182,192,39562,128,0,39852:0:0:0:0:
36,192,39658,1,0,0:0:0:0:
475,192,39658,1,0,0:0:0:0:
402,192,39658,1,0,0:0:0:0:
329,192,39852,128,0,40046:0:0:0:0:
109,192,39852,1,0,0:0:0:0:
475,192,40046,128,0,40723:0:0:0:0:
36,192,40046,1,0,0:0:0:0:
182,192,40046,1,0,0:0:0:0:
109,192,40239,1,0,0:0:0:0:
402,192,40239,1,0,0:0:0:0:
256,192,40433,128,0,40723:0:0:0:0:
36,192,40433,128,0,40723:0:0:0:0:
256,192,40820,1,0,0:0:0:0:
475,192,40820,128,0,41110:0:0:0:0:
36,192,40820,128,0,41013:0:0:0:0:
402,192,40820,128,0,41110:0:0:0:0:
109,192,40917,128,0,41110:0:0:0:0:
182,192,41013,128,0,41207:0:0:0:0:
256,192,41110,128,0,41207:0:0:0:0:
329,192,41207,128,0,41271:0:0:0:0:
402,192,41207,128,0,41271:0:0:0:0:
182,192,41271,128,0,41336:0:0:0:0:
109,192,41271,128,0,41336:0:0:0:0:
329,192,41336,128,0,41400:0:0:0:0:
402,192,41336,128,0,41400:0:0:0:0:
109,192,41400,128,0,41497:0:0:0:0:
182,192,41400,128,0,41497:0:0:0:0:
329,192,41497,128,0,41594:0:0:0:0:
402,192,41497,128,0,41594:0:0:0:0:
256,192,41594,1,0,0:0:0:0:
36,192,41594,1,0,0:0:0:0:
475,192,41594,128,0,41788:0:0:0:0:
329,192,41788,128,0,41981:0:0:0:0:
182,192,41981,128,0,42175:0:0:0:0:
475,192,42078,1,0,0:0:0:0:
36,192,42175,128,0,42368:0:0:0:0:
256,192,42175,1,0,0:0:0:0:
109,192,42368,1,0,0:0:0:0:
402,192,42465,1,0,0:0:0:0:
109,192,42562,1,0,0:0:0:0:
329,192,42658,1,0,0:0:0:0:
36,192,42755,128,0,42949:0:0:0:0:
475,192,42755,128,0,42949:0:0:0:0:
256,192,42755,1,0,0:0:0:0:
182,192,42852,128,0,43046:0:0:0:0:
329,192,42852,128,0,43046:0:0:0:0:
109,192,42949,128,0,43142:0:0:0:0:
402,192,42949,128,0,43142:0:0:0:0:
36,192,43046,128,0,43142:0:0:0:0:
475,192,43046,128,0,43142:0:0:0:0:
329,192,43142,1,0,0:0:0:0:
182,192,43142,128,0,43336:0:0:0:0:
109,192,43239,128,0,43336:0:0:0:0:
256,192,43336,128,0,43529:0:0:0:0:
182,192,43433,128,0,43529:0:0:0:0:
329,192,43529,128,0,43723:0:0:0:0:
475,192,43529,1,0,0:0:0:0:
256,192,43626,128,0,43723:0:0:0:0:
402,192,43723,128,0,43917:0:0:0:0:
329,192,43820,128,0,43917:0:0:0:0:
36,192,43917,1,0,0:0:0:0:
182,192,43917,1,0,0:0:0:0:
329,192,44013,1,0,0:0:0:0:
475,192,44013,1,0,0:0:0:0:
182,192,44110,1,0,0:0:0:0:
36,192,44110,1,0,0:0:0:0:
329,192,44207,1,0,0:0:0:0:
475,192,44207,1,0,0:0:0:0:
109,192,44304,128,0,44497:0:0:0:0:
402,192,44304,128,0,44497:0:0:0:0:
256,192,44304,128,0,44400:0:0:0:0:
36,192,44497,128,0,44691:0:0:0:0:
475,192,44497,128,0,44691:0:0:0:0:
256,192,44497,128,0,44594:0:0:0:0:
182,192,44691,1,0,0:0:0:0:
256,192,44691,1,0,0:0:0:0:
329,192,44691,1,0,0:0:0:0:
402,192,44788,1,0,0:0:0:0:
109,192,44884,1,0,0:0:0:0:
329,192,44981,128,0,45175:0:0:0:0:
182,192,44981,1,0,0:0:0:0:
109,192,45078,1,0,0:0:0:0:
475,192,45175,1,0,0:0:0:0:
402,192,45271,1,0,0:0:0:0:
329,192,45368,1,0,0:0:0:0:
182,192,45465,128,0,45755:0:0:0:0:
36,192,45465,128,0,45755:0:0:0:0:
256,192,45465,1,0,0:0:0:0:
475,192,45658,1,0,0:0:0:0:
402,192,45755,1,0,0:0:0:0:
256,192,45852,128,0,46142:0:0:0:0:
109,192,45852,128,0,46142:0:0:0:0:
329,192,45852,1,0,0:0:0:0:
475,192,46046,1,0,0:0:0:0:
402,192,46046,1,0,0:0:0:0:
329,192,46239,128,0,46529:0:0:0:0:
182,192,46239,128,0,46529:0:0:0:0:
109,192,46239,1,0,0:0:0:0:
36,192,46239,1,0,0:0:0:0:
475,192,46433,1,0,0:0:0:0:
36,192,46626,1,0,0:0:0:0:
256,192,46626,1,0,0:0:0:0:
402,192,46626,1,0,0:0:0:0:
109,192,46723,1,0,0:0:0:0:
182,192,46723,1,0,0:0:0:0:
256,192,46820,1,0,0:0:0:0:
329,192,46820,1,0,0:0:0:0:
402,192,46917,1,0,0:0:0:0:
475,192,46917,1,0,0:0:0:0:
36,192,47013,128,0,48562:0:0:0:0:
182,192,47013,1,0,0:0:0:0:
329,192,47013,1,0,0:0:0:0:
182,192,47207,1,0,0:0:0:0:
182,192,47400,1,0,0:0:0:0:
182,192,47594,1,0,0:0:0:0:
256,192,47658,1,0,0:0:0:0:
329,192,47723,1,0,0:0:0:0:
402,192,47788,1,0,0:0:0:0:
109,192,47788,1,0,0:0:0:0:
402,192,47981,1,0,0:0:0:0:
402,192,48175,1,0,0:0:0:0:
402,192,48368,1,0,0:0:0:0:
329,192,48433,1,0,0:0:0:0:
256,192,48497,1,0,0:0:0:0:
182,192,48562,1,0,0:0:0:0:
182,192,48755,1,0,0:0:0:0:
182,192,48949,1,0,0:0:0:0:
182,192,49142,1,0,0:0:0:0:
256,192,49207,1,0,0:0:0:0:
329,192,49271,1,0,0:0:0:0:
402,192,49336,1,0,0:0:0:0:
36,192,49336,1,0,0:0:0:0:
402,192,49529,1,0,0:0:0:0:
402,192,49723,1,0,0:0:0:0:
402,192,49917,1,0,0:0:0:0:
182,192,50110,128,0,50884:0:0:0:0:
36,192,50110,128,0,50884:0:0:0:0:
475,192,50110,1,0,0:0:0:0:
475,192,50304,1,0,0:0:0:0:
256,192,50497,1,0,0:0:0:0:
256,192,50691,1,0,0:0:0:0:
475,192,50884,128,0,51658:0:0:0:0:
329,192,50884,128,0,51658:0:0:0:0:
109,192,50884,1,0,0:0:0:0:
109,192,51078,1,0,0:0:0:0:
182,192,51271,1,0,0:0:0:0:
182,192,51465,128,0,51562:0:0:0:0:
109,192,51562,128,0,51658:0:0:0:0:
256,192,51658,1,0,0:0:0:0:
36,192,51658,128,0,52723:0:0:0:0:
329,192,51755,1,0,0:0:0:0:
402,192,51852,1,0,0:0:0:0:
182,192,52046,1,0,0:0:0:0:
475,192,52046,128,0,52142:0:0:0:0:
402,192,52142,128,0,52239:0:0:0:0:
329,192,52239,128,0,52336:0:0:0:0:
256,192,52336,128,0,52433:0:0:0:0:
402,192,52433,1,0,0:0:0:0:
109,192,52433,1,0,0:0:0:0:
475,192,52433,128,0,52723:0:0:0:0:
182,192,52626,1,0,0:0:0:0:
329,192,52723,1,0,0:0:0:0:
256,192,52820,1,0,0:0:0:0:
475,192,52820,1,0,0:0:0:0:
36,192,52820,128,0,52917:0:0:0:0:
109,192,52917,128,0,53013:0:0:0:0:
182,192,53013,128,0,53110:0:0:0:0:
256,192,53110,128,0,53207:0:0:0:0:
329,192,53207,1,0,0:0:0:0:
36,192,53207,1,0,0:0:0:0:
475,192,53207,128,0,53594:0:0:0:0:
402,192,53497,1,0,0:0:0:0:
182,192,53594,1,0,0:0:0:0:
36,192,53594,1,0,0:0:0:0:
256,192,53594,1,0,0:0:0:0:
109,192,53788,1,0,0:0:0:0:
329,192,53788,1,0,0:0:0:0:
256,192,53981,1,0,0:0:0:0:
402,192,53981,1,0,0:0:0:0:
475,192,53981,1,0,0:0:0:0:
182,192,54078,1,0,0:0:0:0:
109,192,54175,1,0,0:0:0:0:
329,192,54175,1,0,0:0:0:0:
256,192,54271,1,0,0:0:0:0:
182,192,54368,1,0,0:0:0:0:
36,192,54368,1,0,0:0:0:0:
402,192,54368,1,0,0:0:0:0:
256,192,54562,1,0,0:0:0:0:
329,192,54562,1,0,0:0:0:0:
475,192,54755,1,0,0:0:0:0:
182,192,54755,1,0,0:0:0:0:
36,192,54755,1,0,0:0:0:0:
256,192,54852,1,0,0:0:0:0:
329,192,54949,1,0,0:0:0:0:
109,192,54949,1,0,0:0:0:0:
182,192,55046,1,0,0:0:0:0:
256,192,55142,1,0,0:0:0:0:
402,192,55142,1,0,0:0:0:0:
475,192,55142,1,0,0:0:0:0:
182,192,55336,1,0,0:0:0:0:
329,192,55336,1,0,0:0:0:0:
109,192,55433,1,0,0:0:0:0:
36,192,55529,1,0,0:0:0:0:
256,192,55529,1,0,0:0:0:0:
475,192,55529,1,0,0:0:0:0:
402,192,55626,1,0,0:0:0:0:
329,192,55723,1,0,0:0:0:0:
182,192,55723,1,0,0:0:0:0:
36,192,55917,1,0,0:0:0:0:
256,192,55917,1,0,0:0:0:0:
475,192,55917,1,0,0:0:0:0:
329,192,55981,1,0,0:0:0:0:
402,192,56046,1,0,0:0:0:0:
109,192,56110,1,0,0:0:0:0:
182,192,56207,1,0,0:0:0:0:
256,192,56304,128,0,56691:0:0:0:0:
36,192,56304,1,0,0:0:0:0:
475,192,56304,1,0,0:0:0:0:
402,192,56594,1,0,0:0:0:0:
182,192,56691,1,0,0:0:0:0:
36,192,56691,1,0,0:0:0:0:
329,192,56691,1,0,0:0:0:0:
109,192,56884,1,0,0:0:0:0:
256,192,56884,1,0,0:0:0:0:
182,192,57078,1,0,0:0:0:0:
329,192,57078,1,0,0:0:0:0:
475,192,57078,1,0,0:0:0:0:
109,192,57175,1,0,0:0:0:0:
36,192,57271,1,0,0:0:0:0:
256,192,57271,1,0,0:0:0:0:
182,192,57368,1,0,0:0:0:0:
109,192,57465,1,0,0:0:0:0:
329,192,57465,1,0,0:0:0:0:
402,192,57465,1,0,0:0:0:0:
256,192,57658,1,0,0:0:0:0:
475,192,57658,1,0,0:0:0:0:
182,192,57852,1,0,0:0:0:0:
36,192,57852,1,0,0:0:0:0:
329,192,57852,1,0,0:0:0:0:
402,192,57949,1,0,0:0:0:0:
256,192,58046,1,0,0:0:0:0:
475,192,58046,1,0,0:0:0:0:
329,192,58142,1,0,0:0:0:0:
402,192,58239,1,0,0:0:0:0:
182,192,58239,1,0,0:0:0:0:
109,192,58239,1,0,0:0:0:0:
36,192,58433,1,0,0:0:0:0:
256,192,58433,1,0,0:0:0:0:
329,192,58529,1,0,0:0:0:0:
402,192,58626,1,0,0:0:0:0:
475,192,58626,1,0,0:0:0:0:
182,192,58626,1,0,0:0:0:0:
329,192,58723,1,0,0:0:0:0:
109,192,58820,1,0,0:0:0:0:
256,192,58820,1,0,0:0:0:0:
182,192,59013,1,0,0:0:0:0:
36,192,59013,1,0,0:0:0:0:
475,192,59013,1,0,0:0:0:0:
402,192,59078,1,0,0:0:0:0:
329,192,59142,1,0,0:0:0:0:
182,192,59207,1,0,0:0:0:0:
256,192,59304,1,0,0:0:0:0:
329,192,59400,1,0,0:0:0:0:
475,192,59400,1,0,0:0:0:0:
109,192,59400,1,0,0:0:0:0:
36,192,59400,128,0,59788:0:0:0:0:
182,192,59691,1,0,0:0:0:0:
256,192,59788,1,0,0:0:0:0:
402,192,59788,1,0,0:0:0:0:
475,192,59788,1,0,0:0:0:0:
182,192,59981,1,0,0:0:0:0:
329,192,59981,1,0,0:0:0:0:
256,192,60175,1,0,0:0:0:0:
475,192,60175,1,0,0:0:0:0:
36,192,60175,1,0,0:0:0:0:
402,192,60271,1,0,0:0:0:0:
329,192,60368,1,0,0:0:0:0:
475,192,60368,1,0,0:0:0:0:
256,192,60465,1,0,0:0:0:0:
182,192,60562,1,0,0:0:0:0:
402,192,60562,1,0,0:0:0:0:
36,192,60562,1,0,0:0:0:0:
109,192,60755,1,0,0:0:0:0:
329,192,60755,1,0,0:0:0:0:
36,192,60949,1,0,0:0:0:0:
256,192,60949,1,0,0:0:0:0:
475,192,60949,1,0,0:0:0:0:
109,192,61046,1,0,0:0:0:0:
182,192,61142,1,0,0:0:0:0:
36,192,61142,1,0,0:0:0:0:
256,192,61239,1,0,0:0:0:0:
475,192,61336,1,0,0:0:0:0:
109,192,61336,1,0,0:0:0:0:
329,192,61336,1,0,0:0:0:0:
182,192,61529,1,0,0:0:0:0:
402,192,61529,1,0,0:0:0:0:
329,192,61626,1,0,0:0:0:0:
36,192,61723,1,0,0:0:0:0:
256,192,61723,1,0,0:0:0:0:
475,192,61723,1,0,0:0:0:0:
109,192,61820,1,0,0:0:0:0:
402,192,61820,1,0,0:0:0:0:
329,192,61917,1,0,0:0:0:0:
182,192,61917,1,0,0:0:0:0:
256,192,62110,1,0,0:0:0:0:
36,192,62110,1,0,0:0:0:0:
475,192,62110,1,0,0:0:0:0:
182,192,62175,1,0,0:0:0:0:
109,192,62239,1,0,0:0:0:0:
402,192,62304,1,0,0:0:0:0:
329,192,62400,1,0,0:0:0:0:
109,192,62497,1,0,0:0:0:0:
36,192,62497,1,0,0:0:0:0:
256,192,62497,1,0,0:0:0:0:
329,192,62594,1,0,0:0:0:0:
402,192,62594,1,0,0:0:0:0:
182,192,62691,1,0,0:0:0:0:
475,192,62691,1,0,0:0:0:0:
256,192,62788,1,0,0:0:0:0:
329,192,62788,1,0,0:0:0:0:
402,192,62884,1,0,0:0:0:0:
109,192,62884,1,0,0:0:0:0:
475,192,62884,1,0,0:0:0:0:
182,192,62981,1,0,0:0:0:0:
256,192,62981,1,0,0:0:0:0:
36,192,63078,1,0,0:0:0:0:
329,192,63078,1,0,0:0:0:0:
109,192,63175,1,0,0:0:0:0:
182,192,63175,1,0,0:0:0:0:
256,192,63271,1,0,0:0:0:0:
475,192,63271,1,0,0:0:0:0:
109,192,63368,1,0,0:0:0:0:
36,192,63368,1,0,0:0:0:0:
402,192,63465,1,0,0:0:0:0:
329,192,63513,1,0,0:0:0:0:
256,192,63562,1,0,0:0:0:0:
182,192,63610,1,0,0:0:0:0:
36,192,63658,1,0,0:0:0:0:
109,192,63658,1,0,0:0:0:0:
402,192,63755,1,0,0:0:0:0:
475,192,63755,1,0,0:0:0:0:
109,192,63852,1,0,0:0:0:0:
36,192,63852,1,0,0:0:0:0:
402,192,63949,1,0,0:0:0:0:
475,192,63949,1,0,0:0:0:0:
182,192,64046,1,0,0:0:0:0:
329,192,64046,1,0,0:0:0:0:
256,192,64239,128,0,64433:0:0:0:0:
402,192,64239,128,0,64433:0:0:0:0:
329,192,64433,128,0,64626:0:0:0:0:
475,192,64433,128,0,64626:0:0:0:0:
256,192,64626,128,0,64820:0:0:0:0:
109,192,64626,128,0,64820:0:0:0:0:
36,192,64723,128,0,64820:0:0:0:0:
329,192,64820,128,0,64917:0:0:0:0:
402,192,64820,128,0,64917:0:0:0:0:
182,192,64917,128,0,65013:0:0:0:0:
36,192,64917,128,0,65013:0:0:0:0:
402,192,65013,1,0,0:0:0:0:
475,192,65013,1,0,0:0:0:0:
36,192,65110,128,0,65207:0:0:0:0:
182,192,65110,128,0,65207:0:0:0:0:
475,192,65207,1,0,0:0:0:0:
329,192,65207,1,0,0:0:0:0:
109,192,65207,128,0,65400:0:0:0:0:
182,192,65304,128,0,65497:0:0:0:0:
256,192,65400,128,0,65594:0:0:0:0:
329,192,65497,128,0,65594:0:0:0:0:
475,192,65594,128,0,65981:0:0:0:0:
402,192,65594,1,0,0:0:0:0:
109,192,65594,128,0,65788:0:0:0:0:
36,192,65594,128,0,65788:0:0:0:0:
182,192,65788,128,0,65981:0:0:0:0:
256,192,65884,128,0,65981:0:0:0:0:
36,192,65981,128,0,66368:0:0:0:0:
109,192,65981,128,0,66078:0:0:0:0:
402,192,65981,128,0,66078:0:0:0:0:
329,192,66078,128,0,66271:0:0:0:0:
256,192,66175,128,0,66368:0:0:0:0:
182,192,66271,128,0,66368:0:0:0:0:
109,192,66368,128,0,66755:0:0:0:0:
475,192,66368,128,0,66465:0:0:0:0:
402,192,66368,128,0,66465:0:0:0:0:
329,192,66465,128,0,66658:0:0:0:0:
402,192,66562,128,0,66755:0:0:0:0:
475,192,66658,128,0,66755:0:0:0:0:
256,192,66755,128,0,67142:0:0:0:0:
329,192,66755,128,0,66852:0:0:0:0:
36,192,66755,128,0,66852:0:0:0:0:
182,192,66852,128,0,67046:0:0:0:0:
109,192,66949,128,0,67142:0:0:0:0:
36,192,67046,128,0,67142:0:0:0:0:
475,192,67142,128,0,67529:0:0:0:0:
182,192,67142,128,0,67239:0:0:0:0:
402,192,67142,128,0,67239:0:0:0:0:
329,192,67239,128,0,67433:0:0:0:0:
256,192,67336,128,0,67529:0:0:0:0:
182,192,67433,128,0,67529:0:0:0:0:
36,192,67529,128,0,67917:0:0:0:0:
109,192,67529,128,0,67626:0:0:0:0:
402,192,67529,128,0,67626:0:0:0:0:
329,192,67626,128,0,67820:0:0:0:0:
402,192,67723,128,0,67917:0:0:0:0:
475,192,67820,128,0,67917:0:0:0:0:
182,192,67917,128,0,68304:0:0:0:0:
109,192,67917,128,0,68013:0:0:0:0:
256,192,67917,128,0,68013:0:0:0:0:
402,192,68013,128,0,68207:0:0:0:0:
329,192,68110,128,0,68304:0:0:0:0:
256,192,68207,128,0,68304:0:0:0:0:
475,192,68304,128,0,68691:0:0:0:0:
36,192,68304,128,0,68400:0:0:0:0:
402,192,68304,128,0,68400:0:0:0:0:
109,192,68400,128,0,68594:0:0:0:0:
182,192,68497,128,0,68691:0:0:0:0:
256,192,68594,128,0,68691:0:0:0:0:
36,192,68691,128,0,69078:0:0:0:0:
109,192,68691,128,0,68788:0:0:0:0:
402,192,68691,128,0,68788:0:0:0:0:
329,192,68788,128,0,68884:0:0:0:0:
256,192,68884,128,0,69078:0:0:0:0:
329,192,68981,128,0,69078:0:0:0:0:
402,192,69078,128,0,69465:0:0:0:0:
475,192,69078,128,0,69175:0:0:0:0:
182,192,69078,128,0,69175:0:0:0:0:
109,192,69175,128,0,69368:0:0:0:0:
36,192,69271,128,0,69465:0:0:0:0:
182,192,69368,128,0,69465:0:0:0:0:
256,192,69465,128,0,69852:0:0:0:0:
329,192,69465,128,0,69562:0:0:0:0:
109,192,69465,128,0,69562:0:0:0:0:
475,192,69562,128,0,69755:0:0:0:0:
402,192,69658,128,0,69852:0:0:0:0:
329,192,69755,128,0,69852:0:0:0:0:
36,192,69852,128,0,70239:0:0:0:0:
182,192,69852,128,0,69949:0:0:0:0:
109,192,69852,128,0,69949:0:0:0:0:
256,192,69949,128,0,70142:0:0:0:0:
329,192,70046,128,0,70239:0:0:0:0:
402,192,70142,128,0,70239:0:0:0:0:
182,192,70239,128,0,70626:0:0:0:0:
109,192,70239,128,0,70336:0:0:0:0:
475,192,70239,128,0,70336:0:0:0:0:
402,192,70336,128,0,70529:0:0:0:0:
329,192,70433,128,0,70626:0:0:0:0:
256,192,70529,128,0,70626:0:0:0:0:
475,192,70626,128,0,71013:0:0:0:0:
402,192,70626,128,0,70723:0:0:0:0:
36,192,70626,128,0,70723:0:0:0:0:
109,192,70723,128,0,70917:0:0:0:0:
182,192,70820,128,0,71013:0:0:0:0:
256,192,70917,128,0,71013:0:0:0:0:
36,192,71013,128,0,71400:0:0:0:0:
109,192,71013,128,0,71110:0:0:0:0:
329,192,71013,128,0,71110:0:0:0:0:
475,192,71110,128,0,71304:0:0:0:0:
402,192,71207,128,0,71400:0:0:0:0:
329,192,71304,128,0,71400:0:0:0:0:
256,192,71400,128,0,71788:0:0:0:0:
109,192,71400,128,0,71497:0:0:0:0:
182,192,71400,128,0,71497:0:0:0:0:
329,192,71497,128,0,71691:0:0:0:0:
402,192,71594,128,0,71788:0:0:0:0:
475,192,71691,128,0,71788:0:0:0:0:
36,192,71788,128,0,72175:0:0:0:0:
109,192,71788,1,0,0:0:0:0:
182,192,71788,128,0,71981:0:0:0:0:
329,192,71788,128,0,71981:0:0:0:0:
256,192,71981,128,0,72175:0:0:0:0:
329,192,72078,128,0,72175:0:0:0:0:
182,192,72175,128,0,72562:0:0:0:0:
109,192,72175,128,0,72271:0:0:0:0:
402,192,72175,128,0,72271:0:0:0:0:
475,192,72271,128,0,72465:0:0:0:0:
402,192,72368,128,0,72562:0:0:0:0:
329,192,72465,128,0,72562:0:0:0:0:
256,192,72562,128,0,72949:0:0:0:0:
475,192,72562,128,0,72658:0:0:0:0:
36,192,72562,128,0,72852:0:0:0:0:
109,192,72658,128,0,72852:0:0:0:0:
182,192,72852,128,0,72949:0:0:0:0:
36,192,72949,128,0,73336:0:0:0:0:
329,192,72949,128,0,73046:0:0:0:0:
402,192,72949,128,0,73046:0:0:0:0:
109,192,73046,128,0,73239:0:0:0:0:
182,192,73142,128,0,73336:0:0:0:0:
256,192,73239,128,0,73336:0:0:0:0:
329,192,73336,128,0,73723:0:0:0:0:
475,192,73336,128,0,73433:0:0:0:0:
402,192,73336,128,0,73433:0:0:0:0:
256,192,73433,128,0,73626:0:0:0:0:
182,192,73529,128,0,73723:0:0:0:0:
109,192,73626,128,0,73723:0:0:0:0:
36,192,73723,128,0,74110:0:0:0:0:
256,192,73723,128,0,73820:0:0:0:0:
475,192,73723,128,0,73820:0:0:0:0:
402,192,73820,128,0,74013:0:0:0:0:
329,192,73917,128,0,74110:0:0:0:0:
256,192,74013,128,0,74110:0:0:0:0:
402,192,74110,128,0,74497:0:0:0:0:
475,192,74110,128,0,74207:0:0:0:0:
109,192,74110,128,0,74207:0:0:0:0:
182,192,74207,128,0,74400:0:0:0:0:
256,192,74304,128,0,74497:0:0:0:0:
329,192,74400,128,0,74497:0:0:0:0:
109,192,74497,128,0,74884:0:0:0:0:
36,192,74497,128,0,74594:0:0:0:0:
475,192,74497,128,0,74594:0:0:0:0:
402,192,74594,128,0,74788:0:0:0:0:
329,192,74691,128,0,74884:0:0:0:0:
256,192,74788,128,0,74884:0:0:0:0:
475,192,74884,128,0,75271:0:0:0:0:
36,192,74884,128,0,74981:0:0:0:0:
182,192,74884,128,0,74981:0:0:0:0:
109,192,74981,128,0,75078:0:0:0:0:
182,192,75078,128,0,75175:0:0:0:0:
256,192,75175,128,0,75271:0:0:0:0:
109,192,75271,128,0,75658:0:0:0:0:
36,192,75271,128,0,75368:0:0:0:0:
402,192,75271,128,0,75368:0:0:0:0:
329,192,75368,128,0,75465:0:0:0:0:
256,192,75465,128,0,75562:0:0:0:0:
182,192,75562,128,0,75658:0:0:0:0:
402,192,75658,128,0,76046:0:0:0:0:
475,192,75658,128,0,75755:0:0:0:0:
36,192,75658,128,0,75949:0:0:0:0:
256,192,75755,128,0,75949:0:0:0:0:
109,192,75949,128,0,76046:0:0:0:0:
36,192,76046,128,0,76433:0:0:0:0:
182,192,76046,128,0,76142:0:0:0:0:
329,192,76046,128,0,76142:0:0:0:0:
256,192,76142,128,0,76239:0:0:0:0:
329,192,76239,1,0,0:0:0:0:
402,192,76304,1,0,0:0:0:0:
475,192,76368,1,0,0:0:0:0:
109,192,76433,1,0,0:0:0:0:
256,192,76433,1,0,0:0:0:0:
329,192,76433,1,0,0:0:0:0:
402,192,76529,1,0,0:0:0:0:
182,192,76626,1,0,0:0:0:0:
475,192,76626,1,0,0:0:0:0:
256,192,76723,1,0,0:0:0:0:
329,192,76820,1,0,0:0:0:0:
109,192,76820,1,0,0:0:0:0:
36,192,76820,1,0,0:0:0:0:
182,192,76917,1,0,0:0:0:0:
402,192,77013,1,0,0:0:0:0:
329,192,77078,1,0,0:0:0:0:
256,192,77142,1,0,0:0:0:0:
182,192,77207,1,0,0:0:0:0:
36,192,77207,1,0,0:0:0:0:
475,192,77207,1,0,0:0:0:0:
402,192,77304,1,0,0:0:0:0:
329,192,77400,1,0,0:0:0:0:
256,192,77497,1,0,0:0:0:0:
36,192,77594,1,0,0:0:0:0:
329,192,77594,1,0,0:0:0:0:
402,192,77594,1,0,0:0:0:0:
475,192,77594,1,0,0:0:0:0:
109,192,77691,1,0,0:0:0:0:
182,192,77788,1,0,0:0:0:0:
256,192,77884,1,0,0:0:0:0:
36,192,77981,128,0,78078:0:0:0:0:
329,192,77981,128,0,78078:0:0:0:0:
109,192,77981,128,0,78078:0:0:0:0:
475,192,77981,128,0,78755:0:0:0:0:
182,192,78078,128,0,78271:0:0:0:0:
256,192,78175,128,0,78368:0:0:0:0:
329,192,78271,128,0,78368:0:0:0:0:
36,192,78368,1,0,0:0:0:0:
402,192,78465,128,0,78658:0:0:0:0:
329,192,78562,128,0,78755:0:0:0:0:
109,192,78562,1,0,0:0:0:0:
256,192,78658,128,0,78755:0:0:0:0:
36,192,78755,128,0,79529:0:0:0:0:
402,192,78755,128,0,79046:0:0:0:0:
182,192,78755,128,0,78852:0:0:0:0:
329,192,78852,128,0,79046:0:0:0:0:
256,192,79046,128,0,79142:0:0:0:0:
475,192,79142,1,0,0:0:0:0:
182,192,79239,128,0,79433:0:0:0:0:
256,192,79336,128,0,79529:0:0:0:0:
329,192,79433,128,0,79529:0:0:0:0:
109,192,79529,1,0,0:0:0:0:
402,192,79529,1,0,0:0:0:0:
182,192,79723,1,0,0:0:0:0:
402,192,79820,1,0,0:0:0:0:
475,192,79820,1,0,0:0:0:0:
109,192,79917,1,0,0:0:0:0:
329,192,79917,1,0,0:0:0:0:
256,192,80110,1,0,0:0:0:0:
402,192,80110,1,0,0:0:0:0:
182,192,80207,1,0,0:0:0:0:
36,192,80304,1,0,0:0:0:0:
475,192,80304,1,0,0:0:0:0:
256,192,80400,1,0,0:0:0:0:
109,192,80497,1,0,0:0:0:0:
402,192,80497,1,0,0:0:0:0:
329,192,80594,1,0,0:0:0:0:
36,192,80691,1,0,0:0:0:0:
475,192,80691,1,0,0:0:0:0:
256,192,80691,1,0,0:0:0:0:
109,192,80884,1,0,0:0:0:0:
402,192,80884,1,0,0:0:0:0:
329,192,80981,1,0,0:0:0:0:
36,192,81078,128,0,81852:0:0:0:0:
256,192,81078,128,0,81175:0:0:0:0:
475,192,81078,128,0,81175:0:0:0:0:
402,192,81175,128,0,81368:0:0:0:0:
329,192,81271,128,0,81465:0:0:0:0:
256,192,81368,128,0,81465:0:0:0:0:
475,192,81465,1,0,0:0:0:0:
182,192,81562,128,0,81755:0:0:0:0:
256,192,81658,128,0,81852:0:0:0:0:
402,192,81658,1,0,0:0:0:0:
329,192,81755,128,0,81852:0:0:0:0:
475,192,81852,128,0,82626:0:0:0:0:
109,192,81852,128,0,81949:0:0:0:0:
402,192,81852,128,0,81949:0:0:0:0:
182,192,81949,128,0,82142:0:0:0:0:
109,192,82046,128,0,82239:0:0:0:0:
36,192,82142,128,0,82239:0:0:0:0:
402,192,82239,1,0,0:0:0:0:
182,192,82336,128,0,82529:0:0:0:0:
256,192,82433,128,0,82626:0:0:0:0:
329,192,82529,128,0,82626:0:0:0:0:
36,192,82626,1,0,0:0:0:0:
402,192,82626,1,0,0:0:0:0:
329,192,82723,1,0,0:0:0:0:
256,192,82820,1,0,0:0:0:0:
475,192,82820,1,0,0:0:0:0:
182,192,82917,1,0,0:0:0:0:
36,192,83013,1,0,0:0:0:0:
402,192,83013,1,0,0:0:0:0:
182,192,83207,1,0,0:0:0:0:
329,192,83207,1,0,0:0:0:0:
256,192,83304,1,0,0:0:0:0:
36,192,83400,1,0,0:0:0:0:
475,192,83400,1,0,0:0:0:0:
109,192,83497,1,0,0:0:0:0:
402,192,83497,1,0,0:0:0:0:
182,192,83594,1,0,0:0:0:0:
329,192,83594,1,0,0:0:0:0:
256,192,83691,1,0,0:0:0:0:
36,192,83788,1,0,0:0:0:0:
475,192,83788,1,0,0:0:0:0:
109,192,83788,1,0,0:0:0:0:
402,192,83852,1,0,0:0:0:0:
329,192,83917,1,0,0:0:0:0:
182,192,83981,1,0,0:0:0:0:
256,192,84078,1,0,0:0:0:0:
475,192,84175,128,0,84562:0:0:0:0:
329,192,84175,128,0,84271:0:0:0:0:
109,192,84175,128,0,84271:0:0:0:0:
36,192,84175,128,0,84271:0:0:0:0:
182,192,84271,128,0,84465:0:0:0:0:
256,192,84368,128,0,84562:0:0:0:0:
329,192,84465,128,0,84562:0:0:0:0:
109,192,84562,128,0,84949:0:0:0:0:
36,192,84562,128,0,84658:0:0:0:0:
402,192,84562,128,0,84658:0:0:0:0:
329,192,84658,128,0,84852:0:0:0:0:
256,192,84755,128,0,84949:0:0:0:0:
182,192,84852,128,0,84949:0:0:0:0:
402,192,84949,128,0,85336:0:0:0:0:
475,192,84949,128,0,85046:0:0:0:0:
36,192,84949,128,0,85239:0:0:0:0:
109,192,85046,128,0,85239:0:0:0:0:
256,192,85239,128,0,85336:0:0:0:0:
36,192,85336,128,0,85723:0:0:0:0:
182,192,85336,128,0,85433:0:0:0:0:
329,192,85336,128,0,85433:0:0:0:0:
256,192,85433,128,0,85626:0:0:0:0:
329,192,85529,128,0,85723:0:0:0:0:
402,192,85626,128,0,85723:0:0:0:0:
109,192,85723,1,0,0:0:0:0:
182,192,85723,1,0,0:0:0:0:
475,192,85723,1,0,0:0:0:0:
256,192,85820,1,0,0:0:0:0:
329,192,85917,1,0,0:0:0:0:
36,192,85917,1,0,0:0:0:0:
109,192,85917,1,0,0:0:0:0:
182,192,86013,1,0,0:0:0:0:
256,192,86110,1,0,0:0:0:0:
36,192,86110,1,0,0:0:0:0:
402,192,86110,1,0,0:0:0:0:
109,192,86207,1,0,0:0:0:0:
182,192,86304,1,0,0:0:0:0:
329,192,86304,1,0,0:0:0:0:
402,192,86400,1,0,0:0:0:0:
475,192,86400,1,0,0:0:0:0:
109,192,86497,1,0,0:0:0:0:
256,192,86497,1,0,0:0:0:0:
329,192,86594,1,0,0:0:0:0:
402,192,86594,1,0,0:0:0:0:
182,192,86691,1,0,0:0:0:0:
36,192,86691,1,0,0:0:0:0:
329,192,86788,1,0,0:0:0:0:
256,192,86788,1,0,0:0:0:0:
402,192,86884,1,0,0:0:0:0:
475,192,86884,1,0,0:0:0:0:
109,192,86884,1,0,0:0:0:0:
182,192,86981,1,0,0:0:0:0:
256,192,86981,1,0,0:0:0:0:
36,192,87078,1,0,0:0:0:0:
329,192,87078,1,0,0:0:0:0:
182,192,87175,1,0,0:0:0:0:
109,192,87175,1,0,0:0:0:0:
256,192,87271,128,0,90271:0:0:0:0:
402,192,87271,1,0,0:0:0:0:
475,192,87271,1,0,0:0:0:0:
402,192,87852,1,0,0:0:0:0:
475,192,87949,1,0,0:0:0:0:
402,192,88046,1,0,0:0:0:0:
329,192,88142,1,0,0:0:0:0:
182,192,88239,1,0,0:0:0:0:
109,192,88336,1,0,0:0:0:0:
36,192,88433,1,0,0:0:0:0:
402,192,88433,1,0,0:0:0:0:
329,192,88529,1,0,0:0:0:0:
182,192,88626,1,0,0:0:0:0:
109,192,88723,1,0,0:0:0:0:
36,192,88820,128,0,88917:0:0:0:0:
475,192,88820,128,0,88917:0:0:0:0:
329,192,89400,1,0,0:0:0:0:
182,192,89497,1,0,0:0:0:0:
109,192,89594,1,0,0:0:0:0:
402,192,89594,1,0,0:0:0:0:
36,192,89788,1,0,0:0:0:0:
109,192,89884,1,0,0:0:0:0:
182,192,89981,1,0,0:0:0:0:
329,192,89981,128,0,90271:0:0:0:0:
475,192,89981,128,0,90271:0:0:0:0:
256,192,90368,1,0,0:0:0:0:
475,192,90368,128,0,90658:0:0:0:0:
36,192,90368,128,0,90562:0:0:0:0:
402,192,90368,128,0,90658:0:0:0:0:
109,192,90465,128,0,90658:0:0:0:0:
182,192,90562,128,0,90755:0:0:0:0:
256,192,90658,128,0,90755:0:0:0:0:
329,192,90755,128,0,90820:0:0:0:0:
475,192,90755,128,0,90820:0:0:0:0:
182,192,90820,128,0,90884:0:0:0:0:
36,192,90820,128,0,90884:0:0:0:0:
329,192,90884,128,0,90949:0:0:0:0:
475,192,90884,128,0,90949:0:0:0:0:
36,192,90949,128,0,91046:0:0:0:0:
182,192,90949,128,0,91046:0:0:0:0:
329,192,91046,128,0,91142:0:0:0:0:
475,192,91046,128,0,91142:0:0:0:0:
36,192,91142,128,0,91336:0:0:0:0:
109,192,91142,128,0,91336:0:0:0:0:
256,192,91142,128,0,91336:0:0:0:0:
402,192,91239,128,0,91336:0:0:0:0:
256,192,91433,128,0,91626:0:0:0:0:
475,192,91433,128,0,91626:0:0:0:0:
402,192,91433,128,0,91626:0:0:0:0:
109,192,91529,128,0,91626:0:0:0:0:
109,192,91723,128,0,91917:0:0:0:0:
36,192,91723,128,0,91917:0:0:0:0:
256,192,91723,128,0,91917:0:0:0:0:
402,192,91820,128,0,91917:0:0:0:0:
182,192,91917,1,0,0:0:0:0:
329,192,91917,1,0,0:0:0:0:
475,192,91917,1,0,0:0:0:0:
109,192,92110,1,0,0:0:0:0:
109,192,92207,1,0,0:0:0:0:
36,192,92304,1,0,0:0:0:0:
475,192,92304,1,0,0:0:0:0:
182,192,92400,1,0,0:0:0:0:
329,192,92400,1,0,0:0:0:0:
402,192,92497,1,0,0:0:0:0:
402,192,92594,1,0,0:0:0:0:
109,192,92691,128,0,92820:0:0:0:0:
36,192,92691,1,0,0:0:0:0:
182,192,92755,128,0,92884:0:0:0:0:
256,192,92820,128,0,92949:0:0:0:0:
36,192,92884,128,0,93013:0:0:0:0:
109,192,92949,128,0,93078:0:0:0:0:
182,192,93013,128,0,93142:0:0:0:0:
402,192,93078,128,0,93207:0:0:0:0:
475,192,93078,1,0,0:0:0:0:
329,192,93142,128,0,93271:0:0:0:0:
256,192,93207,128,0,93336:0:0:0:0:
475,192,93271,128,0,93400:0:0:0:0:
182,192,93271,1,0,0:0:0:0:
402,192,93336,128,0,93465:0:0:0:0:
329,192,93400,128,0,93529:0:0:0:0:
256,192,93465,1,0,0:0:0:0:
36,192,93465,128,0,93658:0:0:0:0:
475,192,93465,128,0,93658:0:0:0:0:
402,192,93562,128,0,93755:0:0:0:0:
109,192,93562,128,0,93755:0:0:0:0:
182,192,93658,128,0,93852:0:0:0:0:
329,192,93658,128,0,93852:0:0:0:0:
36,192,93755,128,0,93852:0:0:0:0:
475,192,93755,128,0,93852:0:0:0:0:
256,192,93852,1,0,0:0:0:0:
402,192,93949,1,0,0:0:0:0:
182,192,94046,1,0,0:0:0:0:
36,192,94142,1,0,0:0:0:0:
475,192,94239,128,0,94433:0:0:0:0:
402,192,94239,128,0,94433:0:0:0:0:
256,192,94239,128,0,94433:0:0:0:0:
109,192,94336,128,0,94433:0:0:0:0:
109,192,94529,128,0,94723:0:0:0:0:
36,192,94529,128,0,94723:0:0:0:0:
256,192,94529,128,0,94723:0:0:0:0:
402,192,94626,128,0,94723:0:0:0:0:
475,192,94820,128,0,95013:0:0:0:0:
256,192,94820,128,0,95013:0:0:0:0:
402,192,94820,128,0,95013:0:0:0:0:
109,192,94917,128,0,95013:0:0:0:0:
182,192,95013,1,0,0:0:0:0:
329,192,95013,1,0,0:0:0:0:
36,192,95013,1,0,0:0:0:0:
402,192,95207,1,0,0:0:0:0:
402,192,95304,1,0,0:0:0:0:
36,192,95400,1,0,0:0:0:0:
475,192,95400,1,0,0:0:0:0:
329,192,95497,1,0,0:0:0:0:
182,192,95497,1,0,0:0:0:0:
109,192,95594,1,0,0:0:0:0:
109,192,95691,1,0,0:0:0:0:
402,192,95788,128,0,95917:0:0:0:0:
475,192,95788,1,0,0:0:0:0:
329,192,95852,128,0,95981:0:0:0:0:
256,192,95917,128,0,96046:0:0:0:0:
475,192,95981,128,0,96110:0:0:0:0:
402,192,96046,128,0,96175:0:0:0:0:
329,192,96110,128,0,96239:0:0:0:0:
36,192,96175,1,0,0:0:0:0:
109,192,96175,128,0,96304:0:0:0:0:
182,192,96239,128,0,96368:0:0:0:0:
256,192,96304,128,0,96433:0:0:0:0:
36,192,96368,128,0,96497:0:0:0:0:
329,192,96368,1,0,0:0:0:0:
109,192,96433,128,0,96562:0:0:0:0:
182,192,96497,128,0,96626:0:0:0:0:
475,192,96562,128,0,97336:0:0:0:0:
256,192,96562,128,0,96949:0:0:0:0:
402,192,96562,128,0,96949:0:0:0:0:
182,192,96949,128,0,97046:0:0:0:0:
329,192,96949,128,0,97046:0:0:0:0:
256,192,97046,128,0,97142:0:0:0:0:
182,192,97142,128,0,97239:0:0:0:0:
109,192,97239,128,0,97336:0:0:0:0:
36,192,97336,128,0,98110:0:0:0:0:
256,192,97336,128,0,97626:0:0:0:0:
402,192,97336,128,0,97626:0:0:0:0:
475,192,97626,128,0,97723:0:0:0:0:
182,192,97723,128,0,97917:0:0:0:0:
329,192,97723,128,0,97917:0:0:0:0:
256,192,97917,128,0,98110:0:0:0:0:
109,192,98110,128,0,98497:0:0:0:0:
402,192,98110,128,0,98304:0:0:0:0:
329,192,98304,1,0,0:0:0:0:
256,192,98497,128,0,98884:0:0:0:0:
36,192,98497,128,0,98691:0:0:0:0:
109,192,98691,1,0,0:0:0:0:
402,192,98884,128,0,99271:0:0:0:0:
182,192,98884,128,0,99078:0:0:0:0:
475,192,98884,1,0,0:0:0:0:
109,192,99078,1,0,0:0:0:0:
256,192,99271,128,0,99368:0:0:0:0:
36,192,99271,1,0,0:0:0:0:
329,192,99368,128,0,99465:0:0:0:0:
256,192,99465,128,0,99562:0:0:0:0:
182,192,99562,128,0,99658:0:0:0:0:
109,192,99658,128,0,100046:0:0:0:0:
402,192,99658,128,0,99852:0:0:0:0:
256,192,99852,1,0,0:0:0:0:
475,192,100046,128,0,100433:0:0:0:0:
329,192,100046,128,0,100239:0:0:0:0:
182,192,100239,1,0,0:0:0:0:
256,192,100433,128,0,100626:0:0:0:0:
36,192,100433,128,0,100820:0:0:0:0:
402,192,100433,1,0,0:0:0:0:
109,192,100626,1,0,0:0:0:0:
182,192,100820,128,0,101013:0:0:0:0:
402,192,100820,128,0,101207:0:0:0:0:
36,192,101013,1,0,0:0:0:0:
475,192,101207,128,0,101788:0:0:0:0:
256,192,101207,1,0,0:0:0:0:
182,192,101400,1,0,0:0:0:0:
109,192,101594,1,0,0:0:0:0:
329,192,101594,1,0,0:0:0:0:
402,192,101788,128,0,101884:0:0:0:0:
329,192,101884,128,0,101981:0:0:0:0:
256,192,101981,128,0,102658:0:0:0:0:
475,192,101981,1,0,0:0:0:0:
36,192,101981,1,0,0:0:0:0:
182,192,102175,1,0,0:0:0:0:
329,192,102271,1,0,0:0:0:0:
109,192,102368,128,0,102658:0:0:0:0:
402,192,102368,128,0,102658:0:0:0:0:
475,192,102755,128,0,103046:0:0:0:0:
36,192,102755,128,0,102949:0:0:0:0:
256,192,102755,1,0,0:0:0:0:
402,192,102755,128,0,103046:0:0:0:0:
109,192,102852,128,0,103046:0:0:0:0:
182,192,102949,128,0,103142:0:0:0:0:
256,192,103046,128,0,103142:0:0:0:0:
329,192,103142,128,0,103207:0:0:0:0:
402,192,103142,128,0,103207:0:0:0:0:
109,192,103207,128,0,103271:0:0:0:0:
182,192,103207,128,0,103271:0:0:0:0:
402,192,103271,128,0,103336:0:0:0:0:
329,192,103271,128,0,103336:0:0:0:0:
182,192,103336,128,0,103433:0:0:0:0:
109,192,103336,128,0,103433:0:0:0:0:
329,192,103433,128,0,103529:0:0:0:0:
402,192,103433,128,0,103529:0:0:0:0:
256,192,103529,128,0,103723:0:0:0:0:
475,192,103529,128,0,103723:0:0:0:0:
36,192,103529,128,0,103723:0:0:0:0:
109,192,103626,128,0,103723:0:0:0:0:
475,192,103820,128,0,104013:0:0:0:0:
256,192,103820,128,0,104013:0:0:0:0:
36,192,103820,128,0,104013:0:0:0:0:
402,192,103917,128,0,104013:0:0:0:0:
475,192,104110,128,0,104304:0:0:0:0:
256,192,104110,128,0,104304:0:0:0:0:
36,192,104110,128,0,104304:0:0:0:0:
109,192,104207,128,0,104304:0:0:0:0:
182,192,104304,1,0,0:0:0:0:
329,192,104304,1,0,0:0:0:0:
402,192,104304,1,0,0:0:0:0:
36,192,104497,1,0,0:0:0:0:
36,192,104594,1,0,0:0:0:0:
109,192,104691,1,0,0:0:0:0:
402,192,104691,1,0,0:0:0:0:
329,192,104788,1,0,0:0:0:0:
182,192,104788,1,0,0:0:0:0:
475,192,104884,1,0,0:0:0:0:
475,192,104981,1,0,0:0:0:0:
182,192,105078,128,0,105207:0:0:0:0:
329,192,105078,1,0,0:0:0:0:
109,192,105142,128,0,105271:0:0:0:0:
36,192,105207,128,0,105336:0:0:0:0:
256,192,105271,128,0,105400:0:0:0:0:
182,192,105336,128,0,105465:0:0:0:0:
109,192,105400,128,0,105529:0:0:0:0:
329,192,105465,128,0,105594:0:0:0:0:
36,192,105465,1,0,0:0:0:0:
402,192,105529,128,0,105658:0:0:0:0:
475,192,105594,128,0,105723:0:0:0:0:
256,192,105658,128,0,105788:0:0:0:0:
329,192,105723,128,0,105852:0:0:0:0:
402,192,105788,128,0,105917:0:0:0:0:
36,192,105852,128,0,106046:0:0:0:0:
475,192,105852,128,0,106046:0:0:0:0:
256,192,105852,1,0,0:0:0:0:
182,192,105949,128,0,106142:0:0:0:0:
329,192,105949,128,0,106142:0:0:0:0:
109,192,106046,128,0,106239:0:0:0:0:
402,192,106046,128,0,106239:0:0:0:0:
36,192,106142,128,0,106239:0:0:0:0:
475,192,106142,128,0,106239:0:0:0:0:
256,192,106239,1,0,0:0:0:0:
402,192,106336,1,0,0:0:0:0:
329,192,106433,1,0,0:0:0:0:
182,192,106529,1,0,0:0:0:0:
475,192,106626,128,0,106820:0:0:0:0:
36,192,106626,128,0,106820:0:0:0:0:
256,192,106626,128,0,106820:0:0:0:0:
402,192,106723,128,0,106820:0:0:0:0:
36,192,106917,128,0,107110:0:0:0:0:
256,192,106917,128,0,107110:0:0:0:0:
475,192,106917,128,0,107110:0:0:0:0:
109,192,107013,128,0,107110:0:0:0:0:
36,192,107207,128,0,107400:0:0:0:0:
475,192,107207,128,0,107400:0:0:0:0:
256,192,107207,128,0,107400:0:0:0:0:
402,192,107304,128,0,107400:0:0:0:0:
182,192,107400,1,0,0:0:0:0:
109,192,107400,1,0,0:0:0:0:
329,192,107400,1,0,0:0:0:0:
475,192,107594,1,0,0:0:0:0:
475,192,107691,1,0,0:0:0:0:
402,192,107788,1,0,0:0:0:0:
109,192,107788,1,0,0:0:0:0:
182,192,107884,1,0,0:0:0:0:
329,192,107884,1,0,0:0:0:0:
36,192,107981,1,0,0:0:0:0:
36,192,108078,1,0,0:0:0:0:
329,192,108175,128,0,108304:0:0:0:0:
182,192,108175,1,0,0:0:0:0:
402,192,108239,128,0,108368:0:0:0:0:
475,192,108304,128,0,108433:0:0:0:0:
256,192,108368,128,0,108497:0:0:0:0:
329,192,108433,128,0,108562:0:0:0:0:
402,192,108497,128,0,108626:0:0:0:0:
182,192,108562,128,0,108691:0:0:0:0:
475,192,108562,1,0,0:0:0:0:
109,192,108626,128,0,108755:0:0:0:0:
36,192,108691,128,0,108820:0:0:0:0:
256,192,108755,128,0,108884:0:0:0:0:
182,192,108820,128,0,108949:0:0:0:0:
109,192,108884,128,0,109013:0:0:0:0:
475,192,108949,128,0,110110:0:0:0:0:
329,192,108949,128,0,109142:0:0:0:0:
36,192,108949,128,0,109142:0:0:0:0:
109,192,109723,128,0,109917:0:0:0:0:
256,192,109723,128,0,109917:0:0:0:0:
182,192,110110,128,0,110304:0:0:0:0:
36,192,110110,128,0,110304:0:0:0:0:
329,192,110110,128,0,110497:0:0:0:0:
36,192,110497,128,0,111271:0:0:0:0:
256,192,110497,128,0,110691:0:0:0:0:
475,192,110497,128,0,110691:0:0:0:0:
402,192,110884,128,0,111078:0:0:0:0:
182,192,110884,128,0,111078:0:0:0:0:
182,192,111271,128,0,112046:0:0:0:0:
329,192,111271,128,0,111465:0:0:0:0:
475,192,111271,128,0,111465:0:0:0:0:
402,192,111658,128,0,111852:0:0:0:0:
256,192,111658,128,0,111852:0:0:0:0:
36,192,111852,1,0,0:0:0:0:
109,192,111949,1,0,0:0:0:0:
329,192,112046,128,0,112820:0:0:0:0:
475,192,112046,1,0,0:0:0:0:
256,192,112046,1,0,0:0:0:0:
36,192,112433,128,0,112626:0:0:0:0:
256,192,112433,128,0,112626:0:0:0:0:
182,192,112626,1,0,0:0:0:0:
109,192,112723,1,0,0:0:0:0:
402,192,112820,128,0,113207:0:0:0:0:
36,192,112820,1,0,0:0:0:0:
256,192,113013,1,0,0:0:0:0:
475,192,113207,128,0,113594:0:0:0:0:
109,192,113207,1,0,0:0:0:0:
329,192,113400,1,0,0:0:0:0:
256,192,113594,128,0,115046:0:0:0:0:
36,192,113594,1,0,0:0:0:0:
402,192,113594,1,0,0:0:0:0:
329,192,113691,1,0,0:0:0:0:
182,192,113788,1,0,0:0:0:0:
109,192,113884,1,0,0:0:0:0:
36,192,113981,1,0,0:0:0:0:
475,192,113981,1,0,0:0:0:0:
329,192,114175,1,0,0:0:0:0:
402,192,114271,1,0,0:0:0:0:
36,192,114368,128,0,115046:0:0:0:0:
182,192,114368,1,0,0:0:0:0:
475,192,114368,1,0,0:0:0:0:
402,192,114562,1,0,0:0:0:0:
329,192,114658,1,0,0:0:0:0:
475,192,114755,128,0,115046:0:0:0:0:
109,192,114755,1,0,0:0:0:0:
402,192,114755,1,0,0:0:0:0:
475,192,115142,1,0,0:0:0:0:
182,192,115142,1,0,0:0:0:0:
36,192,115142,1,0,0:0:0:0:
329,192,115142,128,0,116691:0:0:0:0:
109,192,115433,1,0,0:0:0:0:
402,192,115529,1,0,0:0:0:0:
475,192,115529,1,0,0:0:0:0:
182,192,115723,1,0,0:0:0:0:
109,192,115917,1,0,0:0:0:0:
36,192,115917,1,0,0:0:0:0:
256,192,115917,1,0,0:0:0:0:
402,192,116013,1,0,0:0:0:0:
475,192,116110,1,0,0:0:0:0:
402,192,116304,1,0,0:0:0:0:
475,192,116304,1,0,0:0:0:0:
182,192,116304,1,0,0:0:0:0:
256,192,116594,1,0,0:0:0:0:
182,192,116642,1,0,0:0:0:0:
109,192,116691,128,0,117465:0:0:0:0:
36,192,116691,1,0,0:0:0:0:
475,192,116691,1,0,0:0:0:0:
402,192,116884,1,0,0:0:0:0:
256,192,117078,1,0,0:0:0:0:
182,192,117078,1,0,0:0:0:0:
475,192,117078,1,0,0:0:0:0:
329,192,117175,1,0,0:0:0:0:
402,192,117271,1,0,0:0:0:0:
36,192,117465,1,0,0:0:0:0:
182,192,117465,1,0,0:0:0:0:
475,192,117465,128,0,118239:0:0:0:0:
329,192,117755,1,0,0:0:0:0:
256,192,117852,1,0,0:0:0:0:
109,192,117852,1,0,0:0:0:0:
36,192,117852,1,0,0:0:0:0:
182,192,118046,1,0,0:0:0:0:
329,192,118239,128,0,119013:0:0:0:0:
402,192,118239,1,0,0:0:0:0:
36,192,118239,1,0,0:0:0:0:
182,192,118433,1,0,0:0:0:0:
109,192,118626,1,0,0:0:0:0:
36,192,118626,1,0,0:0:0:0:
475,192,118626,1,0,0:0:0:0:
256,192,118820,1,0,0:0:0:0:
182,192,119013,1,0,0:0:0:0:
402,192,119013,1,0,0:0:0:0:
475,192,119013,1,0,0:0:0:0:
109,192,119062,1,0,0:0:0:0:
36,192,119110,128,0,119788:0:0:0:0:
329,192,119207,1,0,0:0:0:0:
182,192,119400,1,0,0:0:0:0:
256,192,119400,1,0,0:0:0:0:
475,192,119400,1,0,0:0:0:0:
402,192,119594,1,0,0:0:0:0:
256,192,119788,128,0,120562:0:0:0:0:
109,192,119788,1,0,0:0:0:0:
329,192,119788,1,0,0:0:0:0:
402,192,119981,1,0,0:0:0:0:
475,192,120175,1,0,0:0:0:0:
109,192,120175,1,0,0:0:0:0:
36,192,120175,1,0,0:0:0:0:
402,192,120271,1,0,0:0:0:0:
329,192,120368,1,0,0:0:0:0:
475,192,120562,128,0,121336:0:0:0:0:
182,192,120562,1,0,0:0:0:0:
36,192,120562,1,0,0:0:0:0:
256,192,120755,1,0,0:0:0:0:
182,192,120852,1,0,0:0:0:0:
109,192,120949,1,0,0:0:0:0:
36,192,120949,1,0,0:0:0:0:
402,192,120949,1,0,0:0:0:0:
182,192,121046,1,0,0:0:0:0:
256,192,121142,1,0,0:0:0:0:
329,192,121239,1,0,0:0:0:0:
109,192,121336,1,0,0:0:0:0:
36,192,121336,1,0,0:0:0:0:
182,192,121336,1,0,0:0:0:0:
402,192,121336,1,0,0:0:0:0:
256,192,121433,1,0,0:0:0:0:
329,192,121529,1,0,0:0:0:0:
475,192,121529,1,0,0:0:0:0:
182,192,121626,1,0,0:0:0:0:
256,192,121723,1,0,0:0:0:0:
402,192,121723,1,0,0:0:0:0:
36,192,121723,1,0,0:0:0:0:
109,192,121820,1,0,0:0:0:0:
182,192,121917,1,0,0:0:0:0:
329,192,121917,1,0,0:0:0:0:
402,192,122013,1,0,0:0:0:0:
109,192,122110,1,0,0:0:0:0:
256,192,122110,1,0,0:0:0:0:
475,192,122110,1,0,0:0:0:0:
329,192,122207,1,0,0:0:0:0:
182,192,122304,1,0,0:0:0:0:
36,192,122304,1,0,0:0:0:0:
256,192,122400,1,0,0:0:0:0:
109,192,122497,1,0,0:0:0:0:
329,192,122497,1,0,0:0:0:0:
475,192,122497,1,0,0:0:0:0:
36,192,122594,1,0,0:0:0:0:
182,192,122691,1,0,0:0:0:0:
402,192,122691,1,0,0:0:0:0:
109,192,122788,1,0,0:0:0:0:
36,192,122884,1,0,0:0:0:0:
256,192,122884,1,0,0:0:0:0:
475,192,122884,1,0,0:0:0:0:
402,192,122981,1,0,0:0:0:0:
329,192,123078,1,0,0:0:0:0:
182,192,123078,1,0,0:0:0:0:
109,192,123175,1,0,0:0:0:0:
256,192,123271,1,0,0:0:0:0:
402,192,123271,1,0,0:0:0:0:
36,192,123271,1,0,0:0:0:0:
182,192,123368,1,0,0:0:0:0:
329,192,123465,1,0,0:0:0:0:
475,192,123465,1,0,0:0:0:0:
256,192,123562,1,0,0:0:0:0:
182,192,123658,1,0,0:0:0:0:
36,192,123658,1,0,0:0:0:0:
402,192,123658,1,0,0:0:0:0:
329,192,123755,1,0,0:0:0:0:
256,192,123852,1,0,0:0:0:0:
109,192,123852,1,0,0:0:0:0:
329,192,123949,1,0,0:0:0:0:
182,192,124046,1,0,0:0:0:0:
36,192,124046,1,0,0:0:0:0:
402,192,124046,1,0,0:0:0:0:
256,192,124142,1,0,0:0:0:0:
109,192,124239,1,0,0:0:0:0:
329,192,124239,1,0,0:0:0:0:
182,192,124336,1,0,0:0:0:0:
256,192,124433,1,0,0:0:0:0:
36,192,124433,1,0,0:0:0:0:
329,192,124481,1,0,0:0:0:0:
402,192,124529,1,0,0:0:0:0:
475,192,124578,1,0,0:0:0:0:
182,192,124626,1,0,0:0:0:0:
256,192,124675,1,0,0:0:0:0:
329,192,124723,1,0,0:0:0:0:
402,192,124771,1,0,0:0:0:0:
109,192,124820,1,0,0:0:0:0:
182,192,124868,1,0,0:0:0:0:
256,192,124917,1,0,0:0:0:0:
329,192,124965,1,0,0:0:0:0:
36,192,125013,1,0,0:0:0:0:
109,192,125062,1,0,0:0:0:0:
182,192,125110,1,0,0:0:0:0:
256,192,125158,1,0,0:0:0:0:
475,192,125207,1,0,0:0:0:0:
329,192,125255,1,0,0:0:0:0:
182,192,125304,1,0,0:0:0:0:
36,192,125352,1,0,0:0:0:0:
475,192,125400,1,0,0:0:0:0:
329,192,125449,1,0,0:0:0:0:
36,192,125497,1,0,0:0:0:0:
182,192,125546,1,0,0:0:0:0:
329,192,125594,1,0,0:0:0:0:
475,192,125642,1,0,0:0:0:0:
109,192,125691,1,0,0:0:0:0:
256,192,125739,1,0,0:0:0:0:
402,192,125788,1,0,0:0:0:0:
36,192,125836,1,0,0:0:0:0:
182,192,125884,1,0,0:0:0:0:
329,192,125933,1,0,0:0:0:0:
402,192,125981,1,0,0:0:0:0:
475,192,125981,1,0,0:0:0:0:
256,192,126175,128,0,126368:0:0:0:0:
109,192,126175,128,0,126368:0:0:0:0:
182,192,126368,128,0,126562:0:0:0:0:
36,192,126368,128,0,126562:0:0:0:0:
256,192,126562,128,0,126755:0:0:0:0:
402,192,126562,128,0,126755:0:0:0:0:
475,192,126658,128,0,126755:0:0:0:0:
182,192,126755,128,0,126852:0:0:0:0:
109,192,126755,128,0,126852:0:0:0:0:
329,192,126852,128,0,126949:0:0:0:0:
475,192,126852,128,0,126949:0:0:0:0:
109,192,126949,1,0,0:0:0:0:
36,192,126949,1,0,0:0:0:0:
475,192,127046,128,0,127142:0:0:0:0:
329,192,127046,128,0,127142:0:0:0:0:
256,192,127142,1,0,0:0:0:0:
182,192,127142,1,0,0:0:0:0:
36,192,127142,1,0,0:0:0:0:
402,192,127239,128,0,127433:0:0:0:0:
329,192,127336,128,0,127529:0:0:0:0:
182,192,127433,128,0,127529:0:0:0:0:
36,192,127529,128,0,127917:0:0:0:0:
109,192,127529,128,0,127723:0:0:0:0:
402,192,127529,128,0,127626:0:0:0:0:
475,192,127529,128,0,127626:0:0:0:0:
256,192,127723,128,0,127820:0:0:0:0:
182,192,127820,128,0,128207:0:0:0:0:
475,192,127820,128,0,127917:0:0:0:0:
402,192,127820,128,0,127917:0:0:0:0:
329,192,127917,128,0,128013:0:0:0:0:
256,192,128013,128,0,128110:0:0:0:0:
475,192,128110,128,0,128497:0:0:0:0:
109,192,128110,128,0,128207:0:0:0:0:
402,192,128110,128,0,128207:0:0:0:0:
329,192,128207,128,0,128304:0:0:0:0:
256,192,128304,128,0,128400:0:0:0:0:
329,192,128400,128,0,128788:0:0:0:0:
109,192,128400,128,0,128497:0:0:0:0:
36,192,128400,128,0,128497:0:0:0:0:
182,192,128497,128,0,128594:0:0:0:0:
256,192,128594,128,0,128691:0:0:0:0:
36,192,128691,128,0,129078:0:0:0:0:
109,192,128691,128,0,128788:0:0:0:0:
402,192,128691,128,0,128788:0:0:0:0:
475,192,128691,128,0,128788:0:0:0:0:
182,192,128788,128,0,128884:0:0:0:0:
256,192,128884,128,0,128981:0:0:0:0:
329,192,128981,128,0,129078:0:0:0:0:
182,192,128981,128,0,129368:0:0:0:0:
475,192,128981,128,0,129078:0:0:0:0:
402,192,129078,128,0,129175:0:0:0:0:
329,192,129175,128,0,129271:0:0:0:0:
475,192,129271,128,0,129658:0:0:0:0:
36,192,129271,128,0,129368:0:0:0:0:
256,192,129271,128,0,129368:0:0:0:0:
109,192,129368,128,0,129465:0:0:0:0:
402,192,129465,128,0,129562:0:0:0:0:
329,192,129562,128,0,129852:0:0:0:0:
36,192,129562,128,0,129658:0:0:0:0:
256,192,129562,128,0,129658:0:0:0:0:
182,192,129658,128,0,129755:0:0:0:0:
109,192,129755,128,0,129852:0:0:0:0:
256,192,129852,128,0,130239:0:0:0:0:
36,192,129852,128,0,129949:0:0:0:0:
475,192,129852,128,0,129949:0:0:0:0:
402,192,129852,128,0,129949:0:0:0:0:
182,192,129949,128,0,130046:0:0:0:0:
329,192,130046,128,0,130142:0:0:0:0:
402,192,130142,128,0,130239:0:0:0:0:
182,192,130239,1,0,0:0:0:0:
36,192,130239,1,0,0:0:0:0:
329,192,130336,1,0,0:0:0:0:
475,192,130336,1,0,0:0:0:0:
182,192,130433,1,0,0:0:0:0:
36,192,130433,1,0,0:0:0:0:
329,192,130529,1,0,0:0:0:0:
475,192,130529,1,0,0:0:0:0:
36,192,130626,128,0,131013:0:0:0:0:
109,192,130626,128,0,130723:0:0:0:0:
256,192,130626,128,0,130723:0:0:0:0:
402,192,130626,128,0,130723:0:0:0:0:
329,192,130723,128,0,130820:0:0:0:0:
182,192,130820,128,0,130917:0:0:0:0:
109,192,130917,128,0,131304:0:0:0:0:
256,192,130917,128,0,131013:0:0:0:0:
475,192,130917,128,0,131013:0:0:0:0:
402,192,131013,128,0,131110:0:0:0:0:
329,192,131110,128,0,131207:0:0:0:0:
182,192,131207,128,0,131594:0:0:0:0:
36,192,131207,128,0,131304:0:0:0:0:
256,192,131207,128,0,131304:0:0:0:0:
329,192,131304,128,0,131400:0:0:0:0:
402,192,131400,128,0,131497:0:0:0:0:
256,192,131497,128,0,131884:0:0:0:0:
475,192,131497,128,0,131594:0:0:0:0:
36,192,131497,128,0,131594:0:0:0:0:
402,192,131594,128,0,131691:0:0:0:0:
329,192,131691,128,0,131788:0:0:0:0:
475,192,131788,128,0,132175:0:0:0:0:
36,192,131788,128,0,131884:0:0:0:0:
109,192,131788,128,0,131884:0:0:0:0:
402,192,131788,128,0,131884:0:0:0:0:
182,192,131884,128,0,131981:0:0:0:0:
256,192,131981,128,0,132078:0:0:0:0:
402,192,132078,128,0,132465:0:0:0:0:
329,192,132078,128,0,132175:0:0:0:0:
109,192,132078,128,0,132175:0:0:0:0:
256,192,132175,128,0,132271:0:0:0:0:
182,192,132271,128,0,132368:0:0:0:0:
329,192,132368,128,0,132755:0:0:0:0:
109,192,132368,128,0,132465:0:0:0:0:
475,192,132368,128,0,132465:0:0:0:0:
36,192,132465,128,0,132562:0:0:0:0:
182,192,132562,128,0,132658:0:0:0:0:
256,192,132658,128,0,132949:0:0:0:0:
402,192,132658,128,0,132755:0:0:0:0:
36,192,132658,128,0,132755:0:0:0:0:
109,192,132755,128,0,132852:0:0:0:0:
182,192,132852,128,0,132949:0:0:0:0:
36,192,132949,128,0,133336:0:0:0:0:
109,192,132949,128,0,133046:0:0:0:0:
475,192,132949,128,0,133046:0:0:0:0:
402,192,132949,128,0,133046:0:0:0:0:
329,192,133046,128,0,133142:0:0:0:0:
256,192,133142,128,0,133239:0:0:0:0:
182,192,133239,128,0,133336:0:0:0:0:
402,192,133336,1,0,0:0:0:0:
475,192,133336,1,0,0:0:0:0:
329,192,133433,1,0,0:0:0:0:
36,192,133529,1,0,0:0:0:0:
109,192,133529,1,0,0:0:0:0:
182,192,133626,1,0,0:0:0:0:
256,192,133626,1,0,0:0:0:0:
475,192,133723,128,0,134110:0:0:0:0:
402,192,133723,1,0,0:0:0:0:
36,192,133723,1,0,0:0:0:0:
329,192,133723,128,0,134013:0:0:0:0:
256,192,133820,128,0,134013:0:0:0:0:
109,192,133917,1,0,0:0:0:0:
182,192,134013,128,0,134110:0:0:0:0:
36,192,134013,1,0,0:0:0:0:
329,192,134110,128,0,134497:0:0:0:0:
402,192,134110,1,0,0:0:0:0:
256,192,134110,128,0,134207:0:0:0:0:
182,192,134207,128,0,134400:0:0:0:0:
109,192,134304,128,0,134497:0:0:0:0:
475,192,134304,1,0,0:0:0:0:
36,192,134400,128,0,134497:0:0:0:0:
182,192,134497,128,0,134884:0:0:0:0:
256,192,134497,128,0,134788:0:0:0:0:
402,192,134497,1,0,0:0:0:0:
329,192,134594,128,0,134788:0:0:0:0:
475,192,134594,1,0,0:0:0:0:
109,192,134691,1,0,0:0:0:0:
36,192,134691,1,0,0:0:0:0:
402,192,134788,128,0,134884:0:0:0:0:
36,192,134884,128,0,135271:0:0:0:0:
109,192,134884,1,0,0:0:0:0:
329,192,134884,128,0,134981:0:0:0:0:
256,192,134981,128,0,135078:0:0:0:0:
182,192,135078,128,0,135271:0:0:0:0:
475,192,135078,1,0,0:0:0:0:
256,192,135175,128,0,135271:0:0:0:0:
329,192,135175,1,0,0:0:0:0:
109,192,135271,128,0,135658:0:0:0:0:
402,192,135271,128,0,135368:0:0:0:0:
475,192,135271,128,0,135368:0:0:0:0:
256,192,135368,128,0,135562:0:0:0:0:
329,192,135465,128,0,135658:0:0:0:0:
402,192,135562,128,0,135658:0:0:0:0:
475,192,135562,1,0,0:0:0:0:
182,192,135658,128,0,136046:0:0:0:0:
36,192,135658,128,0,135755:0:0:0:0:
256,192,135658,128,0,135755:0:0:0:0:
329,192,135755,128,0,135949:0:0:0:0:
402,192,135852,128,0,136046:0:0:0:0:
109,192,135852,1,0,0:0:0:0:
475,192,135949,128,0,136046:0:0:0:0:
256,192,136046,128,0,136433:0:0:0:0:
329,192,136046,128,0,136142:0:0:0:0:
36,192,136046,128,0,136142:0:0:0:0:
109,192,136142,128,0,136336:0:0:0:0:
402,192,136142,1,0,0:0:0:0:
182,192,136239,128,0,136433:0:0:0:0:
475,192,136239,1,0,0:0:0:0:
329,192,136336,128,0,136433:0:0:0:0:
402,192,136433,128,0,136820:0:0:0:0:
109,192,136433,128,0,136529:0:0:0:0:
475,192,136433,128,0,136529:0:0:0:0:
329,192,136529,128,0,136723:0:0:0:0:
256,192,136626,128,0,136723:0:0:0:0:
36,192,136626,1,0,0:0:0:0:
182,192,136723,128,0,136820:0:0:0:0:
109,192,136723,1,0,0:0:0:0:
256,192,136820,1,0,0:0:0:0:
36,192,136820,1,0,0:0:0:0:
475,192,136820,1,0,0:0:0:0:
329,192,136917,1,0,0:0:0:0:
402,192,136917,1,0,0:0:0:0:
182,192,137013,1,0,0:0:0:0:
109,192,137013,1,0,0:0:0:0:
329,192,137110,1,0,0:0:0:0:
402,192,137110,1,0,0:0:0:0:
256,192,137207,1,0,0:0:0:0:
36,192,137207,1,0,0:0:0:0:
475,192,137207,1,0,0:0:0:0:
182,192,137304,1,0,0:0:0:0:
109,192,137400,1,0,0:0:0:0:
36,192,137400,1,0,0:0:0:0:
329,192,137400,1,0,0:0:0:0:
256,192,137497,1,0,0:0:0:0:
402,192,137594,1,0,0:0:0:0:
475,192,137594,1,0,0:0:0:0:
182,192,137594,1,0,0:0:0:0:
329,192,137691,1,0,0:0:0:0:
256,192,137788,1,0,0:0:0:0:
36,192,137788,1,0,0:0:0:0:
475,192,137788,1,0,0:0:0:0:
109,192,137884,1,0,0:0:0:0:
182,192,137884,1,0,0:0:0:0:
36,192,137981,1,0,0:0:0:0:
329,192,137981,1,0,0:0:0:0:
402,192,137981,1,0,0:0:0:0:
182,192,138078,1,0,0:0:0:0:
256,192,138078,1,0,0:0:0:0:
109,192,138175,1,0,0:0:0:0:
402,192,138175,1,0,0:0:0:0:
475,192,138175,1,0,0:0:0:0:
256,192,138271,1,0,0:0:0:0:
329,192,138271,1,0,0:0:0:0:
36,192,138368,128,0,139917:0:0:0:0:
182,192,138368,1,0,0:0:0:0:
475,192,138368,1,0,0:0:0:0:
329,192,139142,128,0,139917:0:0:0:0:
182,192,139529,128,0,139917:0:0:0:0:
109,192,139917,1,0,0:0:0:0:
256,192,139917,1,0,0:0:0:0:
475,192,139917,1,0,0:0:0:0:
182,192,140304,1,0,0:0:0:0:
402,192,140691,1,0,0:0:0:0:
256,192,140691,1,0,0:0:0:0:
182,192,141078,1,0,0:0:0:0:
329,192,141465,1,0,0:0:0:0:
475,192,141465,1,0,0:0:0:0:
182,192,141852,1,0,0:0:0:0:
402,192,142239,1,0,0:0:0:0:
109,192,142239,1,0,0:0:0:0:
182,192,142626,1,0,0:0:0:0:
402,192,143013,1,0,0:0:0:0:
36,192,143013,1,0,0:0:0:0:
329,192,143400,1,0,0:0:0:0:
109,192,143788,1,0,0:0:0:0:
256,192,143788,1,0,0:0:0:0:
329,192,144175,1,0,0:0:0:0:
36,192,144562,1,0,0:0:0:0:
182,192,144562,1,0,0:0:0:0:
329,192,144949,1,0,0:0:0:0:
182,192,145336,1,0,0:0:0:0:
329,192,145433,1,0,0:0:0:0:
109,192,145529,1,0,0:0:0:0:
402,192,145626,1,0,0:0:0:0:
256,192,145723,128,0,146110:0:0:0:0:
36,192,145723,1,0,0:0:0:0:
475,192,145723,1,0,0:0:0:0:
