osu file format v14

[General]
AudioFilename: audio.mp3
AudioLeadIn: 0
PreviewTime: -1
Countdown: 1
SampleSet: None
StackLeniency: 0.7
Mode: 0
LetterboxInBreaks: 0
WidescreenStoryboard: 0

[Editor]
Bookmarks: 25795
DistanceSpacing: 1.2
BeatDivisor: 4
GridSize: 4
TimelineZoom: 1

[Metadata]
Title:She Got Me
TitleUnicode:She Got Me
Artist:Luca Hnni
ArtistUnicode:Luca Hänni
Creator:DominicsHase
Version:.
Source:
Tags:
BeatmapID:2062668
BeatmapSetID:985909

[Difficulty]
HPDrainRate:5
CircleSize:4
OverallDifficulty:5
ApproachRate:9
SliderMultiplier:2.2
SliderTickRate:1

[Events]
//Background and Video events
0,0,"LUCA HÄNNI.jpg",0,0
//Break Periods
2,22285,25195
2,32177,34778
//Storyboard Layer 0 (Background)
//Storyboard Layer 1 (Fail)
//Storyboard Layer 2 (Pass)
//Storyboard Layer 3 (Foreground)
//Storyboard Sound Samples

[TimingPoints]
15594.9788697716,618.219670442843,4,1,0,100,1,0
37232,-250,4,1,0,100,0,0
38005,-100,4,1,0,100,0,0
39550,-250,4,1,0,100,0,0
44805,-100,4,1,0,100,0,0
55178,-66.6666666666667,4,1,0,100,0,0
60725,-52.6315789473684,4,1,0,100,0,0
61961,-37.037037037037,4,1,0,100,0,0
62579,-27.7777777777778,4,1,0,100,0,0
65052,-52.6315789473684,4,1,0,100,0,1
74944,-52.6315789473684,4,1,0,100,0,0

[HitObjects]
131,68,15904,5,0,0:0:0:0:
238,179,16058,2,0,L|186:125,1,55
131,68,16522,1,0,0:0:0:0:
364,149,16831,1,0,0:0:0:0:
239,236,16986,1,0,0:0:0:0:
106,212,17141,1,0,0:0:0:0:
281,89,18376,5,0,0:0:0:0:
411,95,18531,1,0,0:0:0:0:
331,195,18686,1,0,0:0:0:0:
121,83,18995,5,0,0:0:0:0:
214,31,19149,1,0,0:0:0:0:
207,136,19304,2,0,L|197:207,2,55
227,299,20695,5,0,0:0:0:0:
161,203,20850,1,0,0:0:0:0:
316,160,21004,1,0,0:0:0:0:
130,89,21158,2,0,L|67:67,2,55
340,184,21777,1,0,0:0:0:0:
91,59,21931,2,0,L|54:136,1,55
353,76,25795,5,0,0:0:0:0:
238,179,25949,2,0,L|186:125,1,55
131,68,26413,1,0,0:0:0:0:
364,149,26722,1,0,0:0:0:0:
239,236,26877,1,0,0:0:0:0:
369,111,27032,1,0,0:0:0:0:
281,89,28267,5,0,0:0:0:0:
393,93,28422,1,0,0:0:0:0:
321,177,28577,1,0,0:0:0:0:
121,83,28886,5,0,0:0:0:0:
214,31,29040,1,0,0:0:0:0:
207,136,29195,2,0,L|197:207,2,55
213,323,30741,5,0,0:0:0:0:
104,187,30895,1,0,0:0:0:0:
316,204,31050,2,0,P|345:183|367:154,1,55
211,96,31359,2,0,P|217:131|236:157,1,55
391,53,31668,2,0,P|354:36|307:27,2,55
135,74,35378,5,0,0:0:0:0:
406,91,35532,1,0,0:0:0:0:
140,235,35996,2,0,P|106:171|113:112,1,110
320,198,36614,1,0,0:0:0:0:
226,322,36923,1,0,0:0:0:0:
233,70,37232,6,0,L|323:46,1,88
252,188,38005,1,0,0:0:0:0:
96,103,38314,2,0,L|86:21,4,55
121,256,39087,1,0,0:0:0:0:
362,60,39705,2,0,L|372:154,1,88
297,43,40478,1,0,0:0:0:0:
249,62,40941,5,0,0:0:0:0:
136,177,41096,1,0,0:0:0:0:
293,217,41251,1,0,0:0:0:0:
197,39,41405,1,0,0:0:0:0:
237,212,41560,2,0,L|286:263,1,66
92,129,42178,6,0,P|96:103|159:78,1,88
162,286,43002,1,0,0:0:0:0:
279,38,43208,1,0,0:0:0:0:
306,274,43414,1,0,0:0:0:0:
118,98,43620,1,0,0:0:0:0:
423,102,43827,1,0,0:0:0:0:
175,253,44033,2,0,L|91:300,1,88
379,117,45269,6,0,P|319:60|273:45,1,110
262,323,45887,2,0,L|331:215,1,110
150,72,46505,2,0,P|91:88|23:116,2,110
201,282,47278,1,0,0:0:0:0:
111,150,47433,1,0,0:0:0:0:
342,152,47587,1,0,0:0:0:0:
171,310,47742,6,0,P|121:257|95:205,2,110
281,142,48515,1,0,0:0:0:0:
111,119,48669,1,0,0:0:0:0:
176,288,48824,1,0,0:0:0:0:
334,105,48978,6,0,P|276:46|233:20,2,110
148,260,49751,1,0,0:0:0:0:
207,64,49906,1,0,0:0:0:0:
148,260,50060,1,0,0:0:0:0:
291,48,50215,2,0,P|326:68|287:107,2,110
160,268,50988,1,0,0:0:0:0:
291,36,51142,1,0,0:0:0:0:
160,268,51297,1,0,0:0:0:0:
322,41,51451,2,0,P|355:96|299:141,2,110
65,82,52379,1,0,0:0:0:0:
436,158,52688,1,0,0:0:0:0:
110,277,55161,6,0,P|105:238|118:183,1,55
316,45,55470,2,0,P|333:105|308:162,1,82.5000031471254
67,203,55779,2,0,P|106:170|178:158,1,82.5000031471254
398,145,56088,2,0,P|371:193|311:196,1,82.5000031471254
91,68,56397,2,0,P|120:69|170:101,1,82.5000031471254
326,334,56706,2,0,P|279:315|253:266,1,82.5000031471254
244,55,57015,1,0,0:0:0:0:
244,331,57170,1,0,0:0:0:0:
95,113,57324,1,0,0:0:0:0:
399,194,57479,1,0,0:0:0:0:
141,51,57633,6,0,P|176:57|242:42,1,82.5000031471254
344,281,57943,2,0,P|295:266|235:293,1,82.5000031471254
307,27,58252,2,0,P|325:94|367:122,1,82.5000031471254
184,295,58561,2,0,P|173:234|141:210,1,82.5000031471254
141,51,58870,6,0,P|176:57|242:42,1,82.5000031471254
344,281,59180,2,0,P|295:266|235:293,1,82.5000031471254
307,27,59489,2,0,P|325:94|367:122,1,82.5000031471254
184,295,59798,2,0,P|173:234|141:210,1,82.5000031471254
363,46,60106,6,0,P|416:133|350:190,1,165.000006294251
151,58,60570,1,0,0:0:0:0:
426,128,60725,2,0,P|396:261|270:305,1,208.999994419098
151,58,61188,1,0,0:0:0:0:
134,283,61343,6,0,P|88:227|93:85,1,208.999994419098
356,85,61806,1,0,0:0:0:0:
192,323,61961,2,0,P|86:172|151:29,1,297.000001132965
256,192,62579,12,0,64434,0:0:0:0:
269,50,65052,6,0,P|322:67|388:160,1,104.499997209549,12|0,0:0|0:0,0:0:0:0:
423,205,65361,1,0,0:0:0:0:
163,127,65516,1,0,0:0:0:0:
438,75,65670,1,0,0:0:0:0:
142,92,65825,1,0,0:0:0:0:
445,33,65979,1,0,0:0:0:0:
102,54,66134,1,0,0:0:0:0:
412,227,66288,6,0,P|431:161|420:110,1,104.499997209549,12|0,0:0|0:0,0:0:0:0:
217,198,66598,2,0,P|286:241|445:198,1,208.999994419098
307,96,67061,1,0,0:0:0:0:
183,220,67216,1,0,0:0:0:0:
411,187,67370,1,0,0:0:0:0:
103,65,67525,6,0,P|52:132|81:257,1,208.999994419098,12|0,0:0|0:0,0:0:0:0:
246,78,67989,1,0,0:0:0:0:
49,49,68143,1,0,0:0:0:0:
130,285,68298,1,0,0:0:0:0:
183,32,68452,1,0,0:0:0:0:
130,285,68607,1,0,0:0:0:0:
372,86,68761,6,0,P|243:23|151:45,1,208.999994419098,12|0,0:0|0:0,0:0:0:0:
254,287,69225,1,0,0:0:0:0:
406,52,69380,2,0,L|180:38,1,208.999994419098,12|0,0:0|0:0,0:0:0:0:
330,299,69843,1,0,0:0:0:0:
363,278,69998,6,0,P|407:213|412:151,1,104.499997209549,12|0,0:0|0:0,0:0:0:0:
189,169,70307,2,0,L|325:244,1,104.499997209549
351,49,70616,2,0,P|211:21|184:28,1,104.499997209549
357,271,70925,2,0,P|415:225|431:160,1,104.499997209549
186,73,71234,1,0,0:0:0:0:
267,304,71389,1,0,0:0:0:0:
418,64,71543,1,0,0:0:0:0:
139,133,71698,1,0,0:0:0:0:
427,103,71852,5,0,0:0:0:0:
170,118,72007,1,0,0:0:0:0:
388,208,72162,1,0,0:0:0:0:
143,71,72316,1,0,0:0:0:0:
237,277,72471,6,0,P|294:287|398:157,1,208.999994419098,12|0,0:0|0:0,0:0:0:0:
141,113,72934,1,0,0:0:0:0:
229,331,73089,1,0,0:0:0:0:
376,114,73243,1,0,0:0:0:0:
137,202,73398,2,0,L|29:247,2,104.499997209549
386,130,73862,1,0,0:0:0:0:
167,97,74016,1,0,0:0:0:0:
389,277,74171,1,0,0:0:0:0:
299,30,74325,1,0,0:0:0:0:
149,277,74480,1,0,0:0:0:0:
427,108,74634,1,0,0:0:0:0:
