osu file format v14

[General]
AudioFilename: audio.mp3
AudioLeadIn: 0
PreviewTime: -1
Countdown: 0
SampleSet: None
StackLeniency: 0.7
Mode: 1
LetterboxInBreaks: 0
WidescreenStoryboard: 0

[Editor]
Bookmarks: 10258,22889,43100,53205,63310,73416,83521,103731
DistanceSpacing: 1.3
BeatDivisor: 4
GridSize: 32
TimelineZoom: 1.9

[Metadata]
Title:Antares
TitleUnicode:Antares
Artist:Luca
ArtistUnicode:루카
Creator:Bedwyr Aorta
Version:Zeth's Stellar
Source:
Tags:
BeatmapID:1829639
BeatmapSetID:867419

[Difficulty]
HPDrainRate:6
CircleSize:5
OverallDifficulty:7
ApproachRate:5
SliderMultiplier:1.4
SliderTickRate:1

[Events]
//Background and Video events
0,0,"70433778_p0.jpg",0,90
//Break Periods
//Storyboard Layer 0 (Background)
//Storyboard Layer 1 (Fail)
//Storyboard Layer 2 (Pass)
//Storyboard Layer 3 (Foreground)
//Storyboard Sound Samples

[TimingPoints]
153,315.789473684211,4,1,0,70,1,0
153,-133.333333333333,4,1,0,70,0,0
7574,-135.135135135135,4,1,0,70,0,0
7731,-137.931034482759,4,1,0,70,0,0
8047,-133.333333333333,4,1,0,70,0,0
8363,-129.87012987013,4,1,0,70,0,0
8679,-126.582278481013,4,1,0,70,0,0
8995,-123.456790123457,4,1,0,70,0,0
9310,-120.481927710843,4,1,0,70,0,0
9626,-117.647058823529,4,1,0,70,0,0
9942,-114.942528735632,4,1,0,70,0,0
10258,-111.111111111111,4,1,0,70,0,0
14837,-114.285714285714,4,1,0,70,0,0
14995,-117.647058823529,4,1,0,70,0,0
15153,-121.212121212121,4,1,0,70,0,0
15310,-125,4,1,0,70,0,0
17837,-100,4,1,0,70,0,0
19100,-83.3333333333333,4,1,0,70,0,0
20363,-125,4,1,0,5,0,0
20679,-125,4,1,0,15,0,0
20995,-125,4,1,0,25,0,0
21310,-125,4,1,0,35,0,0
21626,-111.111111111111,4,1,0,45,0,0
21942,-111.111111111111,4,1,0,55,0,0
22258,-100,4,1,0,65,0,0
22574,-95.2380952380952,4,1,0,75,0,0
22653,-93.0232558139535,4,1,0,75,0,0
22731,-90.9090909090909,4,1,0,75,0,0
22810,-88.8888888888889,4,1,0,75,0,0
22889,-86.9565217391304,4,1,0,75,0,1
32995,-83.3333333333333,4,1,0,75,0,1
33468,-81.6326530612245,4,1,0,75,0,1
33784,-78.4313725490196,4,1,0,75,0,1
33942,-76.9230769230769,4,1,0,75,0,1
34100,-75.4716981132076,4,1,0,75,0,1
34495,-75.7575757575758,4,1,0,75,0,1
34574,-76.3358778625954,4,1,0,75,0,1
34653,-76.9230769230769,4,1,0,75,0,1
34731,-77.5193798449612,4,1,0,75,0,1
34810,-78.125,4,1,0,75,0,1
34889,-78.7401574803149,4,1,0,75,0,1
34968,-79.3650793650794,4,1,0,75,0,1
35047,-80,4,1,0,75,0,1
35126,-80.6451612903226,4,1,0,75,0,1
35205,-81.3008130081301,4,1,0,75,0,1
35284,-81.9672131147541,4,1,0,75,0,1
35363,-82.6446280991736,4,1,0,75,0,1
35442,-83.3333333333333,4,1,0,75,0,1
35995,-81.6326530612245,4,1,0,75,0,1
36310,-78.4313725490196,4,1,0,75,0,1
36468,-76.9230769230769,4,1,0,75,0,1
36626,-75.4716981132076,4,1,0,75,0,1
36942,-78.125,4,1,0,75,0,1
37021,-78.7401574803149,4,1,0,75,0,1
37100,-79.3650793650794,4,1,0,75,0,1
37179,-80,4,1,0,75,0,1
37258,-80.6451612903226,4,1,0,75,0,1
37337,-81.3008130081301,4,1,0,75,0,1
37416,-81.9672131147541,4,1,0,75,0,1
37495,-82.6446280991736,4,1,0,75,0,1
37574,-83.3333333333333,4,1,0,75,0,1
37653,-84.0336134453781,4,1,0,75,0,1
37731,-84.7457627118644,4,1,0,75,0,1
37810,-85.4700854700855,4,1,0,75,0,1
37889,-86.2068965517241,4,1,0,75,0,1
37968,-86.9565217391304,4,1,0,75,0,1
41995,-89.2857142857143,4,1,0,75,0,1
42153,-91.743119266055,4,1,0,75,0,1
42310,-94.3396226415094,4,1,0,75,0,1
42468,-97.0873786407767,4,1,0,75,0,1
42547,-98.5221674876847,4,1,0,75,0,1
42626,-100,4,1,0,75,0,1
42705,-101.522842639594,4,1,0,75,0,1
42784,-103.092783505155,4,1,0,75,0,1
42863,-104.712041884817,4,1,0,75,0,1
42942,-106.382978723404,4,1,0,75,0,1
43021,-108.695652173913,4,1,0,75,0,1
43100,-111.111111111111,4,1,0,75,0,0
52100,-109.58904109589,4,1,0,75,0,0
52258,-108.108108108108,4,1,0,75,0,0
52416,-106.666666666667,4,1,0,75,0,0
52574,-105.263157894737,4,1,0,75,0,0
52731,-103.896103896104,4,1,0,75,0,0
52889,-102.564102564103,4,1,0,75,0,0
53047,-101.26582278481,4,1,0,75,0,0
53205,-100,4,1,0,75,0,0
53521,-97.5609756097561,4,1,0,75,0,0
53679,-96.3855421686747,4,1,0,75,0,0
53837,-95.2380952380952,4,1,0,75,0,0
53995,-94.1176470588235,4,1,0,75,0,0
54153,-93.0232558139535,4,1,0,75,0,0
54310,-91.9540229885057,4,1,0,75,0,0
54468,-90.9090909090909,4,1,0,75,0,0
54626,-91.9540229885057,4,1,0,75,0,0
54942,-94.1176470588235,4,1,0,75,0,0
55258,-96.3855421686747,4,1,0,75,0,0
55416,-97.5609756097561,4,1,0,75,0,0
55574,-98.7654320987654,4,1,0,75,0,0
55731,-100,4,1,0,75,0,0
56047,-97.5609756097561,4,1,0,75,0,0
56205,-96.3855421686747,4,1,0,75,0,0
56521,-94.1176470588235,4,1,0,75,0,0
56679,-93.0232558139535,4,1,0,75,0,0
56837,-91.9540229885057,4,1,0,75,0,0
56995,-90.9090909090909,4,1,0,75,0,0
57153,-91.9540229885057,4,1,0,75,0,0
57310,-93.0232558139535,4,1,0,75,0,0
57468,-94.1176470588235,4,1,0,75,0,0
57626,-95.2380952380952,4,1,0,75,0,0
57784,-96.3855421686747,4,1,0,75,0,0
57942,-97.5609756097561,4,1,0,75,0,0
58100,-98.7654320987654,4,1,0,75,0,0
58179,-99.3788819875776,4,1,0,75,0,0
58258,-100,4,1,0,75,0,0
58574,-97.5609756097561,4,1,0,75,0,0
58731,-96.3855421686747,4,1,0,75,0,0
59047,-94.1176470588235,4,1,0,75,0,0
59205,-93.0232558139535,4,1,0,75,0,0
59363,-91.9540229885057,4,1,0,75,0,0
59521,-90.9090909090909,4,1,0,75,0,0
59837,-93.0232558139535,4,1,0,75,0,0
59995,-94.1176470588235,4,1,0,75,0,0
60153,-95.2380952380952,4,1,0,75,0,0
60310,-96.3855421686747,4,1,0,75,0,0
60468,-97.5609756097561,4,1,0,75,0,0
60626,-98.7654320987654,4,1,0,75,0,0
60784,-100,4,1,0,75,0,0
61258,-96.3855421686747,4,1,0,75,0,0
61731,-93.0232558139535,4,1,0,75,0,0
61889,-91.9540229885057,4,1,0,75,0,0
62047,-90.9090909090909,4,1,0,75,0,0
62363,-88.8888888888889,4,1,0,75,0,0
62521,-87.9120879120879,4,1,0,75,0,0
62837,-86.0215053763441,4,1,0,75,0,0
62995,-88.4955752212389,4,1,0,75,0,0
63074,-90.0900900900901,4,1,0,75,0,0
63153,-91.743119266055,4,1,0,75,0,0
63231,-93.4579439252336,4,1,0,75,0,0
63310,-95.2380952380952,4,1,0,75,0,0
72310,-93.0232558139535,4,1,0,75,0,0
72468,-90.9090909090909,4,1,0,75,0,0
72626,-88.8888888888889,4,1,0,75,0,0
72705,-87.9120879120879,4,1,0,75,0,0
72784,-86.9565217391304,4,1,0,75,0,0
72942,-85.1063829787234,4,1,0,75,0,0
73100,-83.3333333333333,4,1,0,75,0,0
73179,-82.4742268041237,4,1,0,75,0,0
73258,-81.6326530612245,4,1,0,75,0,0
73337,-80.8080808080808,4,1,0,75,0,0
73416,-80,4,1,0,75,0,0
73653,-95.2380952380952,4,1,0,75,0,0
76100,-93.0232558139535,4,1,0,75,0,0
76179,-91.9540229885057,4,1,0,75,0,0
76258,-90.9090909090909,4,1,0,75,0,0
76416,-88.8888888888889,4,1,0,75,0,0
76495,-87.9120879120879,4,1,0,75,0,0
76574,-86.9565217391304,4,1,0,75,0,0
76731,-85.1063829787234,4,1,0,75,0,0
76889,-83.3333333333333,4,1,0,75,0,0
76968,-82.4742268041237,4,1,0,75,0,0
77047,-81.6326530612245,4,1,0,75,0,0
77126,-80.8080808080808,4,1,0,75,0,0
77205,-80,4,1,0,75,0,0
77442,-78.4313725490196,4,1,0,75,0,0
77679,-76.9230769230769,4,1,0,75,0,0
77916,-75.4716981132076,4,1,0,75,0,0
78153,-74.0740740740741,4,1,0,75,0,0
78389,-72.7272727272727,4,1,0,75,0,0
78784,-83.3333333333333,4,1,0,75,0,0
79100,-95.2380952380952,4,1,0,75,0,0
82495,-93.4579439252336,4,1,0,75,0,0
82574,-91.743119266055,4,1,0,75,0,0
82653,-90.0900900900901,4,1,0,75,0,0
82731,-88.4955752212389,4,1,0,75,0,0
82810,-86.9565217391304,4,1,0,75,0,0
82889,-85.4700854700855,4,1,0,75,0,0
82968,-84.0336134453781,4,1,0,75,0,0
83047,-82.6446280991736,4,1,0,75,0,0
83126,-81.3008130081301,4,1,0,75,0,0
83205,-80,4,1,0,75,0,0
83284,-78.7401574803149,4,1,0,75,0,0
83363,-77.5193798449612,4,1,0,75,0,0
83442,-76.3358778625954,4,1,0,75,0,0
83521,-75.187969924812,4,1,0,75,0,0
83679,-76.9230769230769,4,1,0,75,0,0
83837,-78.7401574803149,4,1,0,75,0,0
83995,-80.6451612903226,4,1,0,75,0,0
84153,-82.6446280991736,4,1,0,75,0,0
84310,-84.7457627118644,4,1,0,75,0,0
84468,-86.9565217391304,4,1,0,75,0,0
84626,-89.2857142857143,4,1,0,75,0,0
84784,-91.743119266055,4,1,0,75,0,0
84942,-94.3396226415094,4,1,0,75,0,0
85100,-97.0873786407767,4,1,0,75,0,0
85258,-100,4,1,0,75,0,0
85416,-103.092783505155,4,1,0,75,0,0
85574,-106.382978723404,4,1,0,75,0,0
85731,-109.89010989011,4,1,0,75,0,0
85889,-113.636363636364,4,1,0,75,0,0
86047,-117.647058823529,4,1,0,75,0,0
92521,-114.942528735632,4,1,0,75,0,0
92679,-112.359550561798,4,1,0,75,0,0
92837,-109.89010989011,4,1,0,75,0,0
92995,-107.52688172043,4,1,0,75,0,0
93153,-105.263157894737,4,1,0,75,0,0
93310,-103.092783505155,4,1,0,75,0,0
93468,-101.522842639594,4,1,0,75,0,0
93626,-100,4,1,0,75,0,0
94889,-90.9090909090909,4,1,0,75,0,0
95047,-91.9540229885057,4,1,0,75,0,0
95205,-93.0232558139535,4,1,0,75,0,0
95363,-94.1176470588235,4,1,0,75,0,0
95521,-95.2380952380952,4,1,0,75,0,0
95600,-95.8083832335329,4,1,0,75,0,0
95679,-96.3855421686747,4,1,0,75,0,0
95758,-96.969696969697,4,1,0,75,0,0
95837,-97.5609756097561,4,1,0,75,0,0
95916,-98.159509202454,4,1,0,75,0,0
95995,-98.7654320987654,4,1,0,75,0,0
96074,-99.3788819875776,4,1,0,75,0,0
96153,-100,4,1,0,75,0,0
97416,-90.9090909090909,4,1,0,75,0,0
97574,-91.9540229885057,4,1,0,75,0,0
97732,-93.0232558139535,4,1,0,75,0,0
97889,-94.1176470588235,4,1,0,75,0,0
97968,-94.6745562130178,4,1,0,75,0,0
98048,-95.2380952380952,4,1,0,75,0,0
98127,-95.8083832335329,4,1,0,75,0,0
98206,-96.3855421686747,4,1,0,75,0,0
98285,-96.969696969697,4,1,0,75,0,0
98364,-97.5609756097561,4,1,0,75,0,0
98443,-98.159509202454,4,1,0,75,0,0
98522,-98.7654320987654,4,1,0,75,0,0
98601,-99.3788819875776,4,1,0,75,0,0
98680,-100,4,1,0,75,0,0
99942,-90.9090909090909,4,1,0,75,0,0
100100,-91.9540229885057,4,1,0,75,0,0
100258,-93.0232558139535,4,1,0,75,0,0
100416,-94.1176470588235,4,1,0,75,0,0
100574,-95.2380952380952,4,1,0,75,0,0
100731,-96.3855421686747,4,1,0,75,0,0
100889,-97.5609756097561,4,1,0,75,0,0
101047,-98.7654320987654,4,1,0,75,0,0
101205,-100,4,1,0,75,0,0
101363,-98.0392156862745,4,1,0,75,0,0
101442,-97.0873786407767,4,1,0,75,0,0
101521,-96.1538461538461,4,1,0,75,0,0
101679,-94.3396226415094,4,1,0,75,0,0
101837,-92.5925925925926,4,1,0,75,0,0
101995,-90.9090909090909,4,1,0,75,0,0
102074,-90.0900900900901,4,1,0,75,0,0
102153,-89.2857142857143,4,1,0,75,0,0
102310,-87.719298245614,4,1,0,75,0,0
102468,-86.2068965517241,4,1,0,75,0,0
102626,-84.7457627118644,4,1,0,75,0,0
102784,-83.3333333333333,4,1,0,75,0,0
102942,-81.9672131147541,4,1,0,75,0,0
103100,-80.6451612903226,4,1,0,75,0,0
103179,-80,4,1,0,75,0,0
103258,-79.3650793650794,4,1,0,75,0,0
103337,-78.7401574803149,4,1,0,75,0,0
103416,-78.125,4,1,0,75,0,0
103495,-77.5193798449612,4,1,0,75,0,0
103574,-76.9230769230769,4,1,0,75,0,0
103653,-76.3358778625954,4,1,0,75,0,0
103731,-66.6666666666667,4,1,0,75,0,0
104047,-83.3333333333333,4,1,0,75,0,1
104205,-86.9565217391304,4,1,0,75,0,1
113284,-86.2068965517241,4,1,0,75,0,1
113363,-85.4700854700855,4,1,0,75,0,1
113442,-84.7457627118644,4,1,0,75,0,1
113521,-84.0336134453781,4,1,0,75,0,1
113600,-83.3333333333333,4,1,0,75,0,1
113679,-82.6446280991736,4,1,0,75,0,1
113758,-81.9672131147541,4,1,0,75,0,1
113837,-80,4,1,0,75,0,0
114153,-80,4,1,0,75,0,1
114310,-86.9565217391304,4,1,0,75,0,1
123231,-86.2068965517241,4,1,0,75,0,1
123310,-85.4700854700855,4,1,0,75,0,1
123389,-84.7457627118644,4,1,0,75,0,1
123468,-84.0336134453781,4,1,0,75,0,1
123547,-83.3333333333333,4,1,0,75,0,1
123626,-82.6446280991736,4,1,0,75,0,1
123705,-81.9672131147541,4,1,0,75,0,1
123784,-81.3008130081301,4,1,0,75,0,1
123863,-80.6451612903226,4,1,0,75,0,1
123942,-80,4,1,0,75,0,1
124100,-86.9565217391304,4,1,0,75,0,1
133337,-86.2068965517241,4,1,0,75,0,1
133416,-85.4700854700855,4,1,0,75,0,1
133495,-84.7457627118644,4,1,0,75,0,1
133574,-84.0336134453781,4,1,0,75,0,1
133653,-83.3333333333333,4,1,0,75,0,1
133732,-82.6446280991736,4,1,0,75,0,1
133811,-81.9672131147541,4,1,0,75,0,1
133890,-81.3008130081301,4,1,0,75,0,1
133969,-80.6451612903226,4,1,0,75,0,1
134048,-80,4,1,0,75,0,1
134205,-86.9565217391304,4,1,0,75,0,1
143126,-86.2068965517241,4,1,0,75,0,1
143205,-85.4700854700855,4,1,0,75,0,1
143284,-84.7457627118644,4,1,0,75,0,1
143363,-84.0336134453781,4,1,0,75,0,1
143442,-83.3333333333333,4,1,0,75,0,1
143521,-81.9672131147541,4,1,0,75,0,1
143600,-80.6451612903226,4,1,0,75,0,1
143679,-79.3650793650794,4,1,0,75,0,1
143758,-78.125,4,1,0,75,0,1
143837,-76.9230769230769,4,1,0,75,0,1
143916,-75.187969924812,4,1,0,75,0,1
143995,-73.5294117647059,4,1,0,75,0,1
144074,-71.9424460431655,4,1,0,75,0,1
144153,-100,4,1,0,75,0,0

[HitObjects]
256,192,153,5,2,0:0:0:0:
256,192,468,1,0,0:0:0:0:
256,192,784,1,2,0:0:0:0:
256,192,1100,1,2,0:0:0:0:
256,192,1416,1,0,0:0:0:0:
256,192,1731,1,0,0:0:0:0:
256,192,2047,1,2,0:0:0:0:
256,192,2363,1,2,0:0:0:0:
256,192,2679,1,2,0:0:0:0:
256,192,2995,1,0,0:0:0:0:
256,192,3310,1,2,0:0:0:0:
256,192,3626,1,0,0:0:0:0:
256,192,3942,1,2,0:0:0:0:
256,192,4258,1,2,0:0:0:0:
256,192,4574,1,0,0:0:0:0:
256,192,4889,1,0,0:0:0:0:
256,192,5205,1,0,0:0:0:0:
256,192,5521,1,2,0:0:0:0:
256,192,5837,1,0,0:0:0:0:
256,192,6153,1,2,0:0:0:0:
256,192,6310,1,0,0:0:0:0:
256,192,6468,1,0,0:0:0:0:
256,192,6784,1,0,0:0:0:0:
256,192,7100,1,2,0:0:0:0:
256,192,7416,1,0,0:0:0:0:
256,192,7574,1,2,0:0:0:0:
256,192,7731,1,0,0:0:0:0:
256,192,8047,1,0,0:0:0:0:
256,192,8363,1,2,0:0:0:0:
256,192,8679,1,0,0:0:0:0:
256,192,8995,1,2,0:0:0:0:
256,192,9310,1,0,0:0:0:0:
256,192,9626,1,2,0:0:0:0:
256,192,9942,1,0,0:0:0:0:
256,192,10258,1,0,0:0:0:0:
256,192,10574,1,0,0:0:0:0:
256,192,10731,1,2,0:0:0:0:
256,192,11047,1,0,0:0:0:0:
256,192,11205,1,2,0:0:0:0:
256,192,11521,1,0,0:0:0:0:
256,192,11679,1,2,0:0:0:0:
256,192,11837,1,0,0:0:0:0:
256,192,12153,1,2,0:0:0:0:
256,192,12310,1,0,0:0:0:0:
256,192,12468,1,2,0:0:0:0:
256,192,12626,1,0,0:0:0:0:
256,192,12784,1,2,0:0:0:0:
256,192,13100,1,0,0:0:0:0:
256,192,13258,1,2,0:0:0:0:
256,192,13574,1,0,0:0:0:0:
256,192,13731,1,2,0:0:0:0:
256,192,14047,1,0,0:0:0:0:
256,192,14205,1,2,0:0:0:0:
256,192,14363,1,2,0:0:0:0:
256,192,14679,1,2,0:0:0:0:
256,192,14837,1,0,0:0:0:0:
256,192,14995,1,2,0:0:0:0:
256,192,15153,1,0,0:0:0:0:
256,192,15310,5,2,0:0:0:0:
256,192,15784,1,2,0:0:0:0:
256,192,16574,1,0,0:0:0:0:
256,192,17047,1,0,0:0:0:0:
256,192,17837,1,4,0:0:0:0:
256,192,20363,12,0,22416,0:0:0:0:
256,192,22574,5,2,0:0:0:0:
256,192,22653,1,2,0:0:0:0:
256,192,22731,1,2,0:0:0:0:
256,192,22810,1,2,0:0:0:0:
256,192,22889,5,4,0:0:0:0:
256,192,23205,1,2,0:0:0:0:
256,192,23363,1,0,0:0:0:0:
256,192,23521,1,2,0:0:0:0:
256,192,23679,1,0,0:0:0:0:
256,192,23758,1,0,0:0:0:0:
256,192,23837,1,2,0:0:0:0:
256,192,23995,1,0,0:0:0:0:
256,192,24153,1,2,0:0:0:0:
256,192,24310,1,0,0:0:0:0:
256,192,24389,1,2,0:0:0:0:
256,192,24468,1,2,0:0:0:0:
256,192,24626,1,0,0:0:0:0:
256,192,24784,1,2,0:0:0:0:
256,192,24863,1,2,0:0:0:0:
256,192,24942,1,0,0:0:0:0:
256,192,25021,1,2,0:0:0:0:
256,192,25100,1,0,0:0:0:0:
256,192,25258,1,0,0:0:0:0:
256,192,25416,1,2,0:0:0:0:
256,192,25574,1,0,0:0:0:0:
256,192,25653,1,0,0:0:0:0:
256,192,25731,1,2,0:0:0:0:
256,192,25889,1,0,0:0:0:0:
256,192,26047,1,2,0:0:0:0:
256,192,26205,1,0,0:0:0:0:
256,192,26284,1,2,0:0:0:0:
256,192,26442,1,0,0:0:0:0:
256,192,26521,1,2,0:0:0:0:
256,192,26600,1,0,0:0:0:0:
256,192,26679,1,0,0:0:0:0:
256,192,26837,1,2,0:0:0:0:
256,192,26916,1,2,0:0:0:0:
256,192,26995,1,0,0:0:0:0:
256,192,27153,1,0,0:0:0:0:
256,192,27231,1,0,0:0:0:0:
256,192,27310,1,2,0:0:0:0:
256,192,27468,1,0,0:0:0:0:
256,192,27626,1,2,0:0:0:0:
256,192,27784,1,0,0:0:0:0:
256,192,27863,1,0,0:0:0:0:
256,192,27942,1,0,0:0:0:0:
256,192,28258,1,2,0:0:0:0:
256,192,28416,1,0,0:0:0:0:
256,192,28495,1,0,0:0:0:0:
256,192,28574,1,2,0:0:0:0:
256,192,28731,1,0,0:0:0:0:
256,192,28889,1,2,0:0:0:0:
256,192,29047,1,2,0:0:0:0:
256,192,29126,1,0,0:0:0:0:
256,192,29205,1,0,0:0:0:0:
256,192,29363,1,2,0:0:0:0:
256,192,29521,1,0,0:0:0:0:
256,192,29600,1,0,0:0:0:0:
256,192,29679,1,2,0:0:0:0:
256,192,29837,1,0,0:0:0:0:
256,192,29916,1,0,0:0:0:0:
256,192,29995,1,2,0:0:0:0:
256,192,30074,1,0,0:0:0:0:
256,192,30153,1,2,0:0:0:0:
256,192,30310,1,2,0:0:0:0:
256,192,30389,1,2,0:0:0:0:
256,192,30468,1,0,0:0:0:0:
256,192,30626,1,0,0:0:0:0:
256,192,30705,1,0,0:0:0:0:
256,192,30784,1,2,0:0:0:0:
256,192,30942,1,2,0:0:0:0:
256,192,31021,1,0,0:0:0:0:
256,192,31100,1,2,0:0:0:0:
256,192,31179,1,2,0:0:0:0:
256,192,31258,1,0,0:0:0:0:
256,192,31337,1,2,0:0:0:0:
256,192,31416,1,0,0:0:0:0:
256,192,31495,1,2,0:0:0:0:
256,192,31574,1,2,0:0:0:0:
256,192,31653,1,0,0:0:0:0:
256,192,31731,1,2,0:0:0:0:
256,192,31810,1,2,0:0:0:0:
256,192,31889,1,0,0:0:0:0:
256,192,31968,1,0,0:0:0:0:
256,192,32047,1,2,0:0:0:0:
256,192,32126,1,0,0:0:0:0:
256,192,32205,1,2,0:0:0:0:
256,192,32284,1,2,0:0:0:0:
256,192,32363,1,0,0:0:0:0:
256,192,32521,1,2,0:0:0:0:
256,192,32679,1,0,0:0:0:0:
256,192,32837,1,0,0:0:0:0:
256,192,32995,1,4,0:0:0:0:
256,192,33153,1,2,0:0:0:0:
256,192,33231,1,2,0:0:0:0:
256,192,33310,1,0,0:0:0:0:
256,192,33468,1,6,0:0:0:0:
256,192,33784,1,6,0:0:0:0:
256,192,33942,1,2,0:0:0:0:
256,192,34100,1,4,0:0:0:0:
256,192,34416,1,2,0:0:0:0:
256,192,34495,1,0,0:0:0:0:
256,192,34574,1,2,0:0:0:0:
256,192,34653,1,2,0:0:0:0:
256,192,34731,1,0,0:0:0:0:
256,192,34810,1,0,0:0:0:0:
256,192,34889,1,2,0:0:0:0:
256,192,34968,1,2,0:0:0:0:
256,192,35047,1,0,0:0:0:0:
256,192,35126,1,0,0:0:0:0:
256,192,35205,1,2,0:0:0:0:
256,192,35284,1,0,0:0:0:0:
256,192,35363,1,0,0:0:0:0:
256,192,35442,1,2,0:0:0:0:
256,192,35521,1,4,0:0:0:0:
256,192,35758,1,0,0:0:0:0:
256,192,35837,1,2,0:0:0:0:
256,192,35995,1,6,0:0:0:0:
256,192,36310,1,6,0:0:0:0:
256,192,36468,1,0,0:0:0:0:
256,192,36626,1,4,0:0:0:0:
256,192,36942,1,0,0:0:0:0:
256,192,37021,1,2,0:0:0:0:
256,192,37100,1,2,0:0:0:0:
256,192,37179,1,0,0:0:0:0:
256,192,37258,1,0,0:0:0:0:
256,192,37337,1,0,0:0:0:0:
256,192,37416,1,2,0:0:0:0:
256,192,37495,1,2,0:0:0:0:
256,192,37574,1,0,0:0:0:0:
256,192,37653,1,0,0:0:0:0:
256,192,37731,1,2,0:0:0:0:
256,192,37810,1,0,0:0:0:0:
256,192,37889,1,2,0:0:0:0:
256,192,37968,1,2,0:0:0:0:
256,192,38047,1,4,0:0:0:0:
256,192,38205,1,0,0:0:0:0:
256,192,38284,1,0,0:0:0:0:
256,192,38363,1,2,0:0:0:0:
256,192,38442,1,2,0:0:0:0:
256,192,38521,1,0,0:0:0:0:
256,192,38679,1,2,0:0:0:0:
256,192,38837,1,0,0:0:0:0:
256,192,38916,1,0,0:0:0:0:
256,192,38995,1,2,0:0:0:0:
256,192,39153,1,0,0:0:0:0:
256,192,39468,1,0,0:0:0:0:
256,192,39547,1,0,0:0:0:0:
256,192,39626,1,2,0:0:0:0:
256,192,39705,1,2,0:0:0:0:
256,192,39784,1,0,0:0:0:0:
256,192,39942,1,2,0:0:0:0:
256,192,40021,1,0,0:0:0:0:
256,192,40100,1,2,0:0:0:0:
256,192,40179,1,2,0:0:0:0:
256,192,40258,1,0,0:0:0:0:
256,192,40416,1,2,0:0:0:0:
256,192,40495,1,0,0:0:0:0:
256,192,40574,1,0,0:0:0:0:
256,192,40731,1,0,0:0:0:0:
256,192,40810,1,2,0:0:0:0:
256,192,40889,1,0,0:0:0:0:
256,192,40968,1,0,0:0:0:0:
256,192,41047,1,2,0:0:0:0:
256,192,41126,1,2,0:0:0:0:
256,192,41205,1,0,0:0:0:0:
256,192,41363,1,0,0:0:0:0:
256,192,41442,1,2,0:0:0:0:
256,192,41600,1,0,0:0:0:0:
256,192,41679,1,2,0:0:0:0:
256,192,41758,1,0,0:0:0:0:
256,192,41837,1,0,0:0:0:0:
256,192,41995,1,0,0:0:0:0:
256,192,42153,1,2,0:0:0:0:
256,192,42310,1,0,0:0:0:0:
256,192,42468,1,2,0:0:0:0:
256,192,42547,1,2,0:0:0:0:
256,192,42626,1,0,0:0:0:0:
256,192,42705,1,0,0:0:0:0:
256,192,42784,1,2,0:0:0:0:
256,192,42863,1,2,0:0:0:0:
256,192,42942,1,2,0:0:0:0:
256,192,43021,1,2,0:0:0:0:
256,192,43100,1,4,0:0:0:0:
256,192,43731,1,2,0:0:0:0:
256,192,44047,1,0,0:0:0:0:
256,192,44205,1,2,0:0:0:0:
256,192,44363,1,0,0:0:0:0:
256,192,44679,1,0,0:0:0:0:
256,192,44995,1,2,0:0:0:0:
256,192,45310,1,2,0:0:0:0:
256,192,45626,1,2,0:0:0:0:
256,192,45784,1,0,0:0:0:0:
256,192,45942,1,2,0:0:0:0:
256,192,46100,1,0,0:0:0:0:
256,192,46258,1,2,0:0:0:0:
256,192,46416,1,2,0:0:0:0:
256,192,46574,1,0,0:0:0:0:
256,192,46731,1,0,0:0:0:0:
256,192,46889,1,0,0:0:0:0:
256,192,47047,1,2,0:0:0:0:
256,192,47205,1,2,0:0:0:0:
256,192,47363,1,0,0:0:0:0:
256,192,47521,1,2,0:0:0:0:
256,192,47679,1,2,0:0:0:0:
256,192,47837,1,0,0:0:0:0:
256,192,47995,1,2,0:0:0:0:
256,192,48153,1,0,0:0:0:0:
256,192,48468,1,2,0:0:0:0:
256,192,48626,1,0,0:0:0:0:
256,192,48784,1,2,0:0:0:0:
256,192,48942,1,0,0:0:0:0:
256,192,49100,1,0,0:0:0:0:
256,192,49258,1,2,0:0:0:0:
256,192,49416,1,0,0:0:0:0:
256,192,49574,1,0,0:0:0:0:
256,192,49731,1,2,0:0:0:0:
256,192,49889,1,0,0:0:0:0:
256,192,50047,1,2,0:0:0:0:
256,192,50205,1,0,0:0:0:0:
256,192,50363,1,2,0:0:0:0:
256,192,50521,1,0,0:0:0:0:
256,192,50679,1,0,0:0:0:0:
256,192,50837,1,0,0:0:0:0:
256,192,50995,1,2,0:0:0:0:
256,192,51153,1,0,0:0:0:0:
256,192,51310,1,2,0:0:0:0:
256,192,51468,1,0,0:0:0:0:
256,192,51626,1,2,0:0:0:0:
256,192,51784,1,2,0:0:0:0:
256,192,51942,1,2,0:0:0:0:
256,192,52100,1,0,0:0:0:0:
256,192,52258,1,2,0:0:0:0:
256,192,52416,1,0,0:0:0:0:
256,192,52574,1,2,0:0:0:0:
256,192,52731,1,2,0:0:0:0:
256,192,52889,1,0,0:0:0:0:
256,192,53047,1,0,0:0:0:0:
256,192,53205,1,0,0:0:0:0:
256,192,53521,1,2,0:0:0:0:
256,192,53679,1,0,0:0:0:0:
256,192,53837,1,0,0:0:0:0:
256,192,53995,1,2,0:0:0:0:
256,192,54153,1,2,0:0:0:0:
256,192,54310,1,0,0:0:0:0:
256,192,54468,1,6,0:0:0:0:
256,192,54626,1,0,0:0:0:0:
256,192,54942,1,0,0:0:0:0:
256,192,55258,1,2,0:0:0:0:
256,192,55416,1,0,0:0:0:0:
256,192,55574,1,2,0:0:0:0:
256,192,55731,1,0,0:0:0:0:
256,192,56047,1,2,0:0:0:0:
256,192,56205,1,0,0:0:0:0:
256,192,56521,1,2,0:0:0:0:
256,192,56679,1,0,0:0:0:0:
256,192,56837,1,0,0:0:0:0:
256,192,56995,1,6,0:0:0:0:
256,192,57153,1,2,0:0:0:0:
256,192,57310,1,0,0:0:0:0:
256,192,57468,1,2,0:0:0:0:
256,192,57626,1,0,0:0:0:0:
256,192,57784,1,2,0:0:0:0:
256,192,57942,1,2,0:0:0:0:
256,192,58100,1,0,0:0:0:0:
256,192,58179,1,0,0:0:0:0:
256,192,58258,1,0,0:0:0:0:
256,192,58574,1,0,0:0:0:0:
256,192,58731,1,0,0:0:0:0:
256,192,59047,1,2,0:0:0:0:
256,192,59205,1,0,0:0:0:0:
256,192,59363,1,0,0:0:0:0:
256,192,59521,1,6,0:0:0:0:
256,192,59837,1,2,0:0:0:0:
256,192,59995,1,0,0:0:0:0:
256,192,60153,1,2,0:0:0:0:
256,192,60310,1,2,0:0:0:0:
256,192,60468,1,0,0:0:0:0:
256,192,60626,1,2,0:0:0:0:
256,192,60784,1,0,0:0:0:0:
256,192,61258,1,0,0:0:0:0:
256,192,61731,1,6,0:0:0:0:
256,192,61889,1,0,0:0:0:0:
256,192,62047,1,0,0:0:0:0:
256,192,62363,1,2,0:0:0:0:
256,192,62521,1,0,0:0:0:0:
256,192,62837,1,6,0:0:0:0:
256,192,62995,1,0,0:0:0:0:
256,192,63074,1,0,0:0:0:0:
256,192,63153,1,0,0:0:0:0:
256,192,63231,1,0,0:0:0:0:
256,192,63310,1,4,0:0:0:0:
256,192,63547,1,2,0:0:0:0:
256,192,63626,1,0,0:0:0:0:
256,192,63784,1,0,0:0:0:0:
256,192,64021,1,0,0:0:0:0:
256,192,64100,1,2,0:0:0:0:
256,192,64258,1,0,0:0:0:0:
256,192,64337,1,0,0:0:0:0:
256,192,64416,1,2,0:0:0:0:
256,192,64495,1,2,0:0:0:0:
256,192,64574,1,0,0:0:0:0:
256,192,64810,1,2,0:0:0:0:
256,192,64889,1,0,0:0:0:0:
256,192,65047,1,0,0:0:0:0:
256,192,65284,1,0,0:0:0:0:
256,192,65363,1,2,0:0:0:0:
256,192,65521,1,0,0:0:0:0:
256,192,65600,1,2,0:0:0:0:
256,192,65679,1,2,0:0:0:0:
256,192,65758,1,2,0:0:0:0:
256,192,65837,1,0,0:0:0:0:
256,192,65995,1,2,0:0:0:0:
256,192,66074,1,2,0:0:0:0:
256,192,66153,1,0,0:0:0:0:
256,192,66310,1,0,0:0:0:0:
256,192,66547,1,0,0:0:0:0:
256,192,66626,1,2,0:0:0:0:
256,192,66784,1,2,0:0:0:0:
256,192,66863,1,0,0:0:0:0:
256,192,66942,1,2,0:0:0:0:
256,192,67021,1,2,0:0:0:0:
256,192,67100,1,0,0:0:0:0:
256,192,67258,1,0,0:0:0:0:
256,192,67337,1,0,0:0:0:0:
256,192,67416,1,2,0:0:0:0:
256,192,67574,1,0,0:0:0:0:
256,192,67731,1,2,0:0:0:0:
256,192,67810,1,0,0:0:0:0:
256,192,67889,1,2,0:0:0:0:
256,192,67968,1,2,0:0:0:0:
256,192,68047,1,0,0:0:0:0:
256,192,68126,1,2,0:0:0:0:
256,192,68205,1,2,0:0:0:0:
256,192,68284,1,0,0:0:0:0:
256,192,68363,1,0,0:0:0:0:
256,192,68600,1,2,0:0:0:0:
256,192,68679,1,0,0:0:0:0:
256,192,68837,1,0,0:0:0:0:
256,192,69074,1,0,0:0:0:0:
256,192,69153,1,2,0:0:0:0:
256,192,69310,1,0,0:0:0:0:
256,192,69389,1,0,0:0:0:0:
256,192,69468,1,2,0:0:0:0:
256,192,69547,1,2,0:0:0:0:
256,192,69626,1,0,0:0:0:0:
256,192,69863,1,2,0:0:0:0:
256,192,69942,1,0,0:0:0:0:
256,192,70100,1,0,0:0:0:0:
256,192,70337,1,0,0:0:0:0:
256,192,70416,1,2,0:0:0:0:
256,192,70574,1,0,0:0:0:0:
256,192,70653,1,2,0:0:0:0:
256,192,70731,1,2,0:0:0:0:
256,192,70810,1,0,0:0:0:0:
256,192,70890,1,0,0:0:0:0:
256,192,71047,1,0,0:0:0:0:
256,192,71126,1,2,0:0:0:0:
256,192,71205,1,2,0:0:0:0:
256,192,71363,1,0,0:0:0:0:
256,192,71600,1,0,0:0:0:0:
256,192,71679,1,0,0:0:0:0:
256,192,71837,1,2,0:0:0:0:
256,192,71916,1,0,0:0:0:0:
256,192,71995,1,0,0:0:0:0:
256,192,72074,1,2,0:0:0:0:
256,192,72153,1,0,0:0:0:0:
256,192,72310,1,0,0:0:0:0:
256,192,72468,1,2,0:0:0:0:
256,192,72626,1,0,0:0:0:0:
256,192,72705,1,0,0:0:0:0:
256,192,72784,1,0,0:0:0:0:
256,192,72942,1,2,0:0:0:0:
256,192,73100,1,2,0:0:0:0:
256,192,73179,1,2,0:0:0:0:
256,192,73258,1,0,0:0:0:0:
256,192,73337,1,2,0:0:0:0:
256,192,73416,1,4,0:0:0:0:
256,192,73653,1,2,0:0:0:0:
256,192,73731,1,0,0:0:0:0:
256,192,73889,1,0,0:0:0:0:
256,192,73968,1,2,0:0:0:0:
256,192,74126,1,0,0:0:0:0:
256,192,74205,1,0,0:0:0:0:
256,192,74363,1,2,0:0:0:0:
256,192,74442,1,0,0:0:0:0:
256,192,74521,1,0,0:0:0:0:
256,192,74600,1,2,0:0:0:0:
256,192,74679,1,0,0:0:0:0:
256,192,74916,1,2,0:0:0:0:
256,192,74995,1,0,0:0:0:0:
256,192,75153,1,0,0:0:0:0:
256,192,75231,1,2,0:0:0:0:
256,192,75389,1,0,0:0:0:0:
256,192,75468,1,0,0:0:0:0:
256,192,75626,1,2,0:0:0:0:
256,192,75705,1,2,0:0:0:0:
256,192,75784,1,0,0:0:0:0:
256,192,75863,1,2,0:0:0:0:
256,192,75942,1,0,0:0:0:0:
256,192,76100,1,2,0:0:0:0:
256,192,76179,1,2,0:0:0:0:
256,192,76258,1,0,0:0:0:0:
256,192,76416,1,0,0:0:0:0:
256,192,76495,1,0,0:0:0:0:
256,192,76574,1,2,0:0:0:0:
256,192,76731,1,2,0:0:0:0:
256,192,76889,1,0,0:0:0:0:
256,192,76968,1,0,0:0:0:0:
256,192,77047,1,2,0:0:0:0:
256,192,77126,1,0,0:0:0:0:
256,192,77205,1,6,0:0:0:0:
256,192,77442,1,6,0:0:0:0:
256,192,77679,1,4,0:0:0:0:
256,192,77916,1,6,0:0:0:0:
256,192,78153,1,6,0:0:0:0:
256,192,78389,1,4,0:0:0:0:
256,192,78784,1,6,0:0:0:0:
256,192,79100,1,2,0:0:0:0:
256,192,79179,1,2,0:0:0:0:
256,192,79258,1,0,0:0:0:0:
256,192,79416,1,2,0:0:0:0:
256,192,79574,1,0,0:0:0:0:
256,192,79731,1,2,0:0:0:0:
256,192,79889,1,0,0:0:0:0:
256,192,79968,1,2,0:0:0:0:
256,192,80047,1,0,0:0:0:0:
256,192,80205,1,2,0:0:0:0:
256,192,80363,1,2,0:0:0:0:
256,192,80442,1,0,0:0:0:0:
256,192,80521,1,2,0:0:0:0:
256,192,80600,1,2,0:0:0:0:
256,192,80679,1,0,0:0:0:0:
256,192,80758,1,0,0:0:0:0:
256,192,80837,1,2,0:0:0:0:
256,192,80916,1,2,0:0:0:0:
256,192,80995,1,0,0:0:0:0:
256,192,81153,1,0,0:0:0:0:
256,192,81231,1,2,0:0:0:0:
256,192,81310,1,2,0:0:0:0:
256,192,81389,1,0,0:0:0:0:
256,192,81468,1,0,0:0:0:0:
256,192,81547,1,2,0:0:0:0:
256,192,81626,1,0,0:0:0:0:
256,192,81705,1,0,0:0:0:0:
256,192,81784,1,2,0:0:0:0:
256,192,81863,1,2,0:0:0:0:
256,192,81942,1,0,0:0:0:0:
256,192,82021,1,2,0:0:0:0:
256,192,82100,1,2,0:0:0:0:
256,192,82179,1,2,0:0:0:0:
256,192,82258,1,0,0:0:0:0:
256,192,82416,1,0,0:0:0:0:
256,192,82495,1,0,0:0:0:0:
256,192,82574,1,2,0:0:0:0:
256,192,82653,1,0,0:0:0:0:
256,192,82731,1,2,0:0:0:0:
256,192,82810,1,2,0:0:0:0:
256,192,82889,1,2,0:0:0:0:
256,192,82968,1,0,0:0:0:0:
256,192,83047,1,0,0:0:0:0:
256,192,83126,1,2,0:0:0:0:
256,192,83205,1,0,0:0:0:0:
256,192,83284,1,2,0:0:0:0:
256,192,83363,1,2,0:0:0:0:
256,192,83442,1,2,0:0:0:0:
256,192,83521,1,4,0:0:0:0:
256,192,83679,1,0,0:0:0:0:
256,192,83837,1,2,0:0:0:0:
256,192,83995,1,0,0:0:0:0:
256,192,84153,1,2,0:0:0:0:
256,192,84310,1,0,0:0:0:0:
256,192,84468,1,2,0:0:0:0:
256,192,84626,1,0,0:0:0:0:
256,192,84784,1,2,0:0:0:0:
256,192,84942,1,0,0:0:0:0:
256,192,85100,1,2,0:0:0:0:
256,192,85258,1,2,0:0:0:0:
256,192,85416,1,2,0:0:0:0:
256,192,85574,1,0,0:0:0:0:
256,192,85731,1,0,0:0:0:0:
256,192,85889,1,0,0:0:0:0:
256,192,86047,1,2,0:0:0:0:
256,192,86205,1,0,0:0:0:0:
256,192,86363,1,2,0:0:0:0:
256,192,86521,1,0,0:0:0:0:
256,192,86679,1,2,0:0:0:0:
256,192,86837,1,2,0:0:0:0:
256,192,86995,1,0,0:0:0:0:
256,192,87153,1,0,0:0:0:0:
256,192,87310,1,2,0:0:0:0:
256,192,87468,1,0,0:0:0:0:
256,192,87626,1,0,0:0:0:0:
256,192,87784,1,0,0:0:0:0:
256,192,87942,1,2,0:0:0:0:
256,192,88100,1,0,0:0:0:0:
256,192,88258,1,2,0:0:0:0:
256,192,88416,1,2,0:0:0:0:
256,192,88574,1,2,0:0:0:0:
256,192,88731,1,0,0:0:0:0:
256,192,88889,1,2,0:0:0:0:
256,192,89047,1,0,0:0:0:0:
256,192,89205,1,2,0:0:0:0:
256,192,89363,1,0,0:0:0:0:
256,192,89521,1,0,0:0:0:0:
256,192,89679,1,2,0:0:0:0:
256,192,89837,1,0,0:0:0:0:
256,192,89995,1,0,0:0:0:0:
256,192,90153,1,2,0:0:0:0:
256,192,90310,1,0,0:0:0:0:
256,192,90468,1,2,0:0:0:0:
256,192,90626,1,0,0:0:0:0:
256,192,90784,1,2,0:0:0:0:
256,192,90942,1,2,0:0:0:0:
256,192,91100,1,2,0:0:0:0:
256,192,91258,1,0,0:0:0:0:
256,192,91416,1,2,0:0:0:0:
256,192,91574,1,0,0:0:0:0:
256,192,91731,1,2,0:0:0:0:
256,192,91810,1,2,0:0:0:0:
256,192,91889,1,0,0:0:0:0:
256,192,91968,1,0,0:0:0:0:
256,192,92047,1,2,0:0:0:0:
256,192,92126,1,0,0:0:0:0:
256,192,92205,1,0,0:0:0:0:
256,192,92284,1,0,0:0:0:0:
256,192,92363,1,0,0:0:0:0:
256,192,92521,1,0,0:0:0:0:
256,192,92679,1,2,0:0:0:0:
256,192,92837,1,0,0:0:0:0:
256,192,92995,1,0,0:0:0:0:
256,192,93153,1,2,0:0:0:0:
256,192,93310,1,2,0:0:0:0:
256,192,93468,1,0,0:0:0:0:
256,192,93626,1,4,0:0:0:0:
256,192,93942,1,0,0:0:0:0:
256,192,94100,1,0,0:0:0:0:
256,192,94258,1,2,0:0:0:0:
256,192,94416,1,0,0:0:0:0:
256,192,94574,1,2,0:0:0:0:
256,192,94731,1,0,0:0:0:0:
256,192,94889,1,4,0:0:0:0:
256,192,95047,1,0,0:0:0:0:
256,192,95205,1,2,0:0:0:0:
256,192,95363,1,0,0:0:0:0:
256,192,95521,1,2,0:0:0:0:
256,192,95600,1,0,0:0:0:0:
256,192,95679,1,0,0:0:0:0:
256,192,95758,1,2,0:0:0:0:
256,192,95837,1,0,0:0:0:0:
256,192,95916,1,2,0:0:0:0:
256,192,95995,1,2,0:0:0:0:
256,192,96074,1,2,0:0:0:0:
256,192,96153,1,0,0:0:0:0:
256,192,96310,1,0,0:0:0:0:
256,192,96468,1,2,0:0:0:0:
256,192,96626,1,0,0:0:0:0:
256,192,96784,1,2,0:0:0:0:
256,192,96942,1,0,0:0:0:0:
256,192,97100,1,2,0:0:0:0:
256,192,97258,1,2,0:0:0:0:
256,192,97416,1,4,0:0:0:0:
256,192,97574,1,0,0:0:0:0:
256,192,97731,1,2,0:0:0:0:
256,192,97889,1,2,0:0:0:0:
256,192,97968,1,0,0:0:0:0:
256,192,98047,1,2,0:0:0:0:
256,192,98126,1,2,0:0:0:0:
256,192,98205,1,2,0:0:0:0:
256,192,98284,1,0,0:0:0:0:
256,192,98363,1,2,0:0:0:0:
256,192,98442,1,2,0:0:0:0:
256,192,98521,1,0,0:0:0:0:
256,192,98600,1,0,0:0:0:0:
256,192,98679,1,0,0:0:0:0:
256,192,98837,1,0,0:0:0:0:
256,192,98995,1,0,0:0:0:0:
256,192,99153,1,2,0:0:0:0:
256,192,99310,1,0,0:0:0:0:
256,192,99468,1,0,0:0:0:0:
256,192,99626,1,2,0:0:0:0:
256,192,99784,1,2,0:0:0:0:
256,192,99942,1,4,0:0:0:0:
256,192,100100,1,2,0:0:0:0:
256,192,100258,1,0,0:0:0:0:
256,192,100416,1,2,0:0:0:0:
256,192,100574,1,2,0:0:0:0:
256,192,100731,1,2,0:0:0:0:
256,192,100889,1,0,0:0:0:0:
256,192,101047,1,0,0:0:0:0:
256,192,101205,1,2,0:0:0:0:
256,192,101363,1,0,0:0:0:0:
256,192,101442,1,0,0:0:0:0:
256,192,101521,1,2,0:0:0:0:
256,192,101679,1,0,0:0:0:0:
256,192,101837,1,2,0:0:0:0:
256,192,101995,1,0,0:0:0:0:
256,192,102074,1,2,0:0:0:0:
256,192,102153,1,0,0:0:0:0:
256,192,102310,1,2,0:0:0:0:
256,192,102468,1,6,0:0:0:0:
256,192,102626,1,0,0:0:0:0:
256,192,102784,1,2,0:0:0:0:
256,192,102942,1,0,0:0:0:0:
256,192,103100,1,2,0:0:0:0:
256,192,103179,1,0,0:0:0:0:
256,192,103258,1,2,0:0:0:0:
256,192,103337,1,0,0:0:0:0:
256,192,103416,1,2,0:0:0:0:
256,192,103495,1,0,0:0:0:0:
256,192,103574,1,2,0:0:0:0:
256,192,103653,1,0,0:0:0:0:
256,192,104047,1,6,0:0:0:0:
256,192,104205,1,0,0:0:0:0:
256,192,104284,1,0,0:0:0:0:
256,192,104363,1,2,0:0:0:0:
256,192,104521,1,0,0:0:0:0:
256,192,104679,1,2,0:0:0:0:
256,192,104758,1,2,0:0:0:0:
256,192,104837,1,0,0:0:0:0:
256,192,104995,1,0,0:0:0:0:
256,192,105153,1,2,0:0:0:0:
256,192,105310,1,2,0:0:0:0:
256,192,105389,1,0,0:0:0:0:
256,192,105468,1,0,0:0:0:0:
256,192,105547,1,2,0:0:0:0:
256,192,105626,1,0,0:0:0:0:
256,192,105784,1,2,0:0:0:0:
256,192,105942,1,0,0:0:0:0:
256,192,106021,1,0,0:0:0:0:
256,192,106100,1,2,0:0:0:0:
256,192,106258,1,0,0:0:0:0:
256,192,106416,1,2,0:0:0:0:
256,192,106495,1,0,0:0:0:0:
256,192,106574,1,2,0:0:0:0:
256,192,106731,1,0,0:0:0:0:
256,192,106889,1,2,0:0:0:0:
256,192,106968,1,2,0:0:0:0:
256,192,107047,1,0,0:0:0:0:
256,192,107126,1,2,0:0:0:0:
256,192,107205,1,0,0:0:0:0:
256,192,107284,1,0,0:0:0:0:
256,192,107363,1,2,0:0:0:0:
256,192,107442,1,2,0:0:0:0:
256,192,107521,1,0,0:0:0:0:
256,192,107679,1,0,0:0:0:0:
256,192,107837,1,2,0:0:0:0:
256,192,107916,1,0,0:0:0:0:
256,192,107995,1,0,0:0:0:0:
256,192,108074,1,2,0:0:0:0:
256,192,108153,1,0,0:0:0:0:
256,192,108310,1,2,0:0:0:0:
256,192,108468,1,2,0:0:0:0:
256,192,108626,1,0,0:0:0:0:
256,192,108705,1,2,0:0:0:0:
256,192,108784,1,0,0:0:0:0:
256,192,108942,1,0,0:0:0:0:
256,192,109100,1,2,0:0:0:0:
256,192,109337,1,2,0:0:0:0:
256,192,109416,1,0,0:0:0:0:
256,192,109574,1,0,0:0:0:0:
256,192,109653,1,0,0:0:0:0:
256,192,109731,1,0,0:0:0:0:
256,192,109889,1,2,0:0:0:0:
256,192,110047,1,0,0:0:0:0:
256,192,110205,1,0,0:0:0:0:
256,192,110284,1,0,0:0:0:0:
256,192,110363,1,2,0:0:0:0:
256,192,110521,1,2,0:0:0:0:
256,192,110574,1,2,0:0:0:0:
256,192,110626,1,0,0:0:0:0:
256,192,110679,1,0,0:0:0:0:
256,192,110837,1,0,0:0:0:0:
256,192,110995,1,2,0:0:0:0:
256,192,111074,1,2,0:0:0:0:
256,192,111153,1,0,0:0:0:0:
256,192,111231,1,2,0:0:0:0:
256,192,111310,1,0,0:0:0:0:
256,192,111468,1,0,0:0:0:0:
256,192,111626,1,2,0:0:0:0:
256,192,111705,1,0,0:0:0:0:
256,192,111784,1,2,0:0:0:0:
256,192,111863,1,0,0:0:0:0:
256,192,111942,1,0,0:0:0:0:
256,192,112100,1,2,0:0:0:0:
256,192,112179,1,0,0:0:0:0:
256,192,112258,1,2,0:0:0:0:
256,192,112337,1,2,0:0:0:0:
256,192,112416,1,0,0:0:0:0:
256,192,112495,1,2,0:0:0:0:
256,192,112574,1,0,0:0:0:0:
256,192,112731,1,0,0:0:0:0:
256,192,112810,1,0,0:0:0:0:
256,192,112889,1,2,0:0:0:0:
256,192,113047,1,0,0:0:0:0:
256,192,113205,1,2,0:0:0:0:
256,192,113284,1,0,0:0:0:0:
256,192,113363,1,2,0:0:0:0:
256,192,113442,1,0,0:0:0:0:
256,192,113521,1,2,0:0:0:0:
256,192,113600,1,2,0:0:0:0:
256,192,113679,1,0,0:0:0:0:
256,192,113758,1,2,0:0:0:0:
256,192,113995,1,0,0:0:0:0:
256,192,114153,1,6,0:0:0:0:
256,192,114389,1,2,0:0:0:0:
256,192,114468,1,0,0:0:0:0:
256,192,114626,1,2,0:0:0:0:
256,192,114784,1,0,0:0:0:0:
256,192,114863,1,0,0:0:0:0:
256,192,114942,1,2,0:0:0:0:
256,192,115100,1,0,0:0:0:0:
256,192,115258,1,2,0:0:0:0:
256,192,115416,1,2,0:0:0:0:
256,192,115495,1,0,0:0:0:0:
256,192,115574,1,0,0:0:0:0:
256,192,115653,1,2,0:0:0:0:
256,192,115731,1,0,0:0:0:0:
256,192,115889,1,2,0:0:0:0:
256,192,116047,1,0,0:0:0:0:
256,192,116126,1,0,0:0:0:0:
256,192,116205,1,2,0:0:0:0:
256,192,116363,1,0,0:0:0:0:
256,192,116521,1,2,0:0:0:0:
256,192,116600,1,0,0:0:0:0:
256,192,116679,1,0,0:0:0:0:
256,192,116837,1,0,0:0:0:0:
256,192,116916,1,0,0:0:0:0:
256,192,116995,1,2,0:0:0:0:
256,192,117074,1,2,0:0:0:0:
256,192,117153,1,0,0:0:0:0:
256,192,117231,1,2,0:0:0:0:
256,192,117310,1,0,0:0:0:0:
256,192,117389,1,2,0:0:0:0:
256,192,117468,1,2,0:0:0:0:
256,192,117547,1,2,0:0:0:0:
256,192,117626,1,0,0:0:0:0:
256,192,117784,1,0,0:0:0:0:
256,192,117863,1,0,0:0:0:0:
256,192,117942,1,2,0:0:0:0:
256,192,118100,1,2,0:0:0:0:
256,192,118179,1,0,0:0:0:0:
256,192,118258,1,2,0:0:0:0:
256,192,118337,1,2,0:0:0:0:
256,192,118416,1,0,0:0:0:0:
256,192,118495,1,0,0:0:0:0:
256,192,118574,1,2,0:0:0:0:
256,192,118653,1,0,0:0:0:0:
256,192,118731,1,2,0:0:0:0:
256,192,118810,1,2,0:0:0:0:
256,192,118889,1,0,0:0:0:0:
256,192,119126,1,0,0:0:0:0:
256,192,119205,1,2,0:0:0:0:
256,192,119363,1,0,0:0:0:0:
256,192,119442,1,0,0:0:0:0:
256,192,119521,1,2,0:0:0:0:
256,192,119679,1,0,0:0:0:0:
256,192,119758,1,2,0:0:0:0:
256,192,119837,1,0,0:0:0:0:
256,192,119995,1,2,0:0:0:0:
256,192,120153,1,0,0:0:0:0:
256,192,120310,1,2,0:0:0:0:
256,192,120389,1,0,0:0:0:0:
256,192,120468,1,2,0:0:0:0:
256,192,120626,1,2,0:0:0:0:
256,192,120679,1,2,0:0:0:0:
256,192,120731,1,0,0:0:0:0:
256,192,120784,1,0,0:0:0:0:
256,192,120942,1,0,0:0:0:0:
256,192,121021,1,0,0:0:0:0:
256,192,121100,1,2,0:0:0:0:
256,192,121179,1,0,0:0:0:0:
256,192,121258,1,2,0:0:0:0:
256,192,121337,1,2,0:0:0:0:
256,192,121416,1,0,0:0:0:0:
256,192,121574,1,2,0:0:0:0:
256,192,121653,1,0,0:0:0:0:
256,192,121810,1,0,0:0:0:0:
256,192,121889,1,2,0:0:0:0:
256,192,122047,1,2,0:0:0:0:
256,192,122126,1,0,0:0:0:0:
256,192,122284,1,2,0:0:0:0:
256,192,122363,1,0,0:0:0:0:
256,192,122442,1,0,0:0:0:0:
256,192,122521,1,2,0:0:0:0:
256,192,122600,1,2,0:0:0:0:
256,192,122679,1,0,0:0:0:0:
256,192,122837,1,0,0:0:0:0:
256,192,122995,1,2,0:0:0:0:
256,192,123153,1,2,0:0:0:0:
256,192,123231,1,0,0:0:0:0:
256,192,123310,1,2,0:0:0:0:
256,192,123389,1,2,0:0:0:0:
256,192,123468,1,0,0:0:0:0:
256,192,123547,1,0,0:0:0:0:
256,192,123626,1,2,0:0:0:0:
256,192,123705,1,2,0:0:0:0:
256,192,123784,1,0,0:0:0:0:
256,192,123863,1,2,0:0:0:0:
256,192,123942,1,4,0:0:0:0:
256,192,124100,1,0,0:0:0:0:
256,192,124179,1,0,0:0:0:0:
256,192,124258,1,2,0:0:0:0:
256,192,124416,1,0,0:0:0:0:
256,192,124495,1,2,0:0:0:0:
256,192,124653,1,2,0:0:0:0:
256,192,124731,1,0,0:0:0:0:
256,192,124810,1,0,0:0:0:0:
256,192,124889,1,2,0:0:0:0:
256,192,124968,1,2,0:0:0:0:
256,192,125047,1,0,0:0:0:0:
256,192,125126,1,2,0:0:0:0:
256,192,125205,1,0,0:0:0:0:
256,192,125363,1,0,0:0:0:0:
256,192,125521,1,2,0:0:0:0:
256,192,125679,1,0,0:0:0:0:
256,192,125837,1,2,0:0:0:0:
256,192,125916,1,2,0:0:0:0:
256,192,125995,1,0,0:0:0:0:
256,192,126074,1,2,0:0:0:0:
256,192,126153,1,0,0:0:0:0:
256,192,126231,1,0,0:0:0:0:
256,192,126310,1,2,0:0:0:0:
256,192,126389,1,0,0:0:0:0:
256,192,126468,1,0,0:0:0:0:
256,192,126626,1,2,0:0:0:0:
256,192,126705,1,2,0:0:0:0:
256,192,126784,1,0,0:0:0:0:
256,192,126863,1,2,0:0:0:0:
256,192,126942,1,0,0:0:0:0:
256,192,127100,1,0,0:0:0:0:
256,192,127179,1,2,0:0:0:0:
256,192,127258,1,0,0:0:0:0:
256,192,127337,1,0,0:0:0:0:
256,192,127416,1,2,0:0:0:0:
256,192,127495,1,0,0:0:0:0:
256,192,127574,1,0,0:0:0:0:
256,192,127653,1,2,0:0:0:0:
256,192,127731,1,0,0:0:0:0:
256,192,127889,1,2,0:0:0:0:
256,192,127968,1,2,0:0:0:0:
256,192,128047,1,0,0:0:0:0:
256,192,128126,1,0,0:0:0:0:
256,192,128205,1,2,0:0:0:0:
256,192,128284,1,0,0:0:0:0:
256,192,128363,1,2,0:0:0:0:
256,192,128442,1,2,0:0:0:0:
256,192,128521,1,0,0:0:0:0:
256,192,128679,1,2,0:0:0:0:
256,192,128837,1,0,0:0:0:0:
256,192,128995,1,0,0:0:0:0:
256,192,129153,1,2,0:0:0:0:
256,192,129231,1,2,0:0:0:0:
256,192,129310,1,0,0:0:0:0:
256,192,129468,1,2,0:0:0:0:
256,192,129547,1,0,0:0:0:0:
256,192,129705,1,0,0:0:0:0:
256,192,129784,1,2,0:0:0:0:
256,192,129942,1,0,0:0:0:0:
256,192,130021,1,0,0:0:0:0:
256,192,130100,1,2,0:0:0:0:
256,192,130179,1,2,0:0:0:0:
256,192,130258,1,0,0:0:0:0:
256,192,130416,1,2,0:0:0:0:
256,192,130495,1,0,0:0:0:0:
256,192,130574,1,2,0:0:0:0:
256,192,130731,1,2,0:0:0:0:
256,192,130784,1,2,0:0:0:0:
256,192,130837,1,0,0:0:0:0:
256,192,130889,1,0,0:0:0:0:
256,192,131047,1,2,0:0:0:0:
256,192,131126,1,2,0:0:0:0:
256,192,131205,1,0,0:0:0:0:
256,192,131284,1,0,0:0:0:0:
256,192,131363,1,2,0:0:0:0:
256,192,131442,1,0,0:0:0:0:
256,192,131521,1,0,0:0:0:0:
256,192,131679,1,2,0:0:0:0:
256,192,131758,1,2,0:0:0:0:
256,192,131837,1,0,0:0:0:0:
256,192,131995,1,0,0:0:0:0:
256,192,132074,1,0,0:0:0:0:
256,192,132153,1,2,0:0:0:0:
256,192,132232,1,0,0:0:0:0:
256,192,132311,1,2,0:0:0:0:
256,192,132390,1,2,0:0:0:0:
256,192,132469,1,0,0:0:0:0:
256,192,132626,1,0,0:0:0:0:
256,192,132705,1,2,0:0:0:0:
256,192,132784,1,0,0:0:0:0:
256,192,132942,1,2,0:0:0:0:
256,192,133100,1,0,0:0:0:0:
256,192,133258,1,2,0:0:0:0:
256,192,133337,1,2,0:0:0:0:
256,192,133416,1,0,0:0:0:0:
256,192,133495,1,0,0:0:0:0:
256,192,133574,1,2,0:0:0:0:
256,192,133653,1,0,0:0:0:0:
256,192,133731,1,2,0:0:0:0:
256,192,133810,1,2,0:0:0:0:
256,192,133889,1,0,0:0:0:0:
256,192,133968,1,2,0:0:0:0:
256,192,134047,1,4,0:0:0:0:
256,192,134205,1,2,0:0:0:0:
256,192,134284,1,0,0:0:0:0:
256,192,134363,1,2,0:0:0:0:
256,192,134521,1,2,0:0:0:0:
256,192,134600,1,0,0:0:0:0:
256,192,134758,1,0,0:0:0:0:
256,192,134837,1,2,0:0:0:0:
256,192,134995,1,2,0:0:0:0:
256,192,135074,1,0,0:0:0:0:
256,192,135153,1,2,0:0:0:0:
256,192,135231,1,2,0:0:0:0:
256,192,135310,1,0,0:0:0:0:
256,192,135468,1,0,0:0:0:0:
256,192,135547,1,0,0:0:0:0:
256,192,135626,1,2,0:0:0:0:
256,192,135784,1,2,0:0:0:0:
256,192,135942,1,2,0:0:0:0:
256,192,136021,1,2,0:0:0:0:
256,192,136100,1,0,0:0:0:0:
256,192,136179,1,0,0:0:0:0:
256,192,136258,1,2,0:0:0:0:
256,192,136337,1,0,0:0:0:0:
256,192,136416,1,2,0:0:0:0:
256,192,136495,1,2,0:0:0:0:
256,192,136574,1,0,0:0:0:0:
256,192,136731,1,2,0:0:0:0:
256,192,136810,1,0,0:0:0:0:
256,192,136968,1,0,0:0:0:0:
256,192,137047,1,2,0:0:0:0:
256,192,137205,1,0,0:0:0:0:
256,192,137284,1,2,0:0:0:0:
256,192,137442,1,0,0:0:0:0:
256,192,137521,1,2,0:0:0:0:
256,192,137600,1,2,0:0:0:0:
256,192,137679,1,0,0:0:0:0:
256,192,137758,1,0,0:0:0:0:
256,192,137837,1,2,0:0:0:0:
256,192,137995,1,2,0:0:0:0:
256,192,138074,1,2,0:0:0:0:
256,192,138153,1,0,0:0:0:0:
256,192,138310,1,0,0:0:0:0:
256,192,138468,1,2,0:0:0:0:
256,192,138547,1,2,0:0:0:0:
256,192,138626,1,0,0:0:0:0:
256,192,138705,1,0,0:0:0:0:
256,192,138784,1,2,0:0:0:0:
256,192,138863,1,2,0:0:0:0:
256,192,138942,1,0,0:0:0:0:
256,192,139021,1,2,0:0:0:0:
256,192,139100,1,0,0:0:0:0:
256,192,139258,1,0,0:0:0:0:
256,192,139337,1,0,0:0:0:0:
256,192,139416,1,2,0:0:0:0:
256,192,139574,1,2,0:0:0:0:
256,192,139653,1,2,0:0:0:0:
256,192,139731,1,0,0:0:0:0:
256,192,139889,1,0,0:0:0:0:
256,192,139968,1,2,0:0:0:0:
256,192,140126,1,0,0:0:0:0:
256,192,140205,1,2,0:0:0:0:
256,192,140363,1,0,0:0:0:0:
256,192,140521,1,2,0:0:0:0:
256,192,140600,1,2,0:0:0:0:
256,192,140679,1,0,0:0:0:0:
256,192,140837,1,2,0:0:0:0:
256,192,140890,1,2,0:0:0:0:
256,192,140942,1,0,0:0:0:0:
256,192,140995,1,0,0:0:0:0:
256,192,141153,1,0,0:0:0:0:
256,192,141231,1,2,0:0:0:0:
256,192,141389,1,0,0:0:0:0:
256,192,141468,1,2,0:0:0:0:
256,192,141547,1,2,0:0:0:0:
256,192,141626,1,0,0:0:0:0:
256,192,141784,1,2,0:0:0:0:
256,192,141863,1,2,0:0:0:0:
256,192,141942,1,0,0:0:0:0:
256,192,142100,1,2,0:0:0:0:
256,192,142179,1,2,0:0:0:0:
256,192,142258,1,0,0:0:0:0:
256,192,142337,1,2,0:0:0:0:
256,192,142495,1,0,0:0:0:0:
256,192,142574,1,2,0:0:0:0:
256,192,142653,1,2,0:0:0:0:
256,192,142731,1,0,0:0:0:0:
256,192,142810,1,2,0:0:0:0:
256,192,142889,1,0,0:0:0:0:
256,192,143047,1,2,0:0:0:0:
256,192,143126,1,2,0:0:0:0:
256,192,143205,1,0,0:0:0:0:
256,192,143284,1,0,0:0:0:0:
256,192,143363,1,2,0:0:0:0:
256,192,143442,1,0,0:0:0:0:
256,192,143521,1,2,0:0:0:0:
256,192,143600,1,2,0:0:0:0:
256,192,143679,1,0,0:0:0:0:
256,192,143758,1,2,0:0:0:0:
256,192,143837,1,0,0:0:0:0:
256,192,143916,1,2,0:0:0:0:
256,192,143995,1,2,0:0:0:0:
256,192,144074,1,2,0:0:0:0:
