osu file format v14

[General]
AudioFilename: audio.mp3
AudioLeadIn: 0
PreviewTime: -1
Countdown: 0
SampleSet: Normal
StackLeniency: 0.7
Mode: 1
LetterboxInBreaks: 0
WidescreenStoryboard: 1

[Editor]
Bookmarks: 7731,22889,43100,63310,83521,104047,144153
DistanceSpacing: 3.7
BeatDivisor: 4
GridSize: 32
TimelineZoom: 2.599999

[Metadata]
Title:Antares
TitleUnicode:Antares
Artist:Luca
ArtistUnicode:루카
Creator:Bedwyr Aorta
Version:Reed's Muzukashii
Source:
Tags:
BeatmapID:1813351
BeatmapSetID:867419

[Difficulty]
HPDrainRate:6
CircleSize:4
OverallDifficulty:4
ApproachRate:5
SliderMultiplier:1.4
SliderTickRate:1

[Events]
//Background and Video events
0,0,"antares_bg.png",0,0
//Break Periods
//Storyboard Layer 0 (Background)
//Storyboard Layer 1 (Fail)
//Storyboard Layer 2 (Pass)
//Storyboard Layer 3 (Foreground)
//Storyboard Sound Samples

[TimingPoints]
153,315.789473684211,4,1,0,70,1,0
104047,-100,4,1,0,65,0,1
113679,-100,4,1,0,70,0,0
113758,-100,4,1,0,50,0,0
114153,-100,4,1,0,67,0,1
123310,-100,4,1,0,70,0,0
123942,-100,4,1,0,70,0,1
144153,-95.2380952380952,4,1,0,70,0,0
144784,-100,4,1,0,70,0,0

[HitObjects]
256,192,153,5,8,0:0:0:0:
256,192,468,1,0,0:0:0:0:
256,192,784,1,0,0:0:0:0:
256,192,1100,1,8,0:0:0:0:
256,192,1415,1,0,0:0:0:0:
256,192,2047,1,8,0:0:0:0:
256,192,2679,1,0,0:0:0:0:
256,192,3310,1,8,0:0:0:0:
256,192,3942,1,8,0:0:0:0:
256,192,4574,1,0,0:0:0:0:
256,192,5205,1,8,0:0:0:0:
256,192,5521,1,0,0:0:0:0:
256,192,5837,1,0,0:0:0:0:
256,192,6153,1,8,0:0:0:0:
256,192,6310,1,8,0:0:0:0:
256,192,6468,1,0,0:0:0:0:
256,192,7100,1,8,0:0:0:0:
256,192,7731,8,8,9942,0:0:0:0:
256,192,10258,5,8,0:0:0:0:
256,192,10731,1,8,0:0:0:0:
256,192,11205,1,8,0:0:0:0:
256,192,11679,1,0,0:0:0:0:
256,192,12153,1,0,0:0:0:0:
256,192,12784,1,0,0:0:0:0:
256,192,13258,1,0,0:0:0:0:
256,192,13731,1,8,0:0:0:0:
256,192,14205,1,8,0:0:0:0:
256,192,14679,1,0,0:0:0:0:
256,192,15310,1,0,0:0:0:0:
256,192,15783,1,0,0:0:0:0:
256,192,16573,1,8,0:0:0:0:
256,192,17047,1,8,0:0:0:0:
256,192,17837,1,4,0:0:0:0:
256,192,17995,12,0,20363,0:0:0:0:
256,192,21626,5,0,0:0:0:0:
256,192,21784,1,8,0:0:0:0:
256,192,21942,1,0,0:0:0:0:
256,192,22100,1,8,0:0:0:0:
256,192,22258,1,8,0:0:0:0:
256,192,22416,1,0,0:0:0:0:
256,192,22574,1,0,0:0:0:0:
256,192,22731,1,8,0:0:0:0:
256,192,22889,1,0,0:0:0:0:
256,192,23205,1,8,0:0:0:0:
256,192,23679,1,0,0:0:0:0:
256,192,23837,1,8,0:0:0:0:
256,192,24153,1,0,0:0:0:0:
256,192,24310,1,0,0:0:0:0:
256,192,24468,1,8,0:0:0:0:
256,192,24942,1,0,0:0:0:0:
256,192,25100,1,8,0:0:0:0:
256,192,25258,1,0,0:0:0:0:
256,192,25337,1,0,0:0:0:0:
256,192,25416,1,0,0:0:0:0:
256,192,25574,1,0,0:0:0:0:
256,192,25731,1,8,0:0:0:0:
256,192,26047,1,0,0:0:0:0:
256,192,26284,1,8,0:0:0:0:
256,192,26521,1,0,0:0:0:0:
256,192,26837,1,0,0:0:0:0:
256,192,26995,1,8,0:0:0:0:
256,192,27153,1,0,0:0:0:0:
256,192,27231,1,0,0:0:0:0:
256,192,27310,1,0,0:0:0:0:
256,192,27468,1,0,0:0:0:0:
256,192,27626,1,8,0:0:0:0:
256,192,27942,1,0,0:0:0:0:
256,192,28100,1,0,0:0:0:0:
256,192,28258,1,8,0:0:0:0:
256,192,28731,1,0,0:0:0:0:
256,192,28889,1,8,0:0:0:0:
256,192,29205,1,0,0:0:0:0:
256,192,29363,1,0,0:0:0:0:
256,192,29521,1,8,0:0:0:0:
256,192,29758,1,0,0:0:0:0:
256,192,29995,1,0,0:0:0:0:
256,192,30153,1,8,0:0:0:0:
256,192,30468,1,0,0:0:0:0:
256,192,30626,1,0,0:0:0:0:
256,192,30784,1,8,0:0:0:0:
256,192,31100,1,0,0:0:0:0:
256,192,31337,1,0,0:0:0:0:
256,192,31574,1,0,0:0:0:0:
256,192,31731,1,8,0:0:0:0:
256,192,31889,1,0,0:0:0:0:
256,192,32047,1,8,0:0:0:0:
256,192,32205,1,0,0:0:0:0:
256,192,32284,1,0,0:0:0:0:
256,192,32363,1,0,0:0:0:0:
256,192,32521,1,0,0:0:0:0:
256,192,32679,1,8,0:0:0:0:
256,192,32837,1,8,0:0:0:0:
256,192,32995,1,4,0:0:0:0:
256,192,33231,1,4,0:0:0:0:
256,192,33468,1,12,0:0:0:0:
256,192,33784,1,8,0:0:0:0:
256,192,33942,1,0,0:0:0:0:
256,192,34100,1,12,0:0:0:0:
256,192,34416,1,8,0:0:0:0:
256,192,34574,1,0,0:0:0:0:
256,192,34731,1,8,0:0:0:0:
256,192,34889,1,8,0:0:0:0:
256,192,35047,1,0,0:0:0:0:
256,192,35205,1,0,0:0:0:0:
256,192,35284,1,0,0:0:0:0:
256,192,35363,1,0,0:0:0:0:
256,192,35521,1,12,0:0:0:0:
256,192,35758,1,0,0:0:0:0:
256,192,35995,1,12,0:0:0:0:
256,192,36310,1,8,0:0:0:0:
256,192,36468,1,8,0:0:0:0:
256,192,36626,1,4,0:0:0:0:
256,192,36942,1,0,0:0:0:0:
256,192,37100,1,8,0:0:0:0:
256,192,37257,1,0,0:0:0:0:
256,192,37416,1,0,0:0:0:0:
256,192,37574,1,8,0:0:0:0:
256,192,37731,1,8,0:0:0:0:
256,192,37810,1,8,0:0:0:0:
256,192,37889,1,8,0:0:0:0:
256,192,38047,1,4,0:0:0:0:
256,192,38363,1,0,0:0:0:0:
256,192,38837,1,8,0:0:0:0:
256,192,38995,1,0,0:0:0:0:
256,192,39310,1,0,0:0:0:0:
256,192,39468,1,8,0:0:0:0:
256,192,39626,1,0,0:0:0:0:
256,192,39942,1,0,0:0:0:0:
256,192,40100,1,0,0:0:0:0:
256,192,40258,1,8,0:0:0:0:
256,192,40416,1,8,0:0:0:0:
256,192,40495,1,8,0:0:0:0:
256,192,40574,1,8,0:0:0:0:
256,192,40731,1,0,0:0:0:0:
256,192,40889,1,8,0:0:0:0:
256,192,41205,1,0,0:0:0:0:
256,192,41442,1,0,0:0:0:0:
256,192,41679,1,0,0:0:0:0:
256,192,41837,1,8,0:0:0:0:
256,192,41995,1,0,0:0:0:0:
256,192,42153,1,0,0:0:0:0:
256,192,42310,1,8,0:0:0:0:
256,192,42468,1,8,0:0:0:0:
256,192,42626,1,0,0:0:0:0:
256,192,42784,1,8,0:0:0:0:
256,192,42942,1,0,0:0:0:0:
256,192,43021,1,0,0:0:0:0:
256,192,43100,1,0,0:0:0:0:
256,192,43731,1,8,0:0:0:0:
256,192,44047,1,0,0:0:0:0:
256,192,44363,1,0,0:0:0:0:
256,192,44995,1,8,0:0:0:0:
256,192,45310,1,8,0:0:0:0:
256,192,45626,1,0,0:0:0:0:
256,192,45784,1,0,0:0:0:0:
256,192,45942,1,0,0:0:0:0:
256,192,46258,1,8,0:0:0:0:
256,192,46574,1,0,0:0:0:0:
256,192,46731,1,0,0:0:0:0:
256,192,46889,1,8,0:0:0:0:
256,192,47205,1,8,0:0:0:0:
256,192,47521,1,8,0:0:0:0:
256,192,47679,1,8,0:0:0:0:
256,192,47837,1,0,0:0:0:0:
256,192,47995,1,0,0:0:0:0:
256,192,48153,1,0,0:0:0:0:
256,192,48626,1,0,0:0:0:0:
256,192,49100,1,0,0:0:0:0:
256,192,49416,1,8,0:0:0:0:
256,192,49574,1,8,0:0:0:0:
256,192,49731,1,8,0:0:0:0:
256,192,50047,1,0,0:0:0:0:
256,192,50363,1,0,0:0:0:0:
256,192,50679,1,8,0:0:0:0:
256,192,50995,1,0,0:0:0:0:
256,192,51310,1,8,0:0:0:0:
256,192,51626,1,0,0:0:0:0:
256,192,51942,1,8,0:0:0:0:
256,192,52258,1,0,0:0:0:0:
256,192,52574,1,0,0:0:0:0:
256,192,52889,1,0,0:0:0:0:
256,192,53205,1,4,0:0:0:0:
256,192,53837,1,8,0:0:0:0:
256,192,54468,1,8,0:0:0:0:
256,192,54626,1,0,0:0:0:0:
256,192,54784,1,0,0:0:0:0:
256,192,54942,1,8,0:0:0:0:
256,192,55100,1,0,0:0:0:0:
256,192,55416,1,0,0:0:0:0:
256,192,55574,1,8,0:0:0:0:
256,192,55731,1,0,0:0:0:0:
256,192,56205,1,0,0:0:0:0:
256,192,56363,1,8,0:0:0:0:
256,192,56995,1,8,0:0:0:0:
256,192,57153,1,8,0:0:0:0:
256,192,57310,1,0,0:0:0:0:
256,192,57468,1,8,0:0:0:0:
256,192,57626,1,0,0:0:0:0:
256,192,57784,1,0,0:0:0:0:
256,192,57942,1,8,0:0:0:0:
256,192,58100,1,0,0:0:0:0:
256,192,58179,1,0,0:0:0:0:
256,192,58258,1,0,0:0:0:0:
256,192,58889,1,8,0:0:0:0:
256,192,59521,1,8,0:0:0:0:
256,192,59837,1,8,0:0:0:0:
256,192,60153,1,0,0:0:0:0:
256,192,60468,1,8,0:0:0:0:
256,192,60784,1,0,0:0:0:0:
256,192,61258,1,0,0:0:0:0:
256,192,61731,1,8,0:0:0:0:
256,192,61889,1,8,0:0:0:0:
256,192,62047,1,0,0:0:0:0:
256,192,62363,1,8,0:0:0:0:
256,192,62521,1,0,0:0:0:0:
256,192,62837,1,8,0:0:0:0:
256,192,62995,1,0,0:0:0:0:
256,192,63074,1,0,0:0:0:0:
256,192,63153,1,0,0:0:0:0:
256,192,63310,1,8,0:0:0:0:
256,192,63784,1,8,0:0:0:0:
256,192,64021,1,0,0:0:0:0:
256,192,64258,1,8,0:0:0:0:
256,192,64416,1,0,0:0:0:0:
256,192,64495,1,0,0:0:0:0:
256,192,64574,1,0,0:0:0:0:
256,192,65047,1,8,0:0:0:0:
256,192,65284,1,0,0:0:0:0:
256,192,65521,1,8,0:0:0:0:
256,192,65679,1,8,0:0:0:0:
256,192,65758,1,8,0:0:0:0:
256,192,65837,1,8,0:0:0:0:
256,192,66310,1,0,0:0:0:0:
256,192,66547,1,0,0:0:0:0:
256,192,66784,1,8,0:0:0:0:
256,192,66942,1,0,0:0:0:0:
256,192,67021,1,0,0:0:0:0:
256,192,67100,1,0,0:0:0:0:
256,192,67258,1,0,0:0:0:0:
256,192,67416,1,8,0:0:0:0:
256,192,67574,1,0,0:0:0:0:
256,192,67731,1,8,0:0:0:0:
256,192,67889,1,8,0:0:0:0:
256,192,68047,1,0,0:0:0:0:
256,192,68205,1,0,0:0:0:0:
256,192,68284,1,0,0:0:0:0:
256,192,68363,1,0,0:0:0:0:
256,192,68837,1,8,0:0:0:0:
256,192,69074,1,0,0:0:0:0:
256,192,69311,1,8,0:0:0:0:
256,192,69469,1,0,0:0:0:0:
256,192,69548,1,0,0:0:0:0:
256,192,69627,1,0,0:0:0:0:
256,192,70100,1,0,0:0:0:0:
256,192,70337,1,0,0:0:0:0:
256,192,70574,1,8,0:0:0:0:
256,192,70731,1,8,0:0:0:0:
256,192,70810,1,8,0:0:0:0:
256,192,70889,1,8,0:0:0:0:
256,192,71363,1,0,0:0:0:0:
256,192,71600,1,0,0:0:0:0:
256,192,71837,1,8,0:0:0:0:
256,192,71995,1,0,0:0:0:0:
256,192,72074,1,0,0:0:0:0:
256,192,72153,1,0,0:0:0:0:
256,192,72310,1,0,0:0:0:0:
256,192,72468,1,8,0:0:0:0:
256,192,72626,1,8,0:0:0:0:
256,192,72705,1,8,0:0:0:0:
256,192,72784,1,8,0:0:0:0:
256,192,72942,1,0,0:0:0:0:
256,192,73100,1,0,0:0:0:0:
256,192,73258,1,8,0:0:0:0:
256,192,73416,1,0,0:0:0:0:
256,192,73889,1,0,0:0:0:0:
256,192,74126,1,0,0:0:0:0:
256,192,74363,1,8,0:0:0:0:
256,192,74521,1,8,0:0:0:0:
256,192,74600,1,8,0:0:0:0:
256,192,74679,1,8,0:0:0:0:
256,192,75153,1,8,0:0:0:0:
256,192,75389,1,0,0:0:0:0:
256,192,75626,1,8,0:0:0:0:
256,192,75784,1,0,0:0:0:0:
256,192,75863,1,0,0:0:0:0:
256,192,75942,1,0,0:0:0:0:
256,192,76100,1,0,0:0:0:0:
256,192,76258,1,8,0:0:0:0:
256,192,76416,1,0,0:0:0:0:
256,192,76574,1,0,0:0:0:0:
256,192,76731,1,8,0:0:0:0:
256,192,76889,1,0,0:0:0:0:
256,192,77205,1,4,0:0:0:0:
256,192,77442,1,4,0:0:0:0:
256,192,77679,1,12,0:0:0:0:
256,192,77916,1,12,0:0:0:0:
256,192,78153,1,4,0:0:0:0:
256,192,78389,1,4,0:0:0:0:
256,192,78784,1,12,0:0:0:0:
256,192,79100,1,0,0:0:0:0:
256,192,79258,1,0,0:0:0:0:
256,192,79416,1,0,0:0:0:0:
256,192,79731,1,8,0:0:0:0:
256,192,80047,1,8,0:0:0:0:
256,192,80205,1,8,0:0:0:0:
256,192,80521,1,0,0:0:0:0:
256,192,80679,1,8,0:0:0:0:
256,192,80837,1,8,0:0:0:0:
256,192,80916,1,8,0:0:0:0:
256,192,80995,1,8,0:0:0:0:
256,192,81310,1,8,0:0:0:0:
256,192,81626,1,0,0:0:0:0:
256,192,81863,1,0,0:0:0:0:
256,192,82100,1,8,0:0:0:0:
256,192,82416,1,0,0:0:0:0:
256,192,82574,1,8,0:0:0:0:
256,192,82731,1,0,0:0:0:0:
256,192,82889,1,8,0:0:0:0:
256,192,83047,1,8,0:0:0:0:
256,192,83205,1,8,0:0:0:0:
256,192,83284,1,8,0:0:0:0:
256,192,83363,1,8,0:0:0:0:
256,192,83521,1,4,0:0:0:0:
256,192,83995,1,8,0:0:0:0:
256,192,84784,1,8,0:0:0:0:
256,192,85258,1,0,0:0:0:0:
256,192,85416,1,8,0:0:0:0:
256,192,85574,1,8,0:0:0:0:
256,192,85731,1,0,0:0:0:0:
256,192,85889,1,8,0:0:0:0:
256,192,86047,1,0,0:0:0:0:
256,192,86521,1,8,0:0:0:0:
256,192,87310,1,8,0:0:0:0:
256,192,87784,1,0,0:0:0:0:
256,192,87942,1,8,0:0:0:0:
256,192,88100,1,0,0:0:0:0:
256,192,88258,1,0,0:0:0:0:
256,192,88416,1,8,0:0:0:0:
256,192,88574,1,0,0:0:0:0:
256,192,88889,1,0,0:0:0:0:
256,192,89205,1,8,0:0:0:0:
256,192,89363,1,0,0:0:0:0:
256,192,89521,1,8,0:0:0:0:
256,192,89837,1,0,0:0:0:0:
256,192,90468,1,0,0:0:0:0:
256,192,90626,1,8,0:0:0:0:
256,192,90784,1,0,0:0:0:0:
256,192,90942,1,8,0:0:0:0:
256,192,91100,1,8,0:0:0:0:
256,192,91416,1,8,0:0:0:0:
256,192,91574,1,8,0:0:0:0:
256,192,91731,1,0,0:0:0:0:
256,192,91810,1,0,0:0:0:0:
256,192,91889,1,0,0:0:0:0:
256,192,92047,1,0,0:0:0:0:
256,192,92205,1,8,0:0:0:0:
256,192,92363,1,8,0:0:0:0:
256,192,92995,1,0,0:0:0:0:
256,192,93626,1,12,0:0:0:0:
256,192,93942,1,0,0:0:0:0:
256,192,94258,1,8,0:0:0:0:
256,192,94416,1,0,0:0:0:0:
256,192,94574,1,0,0:0:0:0:
256,192,94731,1,8,0:0:0:0:
256,192,94889,1,8,0:0:0:0:
256,192,95205,1,0,0:0:0:0:
256,192,95521,1,8,0:0:0:0:
256,192,95679,1,0,0:0:0:0:
256,192,95837,1,8,0:0:0:0:
256,192,95995,1,8,0:0:0:0:
256,192,96074,1,8,0:0:0:0:
256,192,96153,1,8,0:0:0:0:
256,192,96468,1,0,0:0:0:0:
256,192,96626,1,8,0:0:0:0:
256,192,96942,1,0,0:0:0:0:
256,192,97100,1,8,0:0:0:0:
256,192,97258,1,0,0:0:0:0:
256,192,97416,1,8,0:0:0:0:
256,192,97731,1,0,0:0:0:0:
256,192,97889,1,8,0:0:0:0:
256,192,98047,1,0,0:0:0:0:
256,192,98126,1,0,0:0:0:0:
256,192,98205,1,0,0:0:0:0:
256,192,98363,1,0,0:0:0:0:
256,192,98679,1,0,0:0:0:0:
256,192,98995,1,8,0:0:0:0:
256,192,99153,1,8,0:0:0:0:
256,192,99310,1,0,0:0:0:0:
256,192,99626,1,8,0:0:0:0:
256,192,99942,1,8,0:0:0:0:
256,192,100574,1,8,0:0:0:0:
256,192,100731,1,0,0:0:0:0:
256,192,100889,1,8,0:0:0:0:
256,192,101047,1,8,0:0:0:0:
256,192,101205,1,0,0:0:0:0:
256,192,101521,1,8,0:0:0:0:
256,192,101837,1,0,0:0:0:0:
256,192,102153,1,0,0:0:0:0:
256,192,102468,1,8,0:0:0:0:
256,192,102784,1,0,0:0:0:0:
256,192,103100,1,8,0:0:0:0:
256,192,103179,1,8,0:0:0:0:
256,192,103258,1,8,0:0:0:0:
256,192,103416,1,8,0:0:0:0:
256,192,103495,1,8,0:0:0:0:
256,192,103574,1,8,0:0:0:0:
256,192,104047,1,4,0:0:0:0:
256,192,104363,1,0,0:0:0:0:
256,192,104521,1,8,0:0:0:0:
256,192,104679,1,0,0:0:0:0:
256,192,104995,1,8,0:0:0:0:
256,192,105310,1,8,0:0:0:0:
256,192,105468,1,0,0:0:0:0:
256,192,105626,1,8,0:0:0:0:
256,192,105784,1,8,0:0:0:0:
256,192,105942,1,0,0:0:0:0:
256,192,106258,1,0,0:0:0:0:
256,192,106495,1,8,0:0:0:0:
256,192,106731,1,8,0:0:0:0:
256,192,106889,1,0,0:0:0:0:
256,192,107126,1,8,0:0:0:0:
256,192,107363,1,0,0:0:0:0:
256,192,107521,1,8,0:0:0:0:
256,192,107679,1,0,0:0:0:0:
256,192,107758,1,0,0:0:0:0:
256,192,107837,1,0,0:0:0:0:
256,192,107995,1,0,0:0:0:0:
256,192,108153,1,8,0:0:0:0:
256,192,108310,1,8,0:0:0:0:
256,192,108389,1,8,0:0:0:0:
256,192,108468,1,8,0:0:0:0:
256,192,108626,1,8,0:0:0:0:
256,192,108784,1,0,0:0:0:0:
256,192,109100,1,8,0:0:0:0:
256,192,109416,1,0,0:0:0:0:
256,192,109653,1,0,0:0:0:0:
256,192,109889,1,8,0:0:0:0:
256,192,110047,1,0,0:0:0:0:
256,192,110205,1,0,0:0:0:0:
256,192,110363,1,8,0:0:0:0:
256,192,110521,1,0,0:0:0:0:
256,192,110600,1,0,0:0:0:0:
256,192,110679,1,0,0:0:0:0:
256,192,110837,1,0,0:0:0:0:
256,192,110995,1,8,0:0:0:0:
256,192,111153,1,8,0:0:0:0:
256,192,111231,1,8,0:0:0:0:
256,192,111310,1,8,0:0:0:0:
256,192,111626,1,8,0:0:0:0:
256,192,111784,1,0,0:0:0:0:
256,192,111863,1,0,0:0:0:0:
256,192,111942,1,0,0:0:0:0:
256,192,112100,1,0,0:0:0:0:
256,192,112258,1,8,0:0:0:0:
256,192,112574,1,8,0:0:0:0:
256,192,112889,1,0,0:0:0:0:
256,192,113047,1,0,0:0:0:0:
256,192,113205,1,8,0:0:0:0:
256,192,113363,1,0,0:0:0:0:
256,192,113521,1,0,0:0:0:0:
256,192,113600,1,0,0:0:0:0:
256,192,113679,1,0,0:0:0:0:
256,192,113837,1,0,0:0:0:0:
256,192,114153,1,12,0:0:0:0:
256,192,114468,1,0,0:0:0:0:
256,192,114626,1,8,0:0:0:0:
256,192,114784,1,0,0:0:0:0:
256,192,115100,1,8,0:0:0:0:
256,192,115415,1,8,0:0:0:0:
256,192,115573,1,0,0:0:0:0:
256,192,115731,1,8,0:0:0:0:
256,192,115889,1,8,0:0:0:0:
256,192,116047,1,0,0:0:0:0:
256,192,116363,1,0,0:0:0:0:
256,192,116600,1,8,0:0:0:0:
256,192,116836,1,8,0:0:0:0:
256,192,116994,1,0,0:0:0:0:
256,192,117231,1,8,0:0:0:0:
256,192,117468,1,0,0:0:0:0:
256,192,117626,1,8,0:0:0:0:
256,192,117784,1,0,0:0:0:0:
256,192,117863,1,0,0:0:0:0:
256,192,117942,1,0,0:0:0:0:
256,192,118100,1,0,0:0:0:0:
256,192,118258,1,8,0:0:0:0:
256,192,118415,1,8,0:0:0:0:
256,192,118494,1,8,0:0:0:0:
256,192,118573,1,8,0:0:0:0:
256,192,118731,1,8,0:0:0:0:
256,192,118889,1,0,0:0:0:0:
256,192,119205,1,8,0:0:0:0:
256,192,119521,1,0,0:0:0:0:
256,192,119758,1,0,0:0:0:0:
256,192,119994,1,8,0:0:0:0:
256,192,120152,1,0,0:0:0:0:
256,192,120310,1,0,0:0:0:0:
256,192,120468,1,8,0:0:0:0:
256,192,120626,1,0,0:0:0:0:
256,192,120705,1,0,0:0:0:0:
256,192,120784,1,0,0:0:0:0:
256,192,120942,1,0,0:0:0:0:
256,192,121100,1,8,0:0:0:0:
256,192,121258,1,8,0:0:0:0:
256,192,121336,1,8,0:0:0:0:
256,192,121415,1,8,0:0:0:0:
256,192,121731,1,8,0:0:0:0:
256,192,121889,1,0,0:0:0:0:
256,192,121968,1,0,0:0:0:0:
256,192,122047,1,0,0:0:0:0:
256,192,122205,1,0,0:0:0:0:
256,192,122363,1,8,0:0:0:0:
256,192,122679,1,8,0:0:0:0:
256,192,122994,1,0,0:0:0:0:
256,192,123152,1,0,0:0:0:0:
256,192,123310,1,8,0:0:0:0:
256,192,123468,1,0,0:0:0:0:
256,192,123626,1,0,0:0:0:0:
256,192,123705,1,0,0:0:0:0:
256,192,123784,1,0,0:0:0:0:
256,192,123942,1,0,0:0:0:0:
256,192,124258,1,8,0:0:0:0:
256,192,124573,1,0,0:0:0:0:
256,192,124731,1,8,0:0:0:0:
256,192,124889,1,0,0:0:0:0:
256,192,125205,1,8,0:0:0:0:
256,192,125520,1,8,0:0:0:0:
256,192,125678,1,0,0:0:0:0:
256,192,125836,1,8,0:0:0:0:
256,192,125994,1,8,0:0:0:0:
256,192,126152,1,0,0:0:0:0:
256,192,126468,1,0,0:0:0:0:
256,192,126705,1,8,0:0:0:0:
256,192,126941,1,8,0:0:0:0:
256,192,127099,1,0,0:0:0:0:
256,192,127336,1,8,0:0:0:0:
256,192,127573,1,0,0:0:0:0:
256,192,127731,1,8,0:0:0:0:
256,192,127889,1,0,0:0:0:0:
256,192,127968,1,0,0:0:0:0:
256,192,128047,1,0,0:0:0:0:
256,192,128205,1,0,0:0:0:0:
256,192,128363,1,8,0:0:0:0:
256,192,128520,1,8,0:0:0:0:
256,192,128599,1,8,0:0:0:0:
256,192,128678,1,8,0:0:0:0:
256,192,128836,1,8,0:0:0:0:
256,192,128994,1,0,0:0:0:0:
256,192,129310,1,8,0:0:0:0:
256,192,129626,1,0,0:0:0:0:
256,192,129863,1,0,0:0:0:0:
256,192,130099,1,8,0:0:0:0:
256,192,130257,1,0,0:0:0:0:
256,192,130415,1,0,0:0:0:0:
256,192,130573,1,8,0:0:0:0:
256,192,130731,1,0,0:0:0:0:
256,192,130810,1,0,0:0:0:0:
256,192,130889,1,0,0:0:0:0:
256,192,131047,1,0,0:0:0:0:
256,192,131205,1,8,0:0:0:0:
256,192,131363,1,8,0:0:0:0:
256,192,131441,1,8,0:0:0:0:
256,192,131520,1,8,0:0:0:0:
256,192,131836,1,8,0:0:0:0:
256,192,131994,1,0,0:0:0:0:
256,192,132073,1,0,0:0:0:0:
256,192,132152,1,0,0:0:0:0:
256,192,132310,1,0,0:0:0:0:
256,192,132468,1,8,0:0:0:0:
256,192,132784,1,8,0:0:0:0:
256,192,133099,1,0,0:0:0:0:
256,192,133257,1,0,0:0:0:0:
256,192,133415,1,8,0:0:0:0:
256,192,133573,1,0,0:0:0:0:
256,192,133731,1,0,0:0:0:0:
256,192,133810,1,0,0:0:0:0:
256,192,133889,1,0,0:0:0:0:
256,192,134363,1,12,0:0:0:0:
256,192,134678,1,0,0:0:0:0:
256,192,134836,1,8,0:0:0:0:
256,192,134994,1,0,0:0:0:0:
256,192,135310,1,8,0:0:0:0:
256,192,135625,1,8,0:0:0:0:
256,192,135783,1,0,0:0:0:0:
256,192,135941,1,8,0:0:0:0:
256,192,136099,1,8,0:0:0:0:
256,192,136257,1,0,0:0:0:0:
256,192,136573,1,0,0:0:0:0:
256,192,136810,1,8,0:0:0:0:
256,192,137046,1,8,0:0:0:0:
256,192,137204,1,0,0:0:0:0:
256,192,137441,1,8,0:0:0:0:
256,192,137678,1,0,0:0:0:0:
256,192,137836,1,8,0:0:0:0:
256,192,137994,1,0,0:0:0:0:
256,192,138073,1,0,0:0:0:0:
256,192,138152,1,0,0:0:0:0:
256,192,138310,1,0,0:0:0:0:
256,192,138468,1,8,0:0:0:0:
256,192,138625,1,8,0:0:0:0:
256,192,138704,1,8,0:0:0:0:
256,192,138783,1,8,0:0:0:0:
256,192,138941,1,8,0:0:0:0:
256,192,139099,1,0,0:0:0:0:
256,192,139415,1,8,0:0:0:0:
256,192,139731,1,0,0:0:0:0:
256,192,139968,1,0,0:0:0:0:
256,192,140204,1,8,0:0:0:0:
256,192,140362,1,0,0:0:0:0:
256,192,140520,1,0,0:0:0:0:
256,192,140678,1,8,0:0:0:0:
256,192,140836,1,0,0:0:0:0:
256,192,140915,1,0,0:0:0:0:
256,192,140994,1,0,0:0:0:0:
256,192,141152,1,0,0:0:0:0:
256,192,141310,1,8,0:0:0:0:
256,192,141468,1,8,0:0:0:0:
256,192,141546,1,8,0:0:0:0:
256,192,141625,1,8,0:0:0:0:
256,192,141941,1,8,0:0:0:0:
256,192,142099,1,0,0:0:0:0:
256,192,142178,1,0,0:0:0:0:
256,192,142257,1,0,0:0:0:0:
256,192,142415,1,0,0:0:0:0:
256,192,142573,1,8,0:0:0:0:
256,192,142889,1,8,0:0:0:0:
256,192,143204,5,0,0:0:0:0:
256,192,143362,1,0,0:0:0:0:
256,192,143520,1,8,0:0:0:0:
256,192,143678,1,0,0:0:0:0:
256,192,143836,1,0,0:0:0:0:
256,192,143915,1,0,0:0:0:0:
256,192,143994,1,0,0:0:0:0:
256,192,144153,5,4,0:0:0:0:
256,192,144784,1,0,0:0:0:0:
256,192,145100,1,0,0:0:0:0:
256,192,145205,1,0,0:0:0:0:
256,192,145310,1,0,0:0:0:0:
256,192,145416,1,0,0:0:0:0:
256,192,146047,1,0,0:0:0:0:
256,192,146363,1,0,0:0:0:0:
256,192,146468,1,0,0:0:0:0:
256,192,146574,1,0,0:0:0:0:
256,192,146679,1,0,0:0:0:0:
256,192,146995,1,0,0:0:0:0:
256,192,147310,1,8,0:0:0:0:
256,192,147942,1,8,0:0:0:0:
256,192,148258,1,0,0:0:0:0:
256,192,148574,1,8,0:0:0:0:
256,192,149205,1,8,0:0:0:0:
256,192,149521,1,0,0:0:0:0:
256,192,149837,1,0,0:0:0:0:
256,192,150153,1,8,0:0:0:0:
256,192,150468,1,8,0:0:0:0:
256,192,151100,1,8,0:0:0:0:
256,192,151731,1,0,0:0:0:0:
256,192,152047,1,8,0:0:0:0:
256,192,152363,1,0,0:0:0:0:
256,192,152679,1,0,0:0:0:0:
256,192,152995,1,0,0:0:0:0:
256,192,153626,1,8,0:0:0:0:
