osu file format v14

[General]
AudioFilename: audio.mp3
AudioLeadIn: 0
PreviewTime: -1
Countdown: 0
SampleSet: Normal
StackLeniency: 0.7
Mode: 1
LetterboxInBreaks: 0
WidescreenStoryboard: 1

[Editor]
Bookmarks: 7731,22889,43100,63310,83521,104047,144153
DistanceSpacing: 4
BeatDivisor: 6
GridSize: 32
TimelineZoom: 2.599999

[Metadata]
Title:Antares
TitleUnicode:Antares
Artist:Luca
ArtistUnicode:루카
Creator:Bedwyr Aorta
Version:Poii's Futsuu
Source:
Tags:
BeatmapID:1815250
BeatmapSetID:867419

[Difficulty]
HPDrainRate:7
CircleSize:4
OverallDifficulty:3.5
ApproachRate:5
SliderMultiplier:1.4
SliderTickRate:1

[Events]
//Background and Video events
0,0,"antares_bg.png",0,0
//Break Periods
//Storyboard Layer 0 (Background)
//Storyboard Layer 1 (Fail)
//Storyboard Layer 2 (Pass)
//Storyboard Layer 3 (Foreground)
//Storyboard Sound Samples

[TimingPoints]
153,315.789473684211,4,1,0,60,1,0
104047,-100,4,1,0,60,0,1
113679,-100,4,1,0,60,0,0
114153,-100,4,1,0,60,0,1
123310,-100,4,1,0,60,0,0
123942,-100,4,1,0,60,0,1
144153,-100,4,1,0,60,0,0
144784,-100,4,1,0,30,0,0

[HitObjects]
256,192,153,5,0,0:0:0:0:
256,192,784,1,0,0:0:0:0:
256,192,1416,1,8,0:0:0:0:
256,192,2047,1,0,0:0:0:0:
256,192,2679,1,0,0:0:0:0:
256,192,3310,1,8,0:0:0:0:
256,192,3942,1,8,0:0:0:0:
256,192,5205,1,8,0:0:0:0:
256,192,6153,1,8,0:0:0:0:
256,192,6310,1,8,0:0:0:0:
256,192,6468,1,0,0:0:0:0:
256,192,7100,1,8,0:0:0:0:
256,192,7731,1,0,0:0:0:0:
256,192,8047,12,0,9942,0:0:0:0:
256,192,10258,5,8,0:0:0:0:
256,192,10731,1,8,0:0:0:0:
256,192,11205,1,8,0:0:0:0:
256,192,11679,1,0,0:0:0:0:
256,192,12153,1,0,0:0:0:0:
256,192,12468,1,0,0:0:0:0:
256,192,12784,1,8,0:0:0:0:
256,192,13258,1,8,0:0:0:0:
256,192,13731,1,8,0:0:0:0:
256,192,14205,1,0,0:0:0:0:
256,192,14679,1,8,0:0:0:0:
256,192,14995,1,8,0:0:0:0:
256,192,15310,1,0,0:0:0:0:
256,192,15784,1,0,0:0:0:0:
256,192,16574,1,8,0:0:0:0:
256,192,17047,1,8,0:0:0:0:
256,192,17837,1,4,0:0:0:0:
256,192,20363,1,4,0:0:0:0:
256,192,21626,1,0,0:0:0:0:
256,192,21942,1,0,0:0:0:0:
256,192,22258,1,8,0:0:0:0:
256,192,22574,1,8,0:0:0:0:
256,192,22731,1,8,0:0:0:0:
256,192,22889,5,0,0:0:0:0:
256,192,23205,1,0,0:0:0:0:
256,192,23363,1,8,0:0:0:0:
256,192,23837,1,8,0:0:0:0:
256,192,24153,1,0,0:0:0:0:
256,192,24310,1,0,0:0:0:0:
256,192,24468,1,8,0:0:0:0:
256,192,24784,1,8,0:0:0:0:
256,192,25100,1,8,0:0:0:0:
256,192,25416,1,0,0:0:0:0:
256,192,25574,1,0,0:0:0:0:
256,192,25889,1,8,0:0:0:0:
256,192,26363,1,0,0:0:0:0:
256,192,26521,1,8,0:0:0:0:
256,192,26837,1,0,0:0:0:0:
256,192,26995,1,8,0:0:0:0:
256,192,27153,1,0,0:0:0:0:
256,192,27942,1,0,0:0:0:0:
256,192,28258,1,0,0:0:0:0:
256,192,28416,1,0,0:0:0:0:
256,192,28889,1,8,0:0:0:0:
256,192,29205,1,0,0:0:0:0:
256,192,29363,1,0,0:0:0:0:
256,192,29521,1,8,0:0:0:0:
256,192,29837,1,0,0:0:0:0:
256,192,30153,1,8,0:0:0:0:
256,192,30468,1,8,0:0:0:0:
256,192,30784,1,0,0:0:0:0:
256,192,30942,1,0,0:0:0:0:
256,192,31100,1,8,0:0:0:0:
256,192,31416,1,0,0:0:0:0:
256,192,31574,1,8,0:0:0:0:
256,192,31731,1,8,0:0:0:0:
256,192,32047,1,8,0:0:0:0:
256,192,32363,1,0,0:0:0:0:
256,192,32995,1,8,0:0:0:0:
256,192,33310,1,0,0:0:0:0:
256,192,33468,1,8,0:0:0:0:
256,192,33784,1,8,0:0:0:0:
256,192,34100,1,4,0:0:0:0:
256,192,34416,1,0,0:0:0:0:
256,192,34574,1,0,0:0:0:0:
256,192,34889,1,0,0:0:0:0:
256,192,35521,1,8,0:0:0:0:
256,192,35837,1,0,0:0:0:0:
256,192,35995,1,8,0:0:0:0:
256,192,36310,1,8,0:0:0:0:
256,192,36626,1,4,0:0:0:0:
256,192,36942,1,0,0:0:0:0:
256,192,37100,1,8,0:0:0:0:
256,192,37416,1,0,0:0:0:0:
256,192,38047,1,8,0:0:0:0:
256,192,38363,1,0,0:0:0:0:
256,192,38837,1,0,0:0:0:0:
256,192,38995,1,8,0:0:0:0:
256,192,39153,1,0,0:0:0:0:
256,192,39626,1,0,0:0:0:0:
256,192,39942,1,0,0:0:0:0:
256,192,40258,1,8,0:0:0:0:
256,192,40574,1,8,0:0:0:0:
256,192,41837,1,8,0:0:0:0:
256,192,43100,1,4,0:0:0:0:
256,192,45626,1,0,0:0:0:0:
256,192,48153,1,0,0:0:0:0:
256,192,48468,1,8,0:0:0:0:
256,192,48784,1,0,0:0:0:0:
256,192,49100,1,8,0:0:0:0:
256,192,50679,1,0,0:0:0:0:
256,192,51310,1,8,0:0:0:0:
256,192,51942,1,0,0:0:0:0:
256,192,53205,1,0,0:0:0:0:
256,192,54468,1,8,0:0:0:0:
256,192,55731,1,0,0:0:0:0:
256,192,56205,1,0,0:0:0:0:
256,192,56995,1,8,0:0:0:0:
256,192,58100,1,0,0:0:0:0:
256,192,58258,1,0,0:0:0:0:
256,192,59521,1,8,0:0:0:0:
256,192,60784,1,0,0:0:0:0:
256,192,61258,1,0,0:0:0:0:
256,192,61731,1,8,0:0:0:0:
256,192,62047,1,0,0:0:0:0:
256,192,62521,1,0,0:0:0:0:
256,192,62837,1,8,0:0:0:0:
256,192,62995,1,0,0:0:0:0:
256,192,63310,1,0,0:0:0:0:
256,192,63784,1,8,0:0:0:0:
256,192,64100,1,0,0:0:0:0:
256,192,64258,1,0,0:0:0:0:
256,192,64416,1,0,0:0:0:0:
256,192,64574,1,8,0:0:0:0:
256,192,65047,1,8,0:0:0:0:
256,192,65363,1,0,0:0:0:0:
256,192,65521,1,0,0:0:0:0:
256,192,65679,1,8,0:0:0:0:
256,192,65837,1,8,0:0:0:0:
256,192,66310,1,0,0:0:0:0:
256,192,66626,1,8,0:0:0:0:
256,192,66784,1,0,0:0:0:0:
256,192,66942,1,0,0:0:0:0:
256,192,67100,1,8,0:0:0:0:
256,192,67416,1,8,0:0:0:0:
256,192,67731,1,0,0:0:0:0:
256,192,68363,1,0,0:0:0:0:
256,192,68837,1,8,0:0:0:0:
256,192,69153,1,0,0:0:0:0:
256,192,69310,1,0,0:0:0:0:
256,192,69468,1,0,0:0:0:0:
256,192,69627,1,8,0:0:0:0:
256,192,70100,1,8,0:0:0:0:
256,192,70416,1,8,0:0:0:0:
256,192,70574,1,8,0:0:0:0:
256,192,70731,1,0,0:0:0:0:
256,192,70890,1,0,0:0:0:0:
256,192,71205,1,8,0:0:0:0:
256,192,71363,1,0,0:0:0:0:
256,192,71679,1,8,0:0:0:0:
256,192,71995,1,8,0:0:0:0:
256,192,72153,1,0,0:0:0:0:
256,192,72468,1,0,0:0:0:0:
256,192,72784,1,8,0:0:0:0:
256,192,73416,1,0,0:0:0:0:
256,192,73890,1,8,0:0:0:0:
256,192,74205,1,0,0:0:0:0:
256,192,74363,1,0,0:0:0:0:
256,192,74521,1,0,0:0:0:0:
256,192,74680,1,8,0:0:0:0:
256,192,75153,1,8,0:0:0:0:
256,192,75468,1,0,0:0:0:0:
256,192,75626,1,0,0:0:0:0:
256,192,75784,1,8,0:0:0:0:
256,192,75943,1,8,0:0:0:0:
256,192,76258,1,8,0:0:0:0:
256,192,76574,1,0,0:0:0:0:
256,192,76889,1,0,0:0:0:0:
256,192,77205,1,8,0:0:0:0:
256,192,77679,1,0,0:0:0:0:
256,192,78153,1,8,0:0:0:0:
256,192,78784,1,4,0:0:0:0:
256,192,79100,1,0,0:0:0:0:
256,192,79258,1,0,0:0:0:0:
256,192,79416,1,8,0:0:0:0:
256,192,79731,1,8,0:0:0:0:
256,192,80363,1,0,0:0:0:0:
256,192,80521,1,8,0:0:0:0:
256,192,80679,1,8,0:0:0:0:
256,192,80995,1,8,0:0:0:0:
256,192,81310,1,0,0:0:0:0:
256,192,81626,1,0,0:0:0:0:
256,192,81784,1,0,0:0:0:0:
256,192,81942,1,8,0:0:0:0:
256,192,82258,1,0,0:0:0:0:
256,192,82889,1,8,0:0:0:0:
256,192,83521,1,4,0:0:0:0:
256,192,86047,1,0,0:0:0:0:
256,192,88574,1,0,0:0:0:0:
256,192,91100,1,0,0:0:0:0:
256,192,91731,1,8,0:0:0:0:
256,192,92363,1,0,0:0:0:0:
256,192,93626,1,0,0:0:0:0:
256,192,94258,1,0,0:0:0:0:
256,192,94889,1,8,0:0:0:0:
256,192,95521,1,8,0:0:0:0:
256,192,96153,1,0,0:0:0:0:
256,192,97416,1,8,0:0:0:0:
256,192,98047,1,8,0:0:0:0:
256,192,98679,1,0,0:0:0:0:
256,192,99942,1,8,0:0:0:0:
224,192,100574,1,8,0:0:0:0:
256,192,101205,1,0,0:0:0:0:
256,192,101837,1,0,0:0:0:0:
256,192,102468,1,8,0:0:0:0:
256,192,102784,1,0,0:0:0:0:
256,192,103100,1,8,0:0:0:0:
256,192,103258,1,8,0:0:0:0:
256,192,103416,1,8,0:0:0:0:
256,192,103574,1,8,0:0:0:0:
256,192,104047,1,12,0:0:0:0:
256,192,104363,1,0,0:0:0:0:
256,192,104521,1,0,0:0:0:0:
256,192,104679,1,8,0:0:0:0:
256,192,104995,1,0,0:0:0:0:
256,192,105310,1,8,0:0:0:0:
256,192,105626,1,8,0:0:0:0:
256,192,105784,1,0,0:0:0:0:
256,192,105942,1,0,0:0:0:0:
256,192,106258,1,0,0:0:0:0:
256,192,106574,1,0,0:0:0:0:
256,192,106731,1,8,0:0:0:0:
256,192,106889,1,0,0:0:0:0:
256,192,107205,1,8,0:0:0:0:
256,192,107521,1,0,0:0:0:0:
256,192,108468,1,0,0:0:0:0:
256,192,108784,1,0,0:0:0:0:
256,192,109100,1,12,0:0:0:0:
256,192,109416,1,0,0:0:0:0:
256,192,109574,1,0,0:0:0:0:
256,192,109732,1,8,0:0:0:0:
256,192,110048,1,0,0:0:0:0:
256,192,110363,1,8,0:0:0:0:
256,192,110679,1,8,0:0:0:0:
256,192,110995,1,0,0:0:0:0:
256,192,111153,1,8,0:0:0:0:
256,192,111311,1,0,0:0:0:0:
256,192,111626,1,0,0:0:0:0:
256,192,111942,1,8,0:0:0:0:
256,192,112258,1,0,0:0:0:0:
256,192,112416,1,8,0:0:0:0:
256,192,112574,1,0,0:0:0:0:
256,192,112889,1,0,0:0:0:0:
256,192,113205,1,8,0:0:0:0:
256,192,114153,1,12,0:0:0:0:
256,192,114468,1,0,0:0:0:0:
256,192,114626,1,0,0:0:0:0:
256,192,114784,1,8,0:0:0:0:
256,192,115100,1,0,0:0:0:0:
256,192,115415,1,8,0:0:0:0:
256,192,115731,1,8,0:0:0:0:
256,192,115889,1,0,0:0:0:0:
256,192,116047,1,0,0:0:0:0:
256,192,116363,1,0,0:0:0:0:
256,192,116994,1,8,0:0:0:0:
256,192,117153,1,0,0:0:0:0:
256,192,117310,1,0,0:0:0:0:
256,192,117626,1,8,0:0:0:0:
256,192,117942,1,8,0:0:0:0:
256,192,118100,1,8,0:0:0:0:
256,192,118258,1,0,0:0:0:0:
256,192,119206,1,12,0:0:0:0:
256,192,119521,1,0,0:0:0:0:
256,192,119679,1,0,0:0:0:0:
256,192,119837,1,8,0:0:0:0:
256,192,120153,1,0,0:0:0:0:
256,192,120468,1,8,0:0:0:0:
256,192,120784,1,8,0:0:0:0:
256,192,121100,1,0,0:0:0:0:
256,192,121258,1,8,0:0:0:0:
256,192,121416,1,0,0:0:0:0:
256,192,121731,1,0,0:0:0:0:
256,192,122047,1,8,0:0:0:0:
256,192,122363,1,0,0:0:0:0:
256,192,122521,1,8,0:0:0:0:
256,192,122679,1,0,0:0:0:0:
256,192,122994,1,0,0:0:0:0:
256,192,123310,1,8,0:0:0:0:
256,192,123942,1,0,0:0:0:0:
256,192,124258,1,8,0:0:0:0:
256,192,124574,1,8,0:0:0:0:
256,192,124731,1,0,0:0:0:0:
256,192,124889,1,0,0:0:0:0:
256,192,125205,1,0,0:0:0:0:
256,192,125521,1,8,0:0:0:0:
256,192,125837,1,0,0:0:0:0:
256,192,125995,1,0,0:0:0:0:
256,192,126153,1,8,0:0:0:0:
256,192,126468,1,8,0:0:0:0:
256,192,127100,1,0,0:0:0:0:
256,192,127416,1,0,0:0:0:0:
256,192,127731,1,8,0:0:0:0:
256,192,128047,1,8,0:0:0:0:
256,192,128205,1,8,0:0:0:0:
256,192,128363,1,8,0:0:0:0:
256,192,128679,1,8,0:0:0:0:
256,192,128995,1,0,0:0:0:0:
256,192,129153,1,0,0:0:0:0:
256,192,129310,1,8,0:0:0:0:
256,192,130258,1,8,0:0:0:0:
256,192,130574,1,0,0:0:0:0:
256,192,130731,1,8,0:0:0:0:
256,192,130889,1,0,0:0:0:0:
256,192,131205,1,0,0:0:0:0:
256,192,131521,1,8,0:0:0:0:
256,192,132153,1,8,0:0:0:0:
256,192,132468,1,0,0:0:0:0:
256,192,132784,12,0,133731,0:0:0:0:
256,192,134047,5,0,0:0:0:0:
256,192,134363,1,8,0:0:0:0:
256,192,134679,1,8,0:0:0:0:
256,192,134836,1,0,0:0:0:0:
256,192,134994,1,0,0:0:0:0:
256,192,135310,1,0,0:0:0:0:
256,192,135626,1,8,0:0:0:0:
256,192,135942,1,0,0:0:0:0:
256,192,136100,1,0,0:0:0:0:
256,192,136258,1,8,0:0:0:0:
256,192,136573,1,8,0:0:0:0:
256,192,137205,1,0,0:0:0:0:
256,192,137521,1,0,0:0:0:0:
256,192,137836,1,8,0:0:0:0:
256,192,138152,1,8,0:0:0:0:
256,192,138310,1,8,0:0:0:0:
256,192,138468,1,8,0:0:0:0:
256,192,138784,1,8,0:0:0:0:
256,192,139100,1,0,0:0:0:0:
256,192,139258,1,0,0:0:0:0:
256,192,139415,1,8,0:0:0:0:
256,192,140363,1,8,0:0:0:0:
256,192,140679,1,0,0:0:0:0:
256,192,140836,1,8,0:0:0:0:
256,192,140994,1,0,0:0:0:0:
256,192,141310,1,0,0:0:0:0:
256,192,141626,1,8,0:0:0:0:
256,192,142258,1,8,0:0:0:0:
256,192,142573,1,0,0:0:0:0:
256,192,142889,1,0,0:0:0:0:
256,192,143205,1,8,0:0:0:0:
256,192,143363,1,8,0:0:0:0:
256,192,143521,1,0,0:0:0:0:
256,192,143837,1,8,0:0:0:0:
256,192,144153,1,0,0:0:0:0:
256,192,144784,5,0,0:0:0:0:
256,192,145416,1,8,0:0:0:0:
256,192,146047,1,0,0:0:0:0:
256,192,146679,1,8,0:0:0:0:
256,192,147310,1,8,0:0:0:0:
256,192,147942,1,0,0:0:0:0:
256,192,148574,1,0,0:0:0:0:
256,192,149205,1,8,0:0:0:0:
256,192,150468,1,8,0:0:0:0:
256,192,151100,1,8,0:0:0:0:
