osu file format v14

[General]
AudioFilename: audio.mp3
AudioLeadIn: 0
PreviewTime: -1
Countdown: 0
SampleSet: Normal
StackLeniency: 0.7
Mode: 1
LetterboxInBreaks: 0
WidescreenStoryboard: 0

[Editor]
Bookmarks: 7731,22889,43100,63310,83521,104047,144153
DistanceSpacing: 3.9
BeatDivisor: 4
GridSize: 32
TimelineZoom: 2.599999

[Metadata]
Title:Antares
TitleUnicode:Antares
Artist:Luca
ArtistUnicode:루카
Creator:Bedwyr Aorta
Version:Inner Oni
Source:
Tags:
BeatmapID:1813349
BeatmapSetID:867419

[Difficulty]
HPDrainRate:6
CircleSize:4
OverallDifficulty:6
ApproachRate:5
SliderMultiplier:1.4
SliderTickRate:1

[Events]
//Background and Video events
0,0,"antares_bg.png",0,0
//Break Periods
//Storyboard Layer 0 (Background)
//Storyboard Layer 1 (Fail)
//Storyboard Layer 2 (Pass)
//Storyboard Layer 3 (Foreground)
//Storyboard Sound Samples

[TimingPoints]
153,315.789473684211,4,1,0,70,1,0
153,-166.666666666667,4,1,0,35,0,0
7731,-125,4,1,0,25,0,0
10258,-142.857142857143,4,1,0,55,0,0
17837,-121.951219512195,4,1,0,75,0,0
17995,-106.382978723404,4,1,0,25,0,0
20363,-92.5925925925926,4,1,0,30,0,0
20468,-89.2857142857143,4,1,0,42,0,0
20574,-86.2068965517241,4,1,0,54,0,0
20679,-83.3333333333333,4,1,0,65,0,0
21626,-147.058823529412,4,1,0,50,0,0
21784,-138.888888888889,4,1,0,50,0,0
21942,-131.578947368421,4,1,0,50,0,0
22100,-125,4,1,0,50,0,0
22258,-119.047619047619,4,1,0,50,0,0
22416,-113.636363636364,4,1,0,50,0,0
22574,-108.695652173913,4,1,0,50,0,0
22731,-104.166666666667,4,1,0,50,0,0
22889,-100,4,1,0,60,0,0
32995,-89.2857142857143,4,1,0,70,0,0
33231,-76.9230769230769,4,1,0,50,0,0
33468,-67.5675675675676,4,1,0,60,0,0
33784,-75.7575757575758,4,1,0,55,0,0
33942,-80.6451612903226,4,1,0,55,0,0
34100,-86.2068965517241,4,1,0,60,0,0
34258,-92.5925925925926,4,1,0,60,0,0
34416,-100,4,1,0,65,0,0
35521,-89.2857142857143,4,1,0,70,0,0
35758,-76.9230769230769,4,1,0,50,0,0
35995,-67.5675675675676,4,1,0,60,0,0
36310,-75.7575757575758,4,1,0,55,0,0
36468,-80.6451612903226,4,1,0,55,0,0
36626,-86.2068965517241,4,1,0,60,0,0
36784,-92.5925925925926,4,1,0,60,0,0
36942,-100,4,1,0,65,0,0
38047,-100,4,1,0,60,0,0
42468,-97.0873786407767,4,1,0,60,0,0
42547,-94.3396226415094,4,1,0,60,0,0
42626,-91.743119266055,4,1,0,60,0,0
42705,-89.2857142857143,4,1,0,60,0,0
42784,-86.9565217391304,4,1,0,60,0,0
42863,-84.7457627118644,4,1,0,60,0,0
42942,-82.6446280991736,4,1,0,60,0,0
43021,-80.6451612903226,4,1,0,60,0,0
43100,-78.7401574803149,4,1,0,65,0,0
43179,-81.9672131147541,4,1,0,40,0,0
43731,-114.942528735632,4,1,0,40,0,0
43889,-120.481927710843,4,1,0,40,0,0
44047,-126.582278481013,4,1,0,40,0,0
44363,-138.888888888889,4,1,0,40,0,0
44679,-153.846153846154,4,1,0,40,0,0
51626,-147.058823529412,4,1,0,40,0,0
51942,-144.927536231884,4,1,0,40,0,0
52258,-142.857142857143,4,1,0,40,0,0
52574,-140.845070422535,4,1,0,40,0,0
52731,-138.888888888889,4,1,0,40,0,0
52889,-136.986301369863,4,1,0,40,0,0
53047,-135.135135135135,4,1,0,40,0,0
53205,-133.333333333333,4,1,0,55,0,0
61731,-131.578947368421,4,1,0,55,0,0
61889,-129.87012987013,4,1,0,55,0,0
62047,-128.205128205128,4,1,0,55,0,0
62363,-125,4,1,0,55,0,0
62521,-123.456790123457,4,1,0,55,0,0
62837,-119.047619047619,4,1,0,55,0,0
62995,-116.279069767442,4,1,0,55,0,0
63074,-114.942528735632,4,1,0,55,0,0
63153,-113.636363636364,4,1,0,55,0,0
63231,-112.359550561798,4,1,0,55,0,0
63310,-111.111111111111,4,1,0,60,0,0
77205,-106.382978723404,4,1,0,70,0,0
77442,-100,4,1,0,70,0,0
77679,-94.3396226415094,4,1,0,70,0,0
77916,-89.2857142857143,4,1,0,70,0,0
78153,-84.7457627118644,4,1,0,70,0,0
78389,-80.6451612903226,4,1,0,70,0,0
78784,-90.9090909090909,4,1,0,65,0,0
79100,-100,4,1,0,65,0,0
83995,-107.52688172043,4,1,0,45,0,0
84784,-125,4,1,0,45,0,0
85258,-136.986301369863,4,1,0,45,0,0
85416,-138.888888888889,4,1,0,45,0,0
85574,-140.845070422535,4,1,0,45,0,0
85731,-142.857142857143,4,1,0,45,0,0
85889,-144.927536231884,4,1,0,45,0,0
86047,-147.058823529412,4,1,0,45,0,0
90468,-144.927536231884,4,1,0,45,0,0
90626,-142.857142857143,4,1,0,45,0,0
90784,-140.845070422535,4,1,0,46,0,0
90942,-138.888888888889,4,1,0,46,0,0
91100,-136.986301369863,4,1,0,47,0,0
91258,-135.135135135135,4,1,0,47,0,0
91416,-133.333333333333,4,1,0,48,0,0
91574,-131.578947368421,4,1,0,48,0,0
91731,-129.87012987013,4,1,0,49,0,0
91810,-128.205128205128,4,1,0,49,0,0
91889,-126.582278481013,4,1,0,50,0,0
91968,-125,4,1,0,50,0,0
92047,-123.456790123457,4,1,0,50,0,0
92126,-121.951219512195,4,1,0,50,0,0
92205,-120.481927710843,4,1,0,50,0,0
92284,-119.047619047619,4,1,0,50,0,0
92363,-117.647058823529,4,1,0,50,0,0
99310,-116.279069767442,4,1,0,51,0,0
99942,-114.942528735632,4,1,0,51,0,0
100574,-113.636363636364,4,1,0,52,0,0
101521,-112.359550561798,4,1,0,53,0,0
101837,-111.111111111111,4,1,0,53,0,0
102153,-109.89010989011,4,1,0,53,0,0
102468,-108.695652173913,4,1,0,53,0,0
102784,-107.52688172043,4,1,0,53,0,0
103100,-106.382978723404,4,1,0,54,0,0
103179,-105.263157894737,4,1,0,54,0,0
103258,-104.166666666667,4,1,0,54,0,0
103416,-102.040816326531,4,1,0,55,0,0
103495,-101.010101010101,4,1,0,55,0,0
103574,-100,4,1,0,55,0,0
103653,-99.009900990099,4,1,0,55,0,0
104047,-100,4,1,0,65,0,1
113679,-100,4,1,0,70,0,0
113758,-100,4,1,0,50,0,0
114153,-100,4,1,0,67,0,1
123310,-100,4,1,0,70,0,0
123468,-98.0392156862745,4,1,0,45,0,0
123626,-96.1538461538461,4,1,0,45,0,0
123784,-94.3396226415094,4,1,0,45,0,0
123942,-92.5925925925926,4,1,0,70,0,1
144153,-95.2380952380952,4,1,0,70,0,0
144231,-100,4,1,0,35,0,0
144468,-109.89010989011,4,1,0,35,0,0
144574,-112.359550561798,4,1,0,35,0,0
144679,-114.942528735632,4,1,0,35,0,0
144784,-117.647058823529,4,1,0,35,0,0
145100,-131.578947368421,4,1,0,35,0,0
145205,-135.135135135135,4,1,0,35,0,0
145310,-138.888888888889,4,1,0,35,0,0
145416,-142.857142857143,4,1,0,35,0,0
145731,-163.934426229508,4,1,0,35,0,0
145836,-169.491525423729,4,1,0,35,0,0
145942,-175.438596491228,4,1,0,35,0,0
146047,-181.818181818182,4,1,0,35,0,0
146363,-200,4,1,0,33,0,0
146468,-208.333333333333,4,1,0,32,0,0
146574,-217.391304347826,4,1,0,31,0,0
146679,-227.272727272727,4,1,0,30,0,0
146995,-243.90243902439,4,1,0,29,0,0
147310,-263.157894736842,4,1,0,28,0,0
147942,-277.777777777778,4,1,0,26,0,0
148258,-285.714285714286,4,1,0,25,0,0
148574,-294.117647058824,4,1,0,24,0,0
149205,-312.5,4,1,0,22,0,0
149521,-322.58064516129,4,1,0,21,0,0
149837,-333.333333333333,4,1,0,20,0,0
150153,-344.827586206897,4,1,0,19,0,0
150468,-357.142857142857,4,1,0,18,0,0
150784,-370.37037037037,4,1,0,17,0,0
151100,-384.615384615385,4,1,0,16,0,0
151731,-400,4,1,0,15,0,0
152047,-416.666666666667,4,1,0,14,0,0
152363,-434.782608695652,4,1,0,13,0,0
152679,-454.545454545455,4,1,0,12,0,0
152995,-476.190476190476,4,1,0,11,0,0
153626,-500,4,1,0,10,0,0

[HitObjects]
256,192,153,5,8,0:0:0:0:
256,192,468,1,0,0:0:0:0:
256,192,784,1,0,0:0:0:0:
256,192,1100,1,8,0:0:0:0:
256,192,1416,1,8,0:0:0:0:
256,192,1731,1,0,0:0:0:0:
256,192,2047,1,8,0:0:0:0:
256,192,2363,1,8,0:0:0:0:
256,192,2679,1,0,0:0:0:0:
256,192,3310,1,8,0:0:0:0:
256,192,3942,1,0,0:0:0:0:
256,192,4574,1,0,0:0:0:0:
256,192,5205,1,8,0:0:0:0:
256,192,5521,1,0,0:0:0:0:
256,192,5837,1,0,0:0:0:0:
256,192,6153,1,8,0:0:0:0:
256,192,6310,1,8,0:0:0:0:
256,192,6468,1,0,0:0:0:0:
256,192,7100,1,8,0:0:0:0:
256,192,7731,12,8,9942,0:0:0:0:
256,192,10258,5,8,0:0:0:0:
256,192,10731,1,8,0:0:0:0:
256,192,11205,1,8,0:0:0:0:
256,192,11679,1,0,0:0:0:0:
256,192,12153,1,0,0:0:0:0:
256,192,12468,1,0,0:0:0:0:
256,192,12784,1,8,0:0:0:0:
256,192,13258,1,8,0:0:0:0:
256,192,13731,1,8,0:0:0:0:
256,192,14205,1,8,0:0:0:0:
256,192,14679,1,8,0:0:0:0:
256,192,14837,1,8,0:0:0:0:
256,192,14995,1,8,0:0:0:0:
256,192,15310,1,0,0:0:0:0:
256,192,15784,1,0,0:0:0:0:
256,192,16574,1,8,0:0:0:0:
256,192,17047,1,8,0:0:0:0:
256,192,17837,1,4,0:0:0:0:
256,192,17995,12,0,20205,0:0:0:0:
256,192,20363,5,0,0:0:0:0:
256,192,20468,1,8,0:0:0:0:
256,192,20574,1,8,0:0:0:0:
256,192,20679,1,0,0:0:0:0:
256,192,21626,5,0,0:0:0:0:
256,192,21784,1,8,0:0:0:0:
256,192,21942,1,0,0:0:0:0:
256,192,22100,1,8,0:0:0:0:
256,192,22258,1,8,0:0:0:0:
256,192,22416,1,0,0:0:0:0:
256,192,22574,1,0,0:0:0:0:
256,192,22731,1,8,0:0:0:0:
256,192,22889,1,0,0:0:0:0:
256,192,23047,1,0,0:0:0:0:
256,192,23205,1,8,0:0:0:0:
256,192,23363,1,0,0:0:0:0:
256,192,23442,1,0,0:0:0:0:
256,192,23521,1,8,0:0:0:0:
256,192,23679,1,0,0:0:0:0:
256,192,23837,1,8,0:0:0:0:
256,192,23995,1,8,0:0:0:0:
256,192,24153,1,0,0:0:0:0:
256,192,24310,1,8,0:0:0:0:
256,192,24389,1,8,0:0:0:0:
256,192,24468,1,8,0:0:0:0:
256,192,24626,1,0,0:0:0:0:
256,192,24942,1,0,0:0:0:0:
256,192,25100,1,8,0:0:0:0:
256,192,25258,1,8,0:0:0:0:
256,192,25416,1,0,0:0:0:0:
256,192,25574,1,8,0:0:0:0:
256,192,25653,1,8,0:0:0:0:
256,192,25731,1,0,0:0:0:0:
256,192,25889,1,8,0:0:0:0:
256,192,26047,1,8,0:0:0:0:
256,192,26205,1,0,0:0:0:0:
256,192,26284,1,8,0:0:0:0:
256,192,26363,1,0,0:0:0:0:
256,192,26521,1,8,0:0:0:0:
256,192,26679,1,0,0:0:0:0:
256,192,26758,1,8,0:0:0:0:
256,192,26837,1,8,0:0:0:0:
256,192,26916,1,8,0:0:0:0:
256,192,26995,1,0,0:0:0:0:
256,192,27153,1,8,0:0:0:0:
256,192,27310,1,8,0:0:0:0:
256,192,27468,1,0,0:0:0:0:
256,192,27547,1,0,0:0:0:0:
256,192,27626,1,8,0:0:0:0:
256,192,27784,1,0,0:0:0:0:
256,192,27942,1,8,0:0:0:0:
256,192,28258,1,8,0:0:0:0:
256,192,28416,1,0,0:0:0:0:
256,192,28574,1,0,0:0:0:0:
256,192,28731,1,8,0:0:0:0:
256,192,28889,1,0,0:0:0:0:
256,192,28968,1,0,0:0:0:0:
256,192,29047,1,0,0:0:0:0:
256,192,29205,1,8,0:0:0:0:
256,192,29363,1,0,0:0:0:0:
256,192,29442,1,8,0:0:0:0:
256,192,29521,1,0,0:0:0:0:
256,192,29600,1,0,0:0:0:0:
256,192,29679,1,8,0:0:0:0:
256,192,29837,1,0,0:0:0:0:
256,192,29995,1,8,0:0:0:0:
256,192,30074,1,8,0:0:0:0:
256,192,30153,1,0,0:0:0:0:
256,192,30231,1,0,0:0:0:0:
256,192,30310,1,8,0:0:0:0:
256,192,30468,1,0,0:0:0:0:
256,192,30626,1,0,0:0:0:0:
256,192,30784,1,8,0:0:0:0:
256,192,31100,1,0,0:0:0:0:
256,192,31179,1,0,0:0:0:0:
256,192,31258,1,8,0:0:0:0:
256,192,31337,1,0,0:0:0:0:
256,192,31416,1,8,0:0:0:0:
256,192,31495,1,8,0:0:0:0:
256,192,31574,1,0,0:0:0:0:
256,192,31653,1,8,0:0:0:0:
256,192,31731,1,0,0:0:0:0:
256,192,31889,1,8,0:0:0:0:
256,192,31968,1,8,0:0:0:0:
256,192,32047,1,0,0:0:0:0:
256,192,32205,1,8,0:0:0:0:
256,192,32363,1,0,0:0:0:0:
256,192,32442,1,0,0:0:0:0:
256,192,32521,1,8,0:0:0:0:
256,192,32600,1,0,0:0:0:0:
256,192,32679,1,8,0:0:0:0:
256,192,32758,1,8,0:0:0:0:
256,192,32837,1,0,0:0:0:0:
256,192,32995,1,12,0:0:0:0:
256,192,33231,1,0,0:0:0:0:
256,192,33468,1,12,0:0:0:0:
256,192,33784,1,8,0:0:0:0:
256,192,33942,1,0,0:0:0:0:
256,192,34100,1,12,0:0:0:0:
256,192,34416,1,8,0:0:0:0:
256,192,34495,1,8,0:0:0:0:
256,192,34574,1,0,0:0:0:0:
256,192,34653,1,0,0:0:0:0:
256,192,34731,1,8,0:0:0:0:
256,192,34810,1,0,0:0:0:0:
256,192,34889,1,8,0:0:0:0:
256,192,34968,1,8,0:0:0:0:
256,192,35047,1,0,0:0:0:0:
256,192,35126,1,8,0:0:0:0:
256,192,35205,1,0,0:0:0:0:
256,192,35284,1,0,0:0:0:0:
256,192,35363,1,8,0:0:0:0:
256,192,35521,1,4,0:0:0:0:
256,192,35758,1,0,0:0:0:0:
256,192,35995,1,12,0:0:0:0:
256,192,36310,1,8,0:0:0:0:
256,192,36468,1,8,0:0:0:0:
256,192,36626,1,4,0:0:0:0:
256,192,36942,1,0,0:0:0:0:
256,192,37021,1,0,0:0:0:0:
256,192,37100,1,8,0:0:0:0:
256,192,37179,1,8,0:0:0:0:
256,192,37257,1,0,0:0:0:0:
256,192,37336,1,8,0:0:0:0:
256,192,37415,1,0,0:0:0:0:
256,192,37494,1,0,0:0:0:0:
256,192,37573,1,8,0:0:0:0:
256,192,37652,1,0,0:0:0:0:
256,192,37731,1,0,0:0:0:0:
256,192,37810,1,0,0:0:0:0:
256,192,37889,1,8,0:0:0:0:
256,192,38047,1,4,0:0:0:0:
256,192,38205,1,0,0:0:0:0:
256,192,38284,1,0,0:0:0:0:
256,192,38363,1,8,0:0:0:0:
256,192,38521,1,0,0:0:0:0:
256,192,38837,1,0,0:0:0:0:
256,192,38995,1,8,0:0:0:0:
256,192,39074,1,8,0:0:0:0:
256,192,39153,1,0,0:0:0:0:
256,192,39310,1,8,0:0:0:0:
256,192,39468,1,0,0:0:0:0:
256,192,39626,1,0,0:0:0:0:
256,192,39784,1,0,0:0:0:0:
256,192,39942,1,8,0:0:0:0:
256,192,40021,1,8,0:0:0:0:
256,192,40100,1,0,0:0:0:0:
256,192,40179,1,0,0:0:0:0:
256,192,40258,1,8,0:0:0:0:
256,192,40337,1,8,0:0:0:0:
256,192,40416,1,0,0:0:0:0:
256,192,40574,1,8,0:0:0:0:
256,192,40889,1,0,0:0:0:0:
256,192,41047,1,8,0:0:0:0:
256,192,41521,1,0,0:0:0:0:
256,192,41679,1,8,0:0:0:0:
256,192,41837,1,8,0:0:0:0:
256,192,41995,1,0,0:0:0:0:
256,192,42153,1,8,0:0:0:0:
256,192,42310,1,0,0:0:0:0:
256,192,42468,1,8,0:0:0:0:
256,192,42547,1,8,0:0:0:0:
256,192,42626,1,8,0:0:0:0:
256,192,42705,1,8,0:0:0:0:
256,192,42784,1,0,0:0:0:0:
256,192,42863,1,0,0:0:0:0:
256,192,42942,1,0,0:0:0:0:
256,192,43021,1,0,0:0:0:0:
256,192,43100,1,12,0:0:0:0:
256,192,43731,1,8,0:0:0:0:
256,192,43889,1,8,0:0:0:0:
256,192,44047,1,0,0:0:0:0:
256,192,44363,1,0,0:0:0:0:
256,192,44679,1,0,0:0:0:0:
256,192,44995,1,8,0:0:0:0:
256,192,45310,1,8,0:0:0:0:
256,192,45626,1,0,0:0:0:0:
256,192,45784,1,8,0:0:0:0:
256,192,45942,1,8,0:0:0:0:
256,192,46100,1,0,0:0:0:0:
256,192,46258,1,8,0:0:0:0:
256,192,46416,1,0,0:0:0:0:
256,192,46574,1,0,0:0:0:0:
256,192,46731,1,0,0:0:0:0:
256,192,46889,1,8,0:0:0:0:
256,192,47205,1,0,0:0:0:0:
256,192,47521,1,8,0:0:0:0:
256,192,47837,1,8,0:0:0:0:
256,192,47995,1,8,0:0:0:0:
256,192,48153,1,0,0:0:0:0:
256,192,48468,1,8,0:0:0:0:
256,192,48626,1,0,0:0:0:0:
256,192,48942,1,0,0:0:0:0:
256,192,49100,1,8,0:0:0:0:
256,192,49416,1,0,0:0:0:0:
256,192,49731,1,8,0:0:0:0:
256,192,49889,1,0,0:0:0:0:
256,192,50047,1,8,0:0:0:0:
256,192,50205,1,8,0:0:0:0:
256,192,50363,1,0,0:0:0:0:
256,192,50521,1,8,0:0:0:0:
256,192,50679,1,0,0:0:0:0:
256,192,50995,1,8,0:0:0:0:
256,192,51153,1,0,0:0:0:0:
256,192,51310,1,8,0:0:0:0:
256,192,51626,1,0,0:0:0:0:
256,192,51942,1,8,0:0:0:0:
256,192,52258,1,8,0:0:0:0:
256,192,52574,1,0,0:0:0:0:
256,192,52731,1,0,0:0:0:0:
256,192,52889,1,8,0:0:0:0:
256,192,53047,1,8,0:0:0:0:
256,192,53205,1,0,0:0:0:0:
256,192,53837,1,8,0:0:0:0:
256,192,54468,1,8,0:0:0:0:
256,192,54626,1,0,0:0:0:0:
256,192,54784,1,0,0:0:0:0:
256,192,54942,1,8,0:0:0:0:
256,192,55100,1,0,0:0:0:0:
256,192,55416,1,0,0:0:0:0:
256,192,55574,1,8,0:0:0:0:
256,192,55731,1,0,0:0:0:0:
256,192,56205,1,0,0:0:0:0:
256,192,56363,1,8,0:0:0:0:
256,192,56995,1,8,0:0:0:0:
256,192,57153,1,8,0:0:0:0:
256,192,57310,1,0,0:0:0:0:
256,192,57468,1,8,0:0:0:0:
256,192,57626,1,0,0:0:0:0:
256,192,57784,1,0,0:0:0:0:
256,192,57942,1,8,0:0:0:0:
256,192,58100,1,0,0:0:0:0:
256,192,58179,1,0,0:0:0:0:
256,192,58258,1,0,0:0:0:0:
256,192,58889,1,8,0:0:0:0:
256,192,59521,1,8,0:0:0:0:
256,192,59837,1,8,0:0:0:0:
256,192,60153,1,0,0:0:0:0:
256,192,60468,1,8,0:0:0:0:
256,192,60784,1,0,0:0:0:0:
256,192,61258,1,0,0:0:0:0:
256,192,61731,1,8,0:0:0:0:
256,192,61889,1,8,0:0:0:0:
256,192,62047,1,0,0:0:0:0:
256,192,62363,1,8,0:0:0:0:
256,192,62521,1,0,0:0:0:0:
256,192,62837,1,8,0:0:0:0:
256,192,62995,1,0,0:0:0:0:
256,192,63074,1,0,0:0:0:0:
256,192,63153,1,0,0:0:0:0:
256,192,63231,1,0,0:0:0:0:
256,192,63310,1,8,0:0:0:0:
256,192,63468,1,0,0:0:0:0:
256,192,63784,1,0,0:0:0:0:
256,192,64021,1,0,0:0:0:0:
256,192,64258,1,0,0:0:0:0:
256,192,64337,1,0,0:0:0:0:
256,192,64416,1,8,0:0:0:0:
256,192,64495,1,0,0:0:0:0:
256,192,64574,1,8,0:0:0:0:
256,192,64731,1,0,0:0:0:0:
256,192,65047,1,8,0:0:0:0:
256,192,65284,1,0,0:0:0:0:
256,192,65521,1,8,0:0:0:0:
256,192,65600,1,8,0:0:0:0:
256,192,65679,1,0,0:0:0:0:
256,192,65758,1,8,0:0:0:0:
256,192,65837,1,0,0:0:0:0:
256,192,65995,1,8,0:0:0:0:
256,192,66310,1,0,0:0:0:0:
256,192,66547,1,0,0:0:0:0:
256,192,66626,1,0,0:0:0:0:
256,192,66784,1,8,0:0:0:0:
256,192,67021,1,0,0:0:0:0:
256,192,67100,1,8,0:0:0:0:
256,192,67258,1,0,0:0:0:0:
256,192,67416,1,8,0:0:0:0:
256,192,67574,1,0,0:0:0:0:
256,192,67653,1,0,0:0:0:0:
256,192,67731,1,8,0:0:0:0:
256,192,67889,1,0,0:0:0:0:
256,192,68047,1,8,0:0:0:0:
256,192,68126,1,0,0:0:0:0:
256,192,68205,1,0,0:0:0:0:
256,192,68284,1,0,0:0:0:0:
256,192,68363,1,8,0:0:0:0:
256,192,68521,1,0,0:0:0:0:
256,192,68837,1,0,0:0:0:0:
256,192,69074,1,0,0:0:0:0:
256,192,69310,1,0,0:0:0:0:
256,192,69389,1,0,0:0:0:0:
256,192,69468,1,8,0:0:0:0:
256,192,69547,1,8,0:0:0:0:
256,192,69626,1,0,0:0:0:0:
256,192,69784,1,8,0:0:0:0:
256,192,70100,1,8,0:0:0:0:
256,192,70337,1,0,0:0:0:0:
256,192,70574,1,8,0:0:0:0:
256,192,70731,1,8,0:0:0:0:
256,192,70810,1,8,0:0:0:0:
256,192,70889,1,8,0:0:0:0:
256,192,71205,1,8,0:0:0:0:
256,192,71363,1,0,0:0:0:0:
256,192,71600,1,0,0:0:0:0:
256,192,71679,1,0,0:0:0:0:
256,192,71837,1,8,0:0:0:0:
256,192,71995,1,0,0:0:0:0:
256,192,72074,1,0,0:0:0:0:
256,192,72153,1,0,0:0:0:0:
256,192,72310,1,0,0:0:0:0:
256,192,72468,1,8,0:0:0:0:
256,192,72626,1,0,0:0:0:0:
256,192,72784,1,8,0:0:0:0:
256,192,72863,1,0,0:0:0:0:
256,192,72942,1,8,0:0:0:0:
256,192,73021,1,8,0:0:0:0:
256,192,73100,1,0,0:0:0:0:
256,192,73179,1,8,0:0:0:0:
256,192,73258,1,0,0:0:0:0:
256,192,73337,1,0,0:0:0:0:
256,192,73416,1,8,0:0:0:0:
256,192,73889,1,0,0:0:0:0:
256,192,74126,1,0,0:0:0:0:
256,192,74363,1,8,0:0:0:0:
256,192,74521,1,0,0:0:0:0:
256,192,74600,1,0,0:0:0:0:
256,192,74679,1,8,0:0:0:0:
256,192,75153,1,8,0:0:0:0:
256,192,75389,1,0,0:0:0:0:
256,192,75626,1,8,0:0:0:0:
256,192,75784,1,0,0:0:0:0:
256,192,75863,1,0,0:0:0:0:
256,192,75942,1,0,0:0:0:0:
256,192,76100,1,8,0:0:0:0:
256,192,76258,1,8,0:0:0:0:
256,192,76416,1,0,0:0:0:0:
256,192,76495,1,0,0:0:0:0:
256,192,76574,1,8,0:0:0:0:
256,192,76731,1,0,0:0:0:0:
256,192,76810,1,8,0:0:0:0:
256,192,76889,1,0,0:0:0:0:
256,192,76968,1,0,0:0:0:0:
256,192,77047,1,8,0:0:0:0:
256,192,77205,1,4,0:0:0:0:
256,192,77442,1,4,0:0:0:0:
256,192,77679,1,12,0:0:0:0:
256,192,77916,1,12,0:0:0:0:
256,192,78153,1,4,0:0:0:0:
256,192,78389,1,4,0:0:0:0:
256,192,78784,1,12,0:0:0:0:
256,192,79100,1,0,0:0:0:0:
256,192,79258,1,0,0:0:0:0:
256,192,79416,1,8,0:0:0:0:
256,192,79574,1,0,0:0:0:0:
256,192,79731,1,8,0:0:0:0:
256,192,79810,1,8,0:0:0:0:
256,192,79889,1,0,0:0:0:0:
256,192,79968,1,0,0:0:0:0:
256,192,80047,1,8,0:0:0:0:
256,192,80205,1,0,0:0:0:0:
256,192,80284,1,8,0:0:0:0:
256,192,80363,1,0,0:0:0:0:
256,192,80442,1,0,0:0:0:0:
256,192,80521,1,8,0:0:0:0:
256,192,80600,1,0,0:0:0:0:
256,192,80679,1,8,0:0:0:0:
256,192,80758,1,8,0:0:0:0:
256,192,80837,1,0,0:0:0:0:
256,192,80916,1,8,0:0:0:0:
256,192,80995,1,0,0:0:0:0:
256,192,81153,1,8,0:0:0:0:
256,192,81310,1,0,0:0:0:0:
256,192,81389,1,8,0:0:0:0:
256,192,81468,1,0,0:0:0:0:
256,192,81547,1,0,0:0:0:0:
256,192,81626,1,8,0:0:0:0:
256,192,81705,1,8,0:0:0:0:
256,192,81784,1,0,0:0:0:0:
256,192,81863,1,8,0:0:0:0:
256,192,81942,1,0,0:0:0:0:
256,192,82021,1,0,0:0:0:0:
256,192,82100,1,8,0:0:0:0:
256,192,82179,1,0,0:0:0:0:
256,192,82258,1,8,0:0:0:0:
256,192,82416,1,0,0:0:0:0:
256,192,82495,1,8,0:0:0:0:
256,192,82574,1,8,0:0:0:0:
256,192,82653,1,8,0:0:0:0:
256,192,82731,1,0,0:0:0:0:
256,192,82889,1,8,0:0:0:0:
256,192,82968,1,0,0:0:0:0:
256,192,83047,1,8,0:0:0:0:
256,192,83205,1,8,0:0:0:0:
256,192,83284,1,0,0:0:0:0:
256,192,83363,1,8,0:0:0:0:
256,192,83521,1,4,0:0:0:0:
256,192,83995,1,8,0:0:0:0:
256,192,84784,1,8,0:0:0:0:
256,192,85258,1,0,0:0:0:0:
256,192,85416,1,8,0:0:0:0:
256,192,85574,1,8,0:0:0:0:
256,192,85731,1,0,0:0:0:0:
256,192,85889,1,0,0:0:0:0:
256,192,86047,1,0,0:0:0:0:
256,192,86521,1,8,0:0:0:0:
256,192,87310,1,8,0:0:0:0:
256,192,87784,1,0,0:0:0:0:
256,192,87942,1,8,0:0:0:0:
256,192,88100,1,0,0:0:0:0:
256,192,88258,1,8,0:0:0:0:
256,192,88416,1,8,0:0:0:0:
256,192,88574,1,0,0:0:0:0:
256,192,88889,1,0,0:0:0:0:
256,192,89047,1,8,0:0:0:0:
256,192,89363,1,0,0:0:0:0:
256,192,89521,1,8,0:0:0:0:
256,192,89679,1,0,0:0:0:0:
256,192,89837,1,0,0:0:0:0:
256,192,90153,1,8,0:0:0:0:
256,192,90468,1,0,0:0:0:0:
256,192,90626,1,8,0:0:0:0:
256,192,90784,1,0,0:0:0:0:
256,192,90942,1,8,0:0:0:0:
256,192,91100,1,8,0:0:0:0:
256,192,91258,1,0,0:0:0:0:
256,192,91416,1,8,0:0:0:0:
256,192,91574,1,0,0:0:0:0:
256,192,91731,1,8,0:0:0:0:
256,192,91810,1,8,0:0:0:0:
256,192,91889,1,0,0:0:0:0:
256,192,91968,1,0,0:0:0:0:
256,192,92047,1,8,0:0:0:0:
256,192,92126,1,0,0:0:0:0:
256,192,92205,1,8,0:0:0:0:
256,192,92284,1,8,0:0:0:0:
256,192,92363,1,0,0:0:0:0:
256,192,92995,1,0,0:0:0:0:
256,192,93626,1,12,0:0:0:0:
256,192,93942,1,0,0:0:0:0:
256,192,94258,1,8,0:0:0:0:
256,192,94416,1,0,0:0:0:0:
256,192,94574,1,0,0:0:0:0:
256,192,94731,1,8,0:0:0:0:
256,192,94889,1,8,0:0:0:0:
256,192,95205,1,0,0:0:0:0:
256,192,95521,1,8,0:0:0:0:
256,192,95679,1,0,0:0:0:0:
256,192,95758,1,8,0:0:0:0:
256,192,95837,1,8,0:0:0:0:
256,192,95916,1,0,0:0:0:0:
256,192,95995,1,8,0:0:0:0:
256,192,96074,1,8,0:0:0:0:
256,192,96153,1,0,0:0:0:0:
256,192,96468,1,0,0:0:0:0:
256,192,96626,1,8,0:0:0:0:
256,192,96784,1,8,0:0:0:0:
256,192,96942,1,0,0:0:0:0:
256,192,97100,1,8,0:0:0:0:
256,192,97258,1,0,0:0:0:0:
256,192,97416,1,8,0:0:0:0:
256,192,97731,1,8,0:0:0:0:
256,192,97889,1,0,0:0:0:0:
256,192,97968,1,0,0:0:0:0:
256,192,98047,1,8,0:0:0:0:
256,192,98126,1,8,0:0:0:0:
256,192,98205,1,0,0:0:0:0:
256,192,98284,1,8,0:0:0:0:
256,192,98363,1,0,0:0:0:0:
256,192,98442,1,0,0:0:0:0:
256,192,98521,1,8,0:0:0:0:
256,192,98600,1,8,0:0:0:0:
256,192,98679,1,0,0:0:0:0:
256,192,98995,1,8,0:0:0:0:
256,192,99153,1,8,0:0:0:0:
256,192,99310,1,0,0:0:0:0:
256,192,99626,1,8,0:0:0:0:
256,192,99942,1,8,0:0:0:0:
256,192,100258,1,0,0:0:0:0:
256,192,100574,1,8,0:0:0:0:
256,192,100731,1,0,0:0:0:0:
256,192,100889,1,8,0:0:0:0:
256,192,101047,1,8,0:0:0:0:
256,192,101205,1,0,0:0:0:0:
256,192,101521,1,8,0:0:0:0:
256,192,101837,1,0,0:0:0:0:
256,192,102153,1,0,0:0:0:0:
256,192,102468,1,8,0:0:0:0:
256,192,102784,1,0,0:0:0:0:
256,192,103100,1,8,0:0:0:0:
256,192,103179,1,8,0:0:0:0:
256,192,103258,1,8,0:0:0:0:
256,192,103416,1,8,0:0:0:0:
256,192,103495,1,8,0:0:0:0:
256,192,103574,1,8,0:0:0:0:
256,192,103653,1,8,0:0:0:0:
256,192,104047,1,4,0:0:0:0:
256,192,104205,1,0,0:0:0:0:
256,192,104363,1,0,0:0:0:0:
256,192,104521,1,8,0:0:0:0:
256,192,104679,1,0,0:0:0:0:
256,192,104758,1,0,0:0:0:0:
256,192,104837,1,0,0:0:0:0:
256,192,104916,1,0,0:0:0:0:
256,192,104995,1,8,0:0:0:0:
256,192,105153,1,0,0:0:0:0:
256,192,105310,1,0,0:0:0:0:
256,192,105468,1,8,0:0:0:0:
256,192,105547,1,0,0:0:0:0:
256,192,105626,1,0,0:0:0:0:
256,192,105705,1,0,0:0:0:0:
256,192,105784,1,8,0:0:0:0:
256,192,105942,1,0,0:0:0:0:
256,192,106258,1,0,0:0:0:0:
256,192,106495,1,8,0:0:0:0:
256,192,106731,1,8,0:0:0:0:
256,192,106889,1,0,0:0:0:0:
256,192,106968,1,0,0:0:0:0:
256,192,107047,1,8,0:0:0:0:
256,192,107126,1,0,0:0:0:0:
256,192,107205,1,8,0:0:0:0:
256,192,107363,1,0,0:0:0:0:
256,192,107521,1,8,0:0:0:0:
256,192,107600,1,8,0:0:0:0:
256,192,107679,1,0,0:0:0:0:
256,192,107837,1,8,0:0:0:0:
256,192,107995,1,0,0:0:0:0:
256,192,108153,1,8,0:0:0:0:
256,192,108231,1,8,0:0:0:0:
256,192,108310,1,0,0:0:0:0:
256,192,108389,1,8,0:0:0:0:
256,192,108468,1,0,0:0:0:0:
256,192,108626,1,8,0:0:0:0:
256,192,108705,1,8,0:0:0:0:
256,192,108784,1,0,0:0:0:0:
256,192,108942,1,0,0:0:0:0:
256,192,109100,1,8,0:0:0:0:
256,192,109416,1,0,0:0:0:0:
256,192,109574,1,0,0:0:0:0:
256,192,109653,1,0,0:0:0:0:
256,192,109889,1,8,0:0:0:0:
256,192,110047,1,0,0:0:0:0:
256,192,110205,1,0,0:0:0:0:
256,192,110363,1,8,0:0:0:0:
256,192,110521,1,0,0:0:0:0:
256,192,110574,1,0,0:0:0:0:
256,192,110626,1,0,0:0:0:0:
256,192,110679,1,8,0:0:0:0:
256,192,110837,1,0,0:0:0:0:
256,192,110995,1,8,0:0:0:0:
256,192,111074,1,0,0:0:0:0:
256,192,111153,1,8,0:0:0:0:
256,192,111231,1,8,0:0:0:0:
256,192,111310,1,0,0:0:0:0:
256,192,111468,1,8,0:0:0:0:
256,192,111547,1,8,0:0:0:0:
256,192,111626,1,0,0:0:0:0:
256,192,111784,1,8,0:0:0:0:
256,192,111942,1,0,0:0:0:0:
256,192,112021,1,0,0:0:0:0:
256,192,112100,1,8,0:0:0:0:
256,192,112179,1,8,0:0:0:0:
256,192,112258,1,0,0:0:0:0:
256,192,112416,1,8,0:0:0:0:
256,192,112574,1,0,0:0:0:0:
256,192,112653,1,0,0:0:0:0:
256,192,112731,1,0,0:0:0:0:
256,192,112889,1,0,0:0:0:0:
256,192,113047,1,8,0:0:0:0:
256,192,113205,1,0,0:0:0:0:
256,192,113284,1,8,0:0:0:0:
256,192,113363,1,0,0:0:0:0:
256,192,113442,1,0,0:0:0:0:
256,192,113521,1,8,0:0:0:0:
256,192,113600,1,0,0:0:0:0:
256,192,113679,1,8,0:0:0:0:
256,192,113995,1,0,0:0:0:0:
256,192,114153,1,12,0:0:0:0:
256,192,114468,1,0,0:0:0:0:
256,192,114626,1,0,0:0:0:0:
256,192,114784,1,8,0:0:0:0:
256,192,114863,1,8,0:0:0:0:
256,192,114942,1,0,0:0:0:0:
256,192,115100,1,8,0:0:0:0:
256,192,115258,1,8,0:0:0:0:
256,192,115416,1,0,0:0:0:0:
256,192,115574,1,8,0:0:0:0:
256,192,115626,1,8,0:0:0:0:
256,192,115679,1,8,0:0:0:0:
256,192,115731,1,0,0:0:0:0:
256,192,115889,1,8,0:0:0:0:
256,192,115968,1,0,0:0:0:0:
256,192,116205,1,0,0:0:0:0:
256,192,116363,1,8,0:0:0:0:
256,192,116521,1,0,0:0:0:0:
256,192,116679,1,8,0:0:0:0:
256,192,116837,1,0,0:0:0:0:
256,192,116916,1,0,0:0:0:0:
256,192,116995,1,8,0:0:0:0:
256,192,117153,1,0,0:0:0:0:
256,192,117231,1,8,0:0:0:0:
256,192,117310,1,8,0:0:0:0:
256,192,117468,1,0,0:0:0:0:
256,192,117626,1,8,0:0:0:0:
256,192,117705,1,8,0:0:0:0:
256,192,117784,1,0,0:0:0:0:
256,192,117863,1,0,0:0:0:0:
256,192,117942,1,8,0:0:0:0:
256,192,118100,1,0,0:0:0:0:
256,192,118258,1,0,0:0:0:0:
256,192,118337,1,8,0:0:0:0:
256,192,118416,1,0,0:0:0:0:
256,192,118574,1,8,0:0:0:0:
256,192,118653,1,8,0:0:0:0:
256,192,118731,1,0,0:0:0:0:
256,192,118810,1,8,0:0:0:0:
256,192,118889,1,0,0:0:0:0:
256,192,119047,1,0,0:0:0:0:
256,192,119205,1,12,0:0:0:0:
256,192,119521,1,0,0:0:0:0:
256,192,119679,1,0,0:0:0:0:
256,192,119758,1,0,0:0:0:0:
256,192,119995,1,8,0:0:0:0:
256,192,120153,1,0,0:0:0:0:
256,192,120231,1,8,0:0:0:0:
256,192,120310,1,8,0:0:0:0:
256,192,120389,1,0,0:0:0:0:
256,192,120626,1,8,0:0:0:0:
256,192,120679,1,8,0:0:0:0:
256,192,120731,1,8,0:0:0:0:
256,192,120784,1,0,0:0:0:0:
256,192,120942,1,8,0:0:0:0:
256,192,121021,1,0,0:0:0:0:
256,192,121100,1,8,0:0:0:0:
256,192,121179,1,8,0:0:0:0:
256,192,121258,1,0,0:0:0:0:
256,192,121337,1,0,0:0:0:0:
256,192,121416,1,8,0:0:0:0:
256,192,121574,1,0,0:0:0:0:
256,192,121653,1,8,0:0:0:0:
256,192,121731,1,0,0:0:0:0:
256,192,121810,1,0,0:0:0:0:
256,192,121889,1,8,0:0:0:0:
256,192,122047,1,0,0:0:0:0:
256,192,122126,1,8,0:0:0:0:
256,192,122205,1,8,0:0:0:0:
256,192,122284,1,8,0:0:0:0:
256,192,122363,1,0,0:0:0:0:
256,192,122521,1,8,0:0:0:0:
256,192,122600,1,8,0:0:0:0:
256,192,122679,1,0,0:0:0:0:
256,192,122837,1,8,0:0:0:0:
256,192,122995,1,8,0:0:0:0:
256,192,123153,1,0,0:0:0:0:
256,192,123231,1,0,0:0:0:0:
256,192,123310,1,8,0:0:0:0:
256,192,123468,1,0,0:0:0:0:
256,192,123626,1,8,0:0:0:0:
256,192,123784,1,0,0:0:0:0:
256,192,123942,1,12,0:0:0:0:
256,192,124179,1,0,0:0:0:0:
256,192,124337,1,0,0:0:0:0:
256,192,124416,1,8,0:0:0:0:
256,192,124731,1,0,0:0:0:0:
256,192,124810,1,0,0:0:0:0:
256,192,124889,1,8,0:0:0:0:
256,192,124968,1,8,0:0:0:0:
256,192,125047,1,0,0:0:0:0:
256,192,125205,1,8,0:0:0:0:
256,192,125363,1,0,0:0:0:0:
256,192,125442,1,8,0:0:0:0:
256,192,125521,1,8,0:0:0:0:
256,192,125679,1,0,0:0:0:0:
256,192,125837,1,8,0:0:0:0:
256,192,125916,1,8,0:0:0:0:
256,192,125995,1,0,0:0:0:0:
256,192,126074,1,0,0:0:0:0:
256,192,126153,1,8,0:0:0:0:
256,192,126231,1,0,0:0:0:0:
256,192,126310,1,8,0:0:0:0:
256,192,126389,1,8,0:0:0:0:
256,192,126468,1,0,0:0:0:0:
256,192,126626,1,8,0:0:0:0:
256,192,126705,1,8,0:0:0:0:
256,192,126784,1,0,0:0:0:0:
256,192,126942,1,8,0:0:0:0:
256,192,127021,1,8,0:0:0:0:
256,192,127100,1,0,0:0:0:0:
256,192,127179,1,0,0:0:0:0:
256,192,127258,1,8,0:0:0:0:
256,192,127416,1,0,0:0:0:0:
256,192,127495,1,0,0:0:0:0:
256,192,127574,1,8,0:0:0:0:
256,192,127653,1,0,0:0:0:0:
256,192,127731,1,8,0:0:0:0:
256,192,127889,1,0,0:0:0:0:
256,192,127968,1,0,0:0:0:0:
256,192,128047,1,8,0:0:0:0:
256,192,128205,1,0,0:0:0:0:
256,192,128363,1,8,0:0:0:0:
256,192,128442,1,8,0:0:0:0:
256,192,128521,1,0,0:0:0:0:
256,192,128600,1,0,0:0:0:0:
256,192,128679,1,8,0:0:0:0:
256,192,128758,1,0,0:0:0:0:
256,192,128837,1,8,0:0:0:0:
256,192,128995,1,4,0:0:0:0:
256,192,129310,1,8,0:0:0:0:
256,192,129389,1,8,0:0:0:0:
256,192,129468,1,0,0:0:0:0:
256,192,129626,1,8,0:0:0:0:
256,192,129705,1,0,0:0:0:0:
256,192,129784,1,0,0:0:0:0:
256,192,129863,1,8,0:0:0:0:
256,192,129942,1,0,0:0:0:0:
256,192,130100,1,8,0:0:0:0:
256,192,130258,1,0,0:0:0:0:
256,192,130337,1,0,0:0:0:0:
256,192,130416,1,8,0:0:0:0:
256,192,130574,1,0,0:0:0:0:
256,192,130731,1,8,0:0:0:0:
256,192,130784,1,8,0:0:0:0:
256,192,130837,1,8,0:0:0:0:
256,192,130889,1,0,0:0:0:0:
256,192,130968,1,8,0:0:0:0:
256,192,131047,1,8,0:0:0:0:
256,192,131126,1,8,0:0:0:0:
256,192,131205,1,0,0:0:0:0:
256,192,131363,1,8,0:0:0:0:
256,192,131442,1,0,0:0:0:0:
256,192,131521,1,8,0:0:0:0:
256,192,131679,1,8,0:0:0:0:
256,192,131758,1,8,0:0:0:0:
256,192,131837,1,8,0:0:0:0:
256,192,131995,1,0,0:0:0:0:
256,192,132074,1,0,0:0:0:0:
256,192,132153,1,8,0:0:0:0:
256,192,132389,1,0,0:0:0:0:
256,192,132626,1,0,0:0:0:0:
256,192,132784,1,8,0:0:0:0:
256,192,132863,1,8,0:0:0:0:
256,192,132942,1,8,0:0:0:0:
256,192,133100,1,8,0:0:0:0:
256,192,133179,1,8,0:0:0:0:
256,192,133258,1,8,0:0:0:0:
256,192,133416,1,0,0:0:0:0:
256,192,133495,1,0,0:0:0:0:
256,192,133574,1,8,0:0:0:0:
256,192,133653,1,0,0:0:0:0:
256,192,133731,1,0,0:0:0:0:
256,192,133810,1,0,0:0:0:0:
256,192,133889,1,8,0:0:0:0:
256,192,134047,1,4,0:0:0:0:
256,192,134284,1,0,0:0:0:0:
256,192,134363,1,8,0:0:0:0:
256,192,134521,1,0,0:0:0:0:
256,192,134600,1,0,0:0:0:0:
256,192,134837,1,8,0:0:0:0:
256,192,134995,1,0,0:0:0:0:
256,192,135074,1,0,0:0:0:0:
256,192,135153,1,8,0:0:0:0:
256,192,135231,1,0,0:0:0:0:
256,192,135310,1,8,0:0:0:0:
256,192,135468,1,0,0:0:0:0:
256,192,135626,1,8,0:0:0:0:
256,192,135705,1,8,0:0:0:0:
256,192,135784,1,0,0:0:0:0:
256,192,135942,1,8,0:0:0:0:
256,192,136021,1,0,0:0:0:0:
256,192,136100,1,8,0:0:0:0:
256,192,136179,1,8,0:0:0:0:
256,192,136258,1,0,0:0:0:0:
256,192,136337,1,8,0:0:0:0:
256,192,136416,1,0,0:0:0:0:
256,192,136495,1,0,0:0:0:0:
256,192,136574,1,8,0:0:0:0:
256,192,136810,1,0,0:0:0:0:
256,192,136889,1,0,0:0:0:0:
256,192,137047,1,8,0:0:0:0:
256,192,137126,1,8,0:0:0:0:
256,192,137205,1,0,0:0:0:0:
256,192,137442,1,8,0:0:0:0:
256,192,137521,1,8,0:0:0:0:
256,192,137679,1,0,0:0:0:0:
256,192,137837,1,8,0:0:0:0:
256,192,137916,1,0,0:0:0:0:
256,192,137995,1,0,0:0:0:0:
256,192,138153,1,8,0:0:0:0:
256,192,138231,1,8,0:0:0:0:
256,192,138310,1,0,0:0:0:0:
256,192,138468,1,8,0:0:0:0:
256,192,138547,1,8,0:0:0:0:
256,192,138626,1,8,0:0:0:0:
256,192,138705,1,8,0:0:0:0:
256,192,138784,1,0,0:0:0:0:
256,192,138863,1,0,0:0:0:0:
256,192,138942,1,0,0:0:0:0:
256,192,139100,1,12,0:0:0:0:
256,192,139258,1,0,0:0:0:0:
256,192,139337,1,0,0:0:0:0:
256,192,139416,1,8,0:0:0:0:
256,192,139574,1,0,0:0:0:0:
256,192,139731,1,0,0:0:0:0:
256,192,139889,1,0,0:0:0:0:
256,192,139968,1,0,0:0:0:0:
256,192,140205,1,8,0:0:0:0:
256,192,140363,1,8,0:0:0:0:
256,192,140521,1,0,0:0:0:0:
256,192,140600,1,8,0:0:0:0:
256,192,140679,1,0,0:0:0:0:
256,192,140837,1,8,0:0:0:0:
256,192,140890,1,8,0:0:0:0:
256,192,140943,1,8,0:0:0:0:
256,192,140995,1,0,0:0:0:0:
256,192,141153,1,8,0:0:0:0:
266,194,141231,1,0,0:0:0:0:
266,194,141468,1,0,0:0:0:0:
256,192,141626,1,8,0:0:0:0:
256,192,141705,1,8,0:0:0:0:
256,192,141784,1,0,0:0:0:0:
256,192,141863,1,0,0:0:0:0:
256,192,141942,1,8,0:0:0:0:
256,192,142021,1,0,0:0:0:0:
256,192,142100,1,8,0:0:0:0:
256,192,142258,1,0,0:0:0:0:
256,192,142416,1,0,0:0:0:0:
256,192,142574,1,8,0:0:0:0:
256,192,142653,1,0,0:0:0:0:
256,192,142731,1,8,0:0:0:0:
256,192,142810,1,8,0:0:0:0:
256,192,142889,1,0,0:0:0:0:
256,192,143047,1,8,0:0:0:0:
256,192,143205,1,0,0:0:0:0:
256,192,143284,1,8,0:0:0:0:
256,192,143363,1,0,0:0:0:0:
256,192,143442,1,0,0:0:0:0:
256,192,143521,1,8,0:0:0:0:
256,192,143600,1,0,0:0:0:0:
256,192,143679,1,8,0:0:0:0:
256,192,143758,1,8,0:0:0:0:
256,192,143837,1,0,0:0:0:0:
256,192,143916,1,8,0:0:0:0:
256,192,143995,1,8,0:0:0:0:
256,192,144153,5,4,0:0:0:0:
256,192,144468,5,0,0:0:0:0:
256,192,144574,1,0,0:0:0:0:
256,192,144679,1,0,0:0:0:0:
256,192,144784,1,8,0:0:0:0:
256,192,145100,5,0,0:0:0:0:
256,192,145205,1,0,0:0:0:0:
256,192,145310,1,0,0:0:0:0:
256,192,145416,1,8,0:0:0:0:
256,192,145731,1,0,0:0:0:0:
256,192,145836,1,0,0:0:0:0:
256,192,145942,1,0,0:0:0:0:
256,192,146047,1,8,0:0:0:0:
256,192,146363,1,0,0:0:0:0:
256,192,146468,1,0,0:0:0:0:
256,192,146574,1,0,0:0:0:0:
256,192,146679,1,8,0:0:0:0:
256,192,146995,1,0,0:0:0:0:
256,192,147310,1,8,0:0:0:0:
256,192,147942,1,8,0:0:0:0:
256,192,148258,1,0,0:0:0:0:
256,192,148574,1,8,0:0:0:0:
256,192,149205,1,8,0:0:0:0:
256,192,149521,1,0,0:0:0:0:
256,192,149837,1,0,0:0:0:0:
256,192,150153,1,8,0:0:0:0:
256,192,150468,1,8,0:0:0:0:
256,192,150784,1,0,0:0:0:0:
256,192,151100,1,8,0:0:0:0:
256,192,151731,1,0,0:0:0:0:
256,192,152047,1,8,0:0:0:0:
256,192,152363,1,0,0:0:0:0:
256,192,152679,1,0,0:0:0:0:
256,192,152995,1,0,0:0:0:0:
256,192,153626,1,8,0:0:0:0:
