osu file format v14

[General]
AudioFilename: audio.mp3
AudioLeadIn: 0
PreviewTime: 61691
Countdown: 0
SampleSet: Soft
StackLeniency: 0.7
Mode: 0
LetterboxInBreaks: 0
WidescreenStoryboard: 1

[Editor]
DistanceSpacing: 0.95
BeatDivisor: 4
GridSize: 4
TimelineZoom: 2

[Metadata]
Title:Miraikei Answer
TitleUnicode:未来形Answer
Artist:LucA Ao Sora feat. Mr.Lopez
ArtistUnicode:LucA Ao Sora feat. Mr.López
Creator:Krisom
Version:Facil
Source:俺物語!!
Tags:Español Spanish Cover Fandub 未来形Answer Trustrick OreMonogatari!! My Love Story Anime Rock
BeatmapID:2533002
BeatmapSetID:1217430

[Difficulty]
HPDrainRate:2.5
CircleSize:2.5
OverallDifficulty:2.5
ApproachRate:2.5
SliderMultiplier:0.999999999999999
SliderTickRate:1

[Events]
//Background and Video events
0,0,"Yamato.png",0,0
//Break Periods
2,16709,19464
//Storyboard Layer 0 (Background)
//Storyboard Layer 1 (Fail)
//Storyboard Layer 2 (Pass)
//Storyboard Layer 3 (Foreground)
//Storyboard Layer 4 (Overlay)
//Storyboard Sound Samples

[TimingPoints]
6010,375,4,2,2,50,1,0
6010,-133.333333333333,4,2,2,50,0,0
19510,363.636363636364,4,2,1,60,1,0
63146,-100,4,2,1,60,0,1
73328,-100,4,2,2,60,0,1
73419,-100,4,2,1,60,0,1
84964,-100,4,2,2,60,0,1
85055,-100,4,2,1,60,0,1
86419,-105.263157894737,4,2,1,60,0,0
93691,-105.263157894737,4,2,1,40,0,0
94782,-105.263157894737,4,2,1,25,0,0
96600,-105.263157894737,4,2,3,10,0,0

[Colours]
Combo1 : 208,98,255
Combo2 : 255,136,139
Combo3 : 255,150,9
Combo4 : 255,207,62

[HitObjects]
72,60,6010,5,4,0:0:0:0:
96,268,7510,1,2,0:0:0:0:
256,64,9010,5,4,0:0:0:0:
256,272,10510,1,0,0:0:0:0:
440,60,12010,5,4,0:0:0:0:
416,268,13510,1,2,0:0:0:0:
256,356,15010,6,0,B|184:324|220:224|256:232|292:240|328:140|256:108,1,300.000011444092,2|4,0:0|0:0,0:0:0:0:
256,40,20964,5,4,0:0:0:0:
164,40,21328,1,0,1:0:0:0:
68,192,22055,1,0,1:0:0:0:
68,372,22782,6,0,L|188:372,1,99.9999999999999,0|0,1:0|1:0,0:0:0:0:
256,372,23510,1,0,1:0:0:0:
344,372,23874,6,0,L|444:372,1,99.9999999999999,4|0,0:0|1:0,0:0:0:0:
448,192,24964,1,0,1:0:0:0:
448,13,25691,6,0,L|328:13,1,99.9999999999999,0|0,1:0|1:0,0:0:0:0:
256,16,26419,1,0,1:0:0:0:
168,16,26782,6,0,P|120:100|168:184,1,200,4|2,0:0|0:3,0:0:0:0:
324,268,28237,2,0,P|372:184|324:100,1,200,0|2,3:0|0:3,0:0:0:0:
168,184,29691,6,0,P|120:268|168:352,1,200,0|2,3:0|0:3,0:0:0:0:
324,268,31146,2,0,P|372:184|324:100,1,200,0|2,3:0|0:3,0:0:0:0:
148,100,32600,5,0,3:0:0:0:
80,160,32964,1,0,1:0:0:0:
80,248,33328,1,2,0:3:0:0:
256,304,34055,5,0,3:0:0:0:
256,216,34419,1,0,1:0:0:0:
256,128,34782,1,2,0:3:0:0:
432,136,35510,5,0,3:0:0:0:
432,224,35874,1,0,1:0:0:0:
364,284,36238,1,2,0:3:0:0:
256,140,36964,6,0,B|236:116|236:116|276:36|276:36|256:8,2,150,4|4|0,0:0|0:0|1:0,0:0:0:0:
344,116,38419,6,0,P|436:160|428:248,1,200,4|2,0:0|0:3,0:0:0:0:
308,376,39873,1,0,3:0:0:0:
256,304,40237,1,0,1:0:0:0:
204,376,40600,1,2,0:3:0:0:
83,245,41328,6,0,P|81:150|168:115,1,200,0|2,3:0|0:3,0:0:0:0:
332,196,42782,1,0,3:0:0:0:
256,244,43146,1,0,1:0:0:0:
180,196,43509,1,2,0:3:0:0:
160,16,44237,6,0,B|208:-12|256:4|256:28|304:44|352:16,1,200,0|2,3:0|0:3,0:0:0:0:
352,188,45691,2,0,B|304:216|256:200|256:176|208:160|160:188,1,200,0|2,3:0|0:3,0:0:0:0:
68,328,47146,6,0,B|120:364|192:364|228:328|228:328|256:332|284:328|284:328|320:364|392:364|444:328,1,400,0|2,3:0|0:0,0:0:0:0:
492,244,48964,1,0,1:0:0:0:
492,148,49328,1,0,3:0:0:0:
448,64,49691,1,0,1:0:0:0:
352,80,50055,6,0,B|400:168|400:168|400:268,1,200,4|0,0:0|3:0,0:0:0:0:
400,356,51146,1,0,1:0:0:0:
304,360,51510,6,0,B|256:272|256:272|256:172,1,200,4|0,0:0|3:0,0:0:0:0:
256,80,52601,1,0,1:0:0:0:
160,80,52964,6,0,B|112:168|112:168|112:268,1,200,4|0,0:0|3:0,0:0:0:0:
112,356,54055,1,0,1:0:0:0:
204,356,54419,5,0,1:0:0:0:
256,192,55146,1,0,1:0:0:0:
308,28,55873,6,0,P|444:96|408:220,1,300,4|0,0:0|1:0,0:0:0:0:
316,248,57328,6,0,B|316:300|316:300|316:356|256:400|196:356|196:300|196:300|196:248,1,300,0|0,3:0|1:0,0:0:0:0:
100,216,58782,6,0,P|76:79|204:28,1,300,4|0,0:0|1:0,0:0:0:0:
307,28,60237,1,4,0:3:0:0:
436,152,60964,2,0,P|396:180|340:184,1,99.9999999999999,0|0,1:0|1:0,0:0:0:0:
256,140,61691,1,0,1:0:0:0:
176,80,62055,1,0,1:0:0:0:
84,120,62419,2,0,L|44:212,1,99.9999999999999,0|0,1:0|1:0,0:0:0:0:
48,312,63146,6,0,P|144:340|212:276,1,200,4|0,0:0|3:0,0:0:0:0:
252,188,64237,1,0,1:0:0:0:
224,92,64600,1,2,0:0:0:0:
424,116,65328,1,0,1:0:0:0:
464,312,66055,6,0,P|368:340|300:276,1,200,4|0,0:0|3:0,0:0:0:0:
260,188,67146,1,0,1:0:0:0:
288,92,67509,1,2,0:0:0:0:
88,116,68237,1,0,1:0:0:0:
172,276,68964,5,0,3:0:0:0:
256,308,69328,1,0,1:0:0:0:
340,276,69691,1,2,0:0:0:0:
256,116,70419,5,0,3:0:0:0:
76,104,71146,1,2,0:0:0:0:
40,188,71510,1,0,1:0:0:0:
96,260,71873,6,0,P|256:361|416:260,1,400,4|4,0:0|0:0,0:0:0:0:
440,164,73691,2,0,P|486:189|517:232,2,99.9999999999999,0|0|0,1:0|1:0|1:0,0:0:0:0:
464,72,74782,6,0,P|368:44|300:108,1,200,4|0,0:0|3:0,0:0:0:0:
260,196,75873,1,0,1:0:0:0:
288,292,76236,1,2,0:0:0:0:
88,268,76964,1,0,1:0:0:0:
48,72,77691,6,0,P|144:44|212:108,1,200,4|0,0:0|3:0,0:0:0:0:
252,196,78782,1,0,1:0:0:0:
224,292,79145,1,2,0:0:0:0:
424,268,79873,1,0,1:0:0:0:
340,108,80600,5,0,3:0:0:0:
256,76,80964,1,0,1:0:0:0:
172,108,81327,1,2,0:0:0:0:
256,268,82055,5,0,3:0:0:0:
436,280,82782,1,2,0:0:0:0:
472,196,83146,1,0,1:0:0:0:
416,128,83509,6,0,P|256:27|96:128,1,400,4|4,0:0|0:0,0:0:0:0:
72,220,85328,2,0,P|26:195|-5:152,2,99.9999999999999,0|0|0,1:0|1:0|1:0,0:0:0:0:
168,232,86419,5,4,0:0:0:0:
344,232,87146,1,2,0:0:0:0:
340,44,87873,5,0,3:0:0:0:
256,24,88237,1,0,1:0:0:0:
172,44,88600,1,2,0:0:0:0:
16,152,89328,6,0,P|77:214|169:192,1,189.999994926453,0|2,3:0|0:0,0:0:0:0:
342,193,90782,2,0,P|430:169|496:232,1,189.999994926453,0|2,3:0|0:0,0:0:0:0:
372,376,92237,5,4,0:0:0:0:
256,192,92419,12,2,96600,0:0:0:0:
