osu file format v14

[General]
AudioFilename: audio.mp3
AudioLeadIn: 0
PreviewTime: 61691
Countdown: 0
SampleSet: Soft
StackLeniency: 0.7
Mode: 0
LetterboxInBreaks: 0
WidescreenStoryboard: 0

[Editor]
DistanceSpacing: 0.9
BeatDivisor: 4
GridSize: 4
TimelineZoom: 2

[Metadata]
Title:Miraikei Answer
TitleUnicode:未来形Answer
Artist:LucA Ao Sora feat. Mr.Lopez
ArtistUnicode:LucA Ao Sora feat. Mr.López
Creator:Krisom
Version:Alocado
Source:俺物語!!
Tags:Español Spanish Cover Fandub 未来形Answer Trustrick OreMonogatari!! My Love Story Anime Rock
BeatmapID:2533001
BeatmapSetID:1217430

[Difficulty]
HPDrainRate:6
CircleSize:4.5
OverallDifficulty:8.3
ApproachRate:9
SliderMultiplier:2.3
SliderTickRate:2

[Events]
//Background and Video events
0,0,"Yamato.png",0,0
//Break Periods
//Storyboard Layer 0 (Background)
//Storyboard Layer 1 (Fail)
//Storyboard Layer 2 (Pass)
//Storyboard Layer 3 (Foreground)
//Storyboard Layer 4 (Overlay)
//Storyboard Sound Samples

[TimingPoints]
6010,375,4,2,2,50,1,0
6010,-133.333333333333,4,2,2,50,0,0
15385,-105.263157894737,4,2,2,50,0,0
16603,-105.263157894737,4,2,2,20,0,0
18760,-133.333333333333,4,2,2,5,0,0
19510,363.636363636364,4,2,1,60,1,0
26782,-111.111111111111,4,2,1,60,0,0
36964,-100,4,2,1,60,0,0
38419,-111.111111111111,4,2,1,60,0,0
63146,-100,4,2,1,60,0,1
72010,-100,4,2,2,60,0,1
72100,-100,4,2,1,60,0,1
81873,-100,4,2,1,40,0,1
81919,-100,4,2,1,60,0,1
83646,-100,4,2,2,60,0,1
83737,-100,4,2,1,60,0,1
86419,-105.263157894737,4,2,1,60,0,0
93691,-105.263157894737,4,2,1,40,0,0
94782,-105.263157894737,4,2,1,25,0,0
96600,-105.263157894737,4,2,3,10,0,0

[Colours]
Combo1 : 208,98,255
Combo2 : 255,136,139
Combo3 : 255,150,9
Combo4 : 255,207,62

[HitObjects]
56,24,6010,6,0,P|80:58|81:103,1,86.2500032901765,2|0,0:0|0:0,0:0:0:0:
177,85,6385,2,0,P|178:127|155:166,1,86.2500032901765,2|0,0:3|0:0,0:0:0:0:
249,198,6760,2,0,P|228:234|188:256,1,86.2500032901765,2|0,0:0|0:0,0:0:0:0:
249,321,7135,2,0,P|211:340|166:336,1,86.2500032901765,2|0,0:3|0:0,0:0:0:0:
456,360,7510,6,0,P|432:326|431:281,1,86.2500032901765,2|0,0:0|0:0,0:0:0:0:
335,299,7885,2,0,P|334:257|357:218,1,86.2500032901765,2|0,0:3|0:0,0:0:0:0:
263,186,8260,2,0,P|283:149|323:127,1,86.2500032901765,2|0,0:0|0:0,0:0:0:0:
263,63,8635,2,0,P|300:43|345:47,1,86.2500032901765,2|0,0:3|0:0,0:0:0:0:
392,264,9010,5,2,0:0:0:0:
484,288,9197,1,0,0:0:0:0:
512,196,9385,1,2,0:3:0:0:
420,168,9572,1,0,0:0:0:0:
340,263,9760,6,0,P|306:289|263:289,1,86.2500032901765,2|0,0:0|0:0,0:0:0:0:
171,200,10135,2,0,P|205:174|248:174,1,86.2500032901765,2|0,0:3|0:0,0:0:0:0:
28,288,10510,5,2,0:0:0:0:
0,196,10698,1,0,0:0:0:0:
92,168,10885,1,2,0:3:0:0:
120,264,11072,1,0,0:0:0:0:
319,188,11260,6,0,L|300:104,1,86.2500032901765,2|0,0:0|0:0,0:0:0:0:
192,188,11635,2,0,L|212:104,1,86.2500032901765,2|0,0:3|0:0,0:0:0:0:
332,284,12010,6,0,P|256:320|180:284,1,172.500006580353,2|2,0:0|0:3,0:0:0:0:
172,192,12572,2,0,B|220:184|272:224|240:224|296:184|340:192,1,172.500006580353,2|0,0:0|0:0,0:0:0:0:
368,100,13135,1,0,0:0:0:0:
368,100,13322,2,0,P|256:45|144:100,1,258.75000987053,2|0,0:0|0:0,0:0:0:0:
120,192,14072,5,0,0:0:0:0:
184,260,14260,2,0,B|228:256|256:292|256:308|284:344|328:340,1,172.500006580353,2|0,0:0|0:0,0:0:0:0:
328,260,14822,2,0,B|284:256|256:292|256:308|228:344|184:340,1,172.500006580353,2|2,0:0|0:3,0:0:0:0:
119,250,15385,6,0,B|125:233|125:233|111:219|80:168|-20:171|-15:113|-7:55|77:30|111:76|111:76|124:21|212:12|243:63|269:115|174:150|166:209|157:227|157:227|170:241,1,655.499982496262,0|4,0:0|0:0,0:0:0:0:
256,192,16603,12,0,18760,0:0:0:0:
256,192,19510,5,0,0:0:0:0:
256,192,19873,1,0,0:0:0:0:
368,44,20237,5,0,1:0:0:0:
379,88,20328,1,0,1:0:0:0:
391,132,20419,1,0,1:0:0:0:
403,177,20510,1,0,1:0:0:0:
415,220,20600,1,0,1:0:0:0:
260,316,20964,6,0,P|200:340|120:272,1,172.5,4|2,0:0|0:3,0:0:0:0:
136,216,21328,2,0,B|104:196|104:196|76:196|76:196|36:168,1,115,0|0,1:0|0:0,0:0:0:0:
16,72,21691,2,0,P|48:36|112:40,1,115,2|0,0:3|0:0,0:0:0:0:
242,91,22055,1,0,1:0:0:0:
242,91,22237,2,0,P|192:168|76:128,1,230,4|2,0:0|0:3,0:0:0:0:
140,12,22782,5,0,1:0:0:0:
252,92,22964,2,0,P|200:172|80:148,1,230,4|2,0:0|0:3,0:0:0:0:
144,16,23510,1,0,1:0:0:0:
144,16,23691,1,0,0:0:0:0:
256,96,23873,6,0,B|320:148|320:148|408:128,1,172.5,4|2,0:0|0:3,0:0:0:0:
440,64,24237,2,0,P|476:112|468:168,1,115,0|0,1:0|0:0,0:0:0:0:
452,264,24600,2,0,B|404:276|404:276|384:288|384:288|340:296,1,115,2|0,0:3|0:0,0:0:0:0:
308,200,24964,1,0,1:0:0:0:
308,200,25146,2,0,B|401:178|401:178|467:163|486:121|460:78,1,230,4|0,0:0|0:0,0:0:0:0:
372,44,25691,1,0,1:0:0:0:
276,44,25873,1,0,0:0:0:0:
188,108,26055,5,0,1:0:0:0:
64,204,26237,1,0,1:0:0:0:
196,176,26419,1,0,1:0:0:0:
52,136,26600,1,0,1:0:0:0:
92,264,26782,6,0,P|124:300|176:292,1,103.499996841431,4|0,0:0|0:0,0:0:0:0:
256,248,27146,1,0,1:0:0:0:
338,292,27328,2,0,P|434:285|449:190,1,206.999993682861,2|0,0:3|0:0,0:0:0:0:
436,88,27873,1,0,1:0:0:0:
352,28,28055,2,0,B|304:-8|256:15|256:41|208:64|160:28,1,206.999993682861,2|2,0:0|0:3,0:0:0:0:
116,124,28600,2,0,B|144:152|176:152|176:152|220:152,1,103.499996841431,0|0,1:0|0:0,0:0:0:0:
396,160,28964,2,0,B|368:188|336:188|336:188|292:188,1,103.499996841431,2|0,0:3|0:0,0:0:0:0:
116,200,29328,2,0,B|144:228|176:228|176:228|220:228,1,103.499996841431,0|0,1:0|0:0,0:0:0:0:
396,240,29691,6,0,P|368:309|296:308,1,155.249995262146,4|0,0:3|0:0,0:0:0:0:
244,348,30055,2,0,L|144:304,1,103.499996841431,0|0,1:0|0:0,0:0:0:0:
64,264,30419,1,2,0:3:0:0:
64,168,30600,1,0,0:0:0:0:
128,100,30782,1,0,1:0:0:0:
128,100,30964,6,0,B|204:100|204:100|236:100|288:112|299:172,1,206.999993682861,0|0,3:0|0:0,0:0:0:0:
256,256,31510,1,0,1:0:0:0:
212,172,31691,2,0,B|224:112|276:100|308:100|308:100|384:100,1,206.999993682861,2|0,0:0|0:0,0:0:0:0:
448,168,32237,1,0,1:0:0:0:
448,264,32418,1,0,0:0:0:0:
362,306,32600,6,0,L|268:348,1,103.499996841431,4|0,0:3|0:0,0:0:0:0:
180,380,32964,1,0,1:0:0:0:
148,292,33146,1,0,0:0:0:0:
112,204,33328,2,0,P|160:224|216:200,1,103.499996841431,2|0,0:3|0:0,0:0:0:0:
308,116,33691,2,0,B|276:108|240:128|272:128|236:108|204:116,1,103.499996841431,0|0,1:0|0:0,0:0:0:0:
305,208,34055,6,0,P|353:223|400:204,1,103.499996841431,2|0,0:3|0:0,0:0:0:0:
372,116,34419,1,0,1:0:0:0:
212,52,34600,1,0,0:0:0:0:
300,52,34782,1,2,0:3:0:0:
140,116,34964,1,0,0:0:0:0:
112,204,35146,1,0,1:0:0:0:
112,204,35328,6,0,B|149:221|143:296|143:296|213:268|241:298,1,206.999993682861,2|0,0:0|0:0,0:0:0:0:
319,347,35873,2,0,P|370:347|412:317,1,103.499996841431,0|0,1:0|0:0,0:0:0:0:
324,164,36237,1,2,0:3:0:0:
344,256,36419,1,0,0:0:0:0:
347,75,36600,2,0,P|297:76|255:106,1,103.499996841431,0|0,1:0|0:0,0:0:0:0:
276,264,36964,6,0,L|164:240,1,115,4|0,0:0|0:0,0:0:0:0:
64,212,37328,1,0,1:0:0:0:
264,332,37510,2,0,B|140:304|140:304|120:312|120:312|40:292,1,230,4|0,0:0|1:0,0:0:0:0:
28,288,38055,1,0,1:0:0:0:
16,284,38237,1,0,1:0:0:0:
84,128,38419,6,0,P|120:92|176:104,1,103.499996841431,4|0,0:0|0:0,0:0:0:0:
256,132,38782,1,0,1:0:0:0:
344,98,38964,2,0,P|440:105|455:200,1,206.999993682861,2|0,0:3|0:0,0:0:0:0:
408,280,39509,1,0,1:0:0:0:
356,360,39691,2,0,B|296:360|296:360|280:372|256:384|232:372|216:360|216:360|156:360,1,206.999993682861,2|2,0:0|0:3,0:0:0:0:
116,276,40237,2,0,P|148:244|204:244,1,103.499996841431,0|0,1:0|0:0,0:0:0:0:
400,188,40600,2,0,P|372:220|312:220,1,103.499996841431,2|0,0:3|0:0,0:0:0:0:
112,188,40964,2,0,P|140:156|200:156,1,103.499996841431,0|0,1:0|0:0,0:0:0:0:
400,188,41327,6,0,P|396:276|340:304,1,155.249995262146,4|0,0:3|0:0,0:0:0:0:
312,360,41691,2,0,B|356:364|356:364|376:372|376:372|424:376,1,103.499996841431,0|0,1:0|0:0,0:0:0:0:
476,296,42055,1,2,0:3:0:0:
464,200,42236,1,0,0:0:0:0:
408,116,42418,1,0,1:0:0:0:
308,84,42600,6,0,B|248:148|248:148|212:188|200:228|212:264,1,206.999993682861
256,340,43146,1,0,1:0:0:0:
302,256,43328,2,0,B|312:228|300:188|264:148|264:148|204:84,1,206.999993682861,2|0,0:0|0:0,0:0:0:0:
124,136,43873,1,0,1:0:0:0:
56,200,44054,1,0,0:0:0:0:
92,288,44237,6,0,B|120:288|120:288|160:288|184:248,1,103.499996841431,4|0,0:3|0:0,0:0:0:0:
300,164,44600,1,0,1:0:0:0:
212,164,44782,1,0,0:0:0:0:
330,251,44964,2,0,B|352:288|392:288|392:288|420:288,1,103.499996841431,2|0,0:3|0:0,0:0:0:0:
452,200,45328,2,0,P|418:163|368:166,1,103.499996841431,0|0,1:0|0:0,0:0:0:0:
208,232,45691,6,0,B|236:240|256:220|256:220|276:240|304:232,1,103.499996841431,4|0,0:3|0:0,0:0:0:0:
143,166,46055,2,0,P|93:163|60:200,1,103.499996841431,0|0,1:0|0:0,0:0:0:0:
52,292,46418,1,2,0:3:0:0:
116,360,46600,1,0,0:0:0:0:
208,380,46782,2,0,P|272:376|312:296,1,155.249995262146,0|2,1:0|0:3,0:0:0:0:
312,236,47146,6,0,B|312:192|312:192|312:164|336:136,1,103.499996841431,4|0,0:3|0:0,0:0:0:0:
200,236,47510,2,0,B|200:192|200:192|200:164|176:136,1,103.499996841431,0|0,1:3|0:0,0:0:0:0:
256,100,47873,1,2,0:3:0:0:
256,100,48055,1,0,0:0:0:0:
304,12,48237,2,0,P|256:-4|208:12,1,103.499996841431,0|0,1:0|0:0,0:0:0:0:
144,80,48600,5,0,0:0:0:0:
32,28,48782,1,0,1:0:0:0:
168,188,48964,1,0,1:0:0:0:
207,0,49146,1,0,1:0:0:0:
292,36,49328,5,0,3:0:0:0:
264,124,49510,1,0,3:0:0:0:
360,108,49691,5,4,0:3:0:0:
360,108,49873,1,4,0:3:0:0:
432,224,50055,5,0,1:0:0:0:
428,316,50237,1,0,1:0:0:0:
348,268,50419,1,0,1:0:0:0:
256,196,50782,5,0,3:2:0:0:
256,196,51146,1,4,3:2:0:0:
80,160,51510,5,0,1:0:0:0:
84,68,51692,1,0,1:0:0:0:
164,116,51874,1,0,1:0:0:0:
256,196,52237,5,0,3:2:0:0:
256,196,52601,1,4,3:2:0:0:
164,364,52964,5,0,1:0:0:0:
256,292,53146,1,0,1:0:0:0:
348,364,53328,1,0,1:0:0:0:
256,196,53691,5,0,3:0:0:0:
256,196,54055,1,0,3:0:0:0:
164,20,54419,5,0,1:0:0:0:
256,88,54601,1,0,1:0:0:0:
348,20,54783,1,0,1:0:0:0:
176,144,55146,5,0,1:0:0:0:
256,196,55328,1,0,1:0:0:0:
336,144,55510,1,0,1:0:0:0:
176,268,55873,6,0,P|224:304|264:284,1,103.499996841431,4|0,0:0|0:0,0:0:0:0:
256,196,56237,1,0,1:0:0:0:
180,140,56419,2,0,P|256:81|332:140,1,206.999993682861,2|0,0:3|0:0,0:0:0:0:
304,228,56964,2,0,P|256:244|208:228,1,103.499996841431,0|0,1:0|0:0,0:0:0:0:
80,172,57328,6,0,B|64:120|100:72|148:68|148:68|172:40|204:28,1,206.999993682861,4|0,0:3|1:0,0:0:0:0:
312,29,57873,2,0,B|340:40|364:68|364:68|412:72|448:120|432:172,1,206.999993682861,2|2,0:2|0:3,0:0:0:0:
440,264,58419,1,0,1:0:0:0:
372,324,58600,1,0,0:0:0:0:
280,344,58782,6,0,P|208:360|140:320,1,155.249995262146,4|0,0:0|0:0,0:0:0:0:
104,260,59146,2,0,B|176:248|176:248|208:228,1,103.499996841431,0|0,1:0|0:0,0:0:0:0:
412,196,59510,2,0,B|340:184|340:184|308:164,1,103.499996841431,2|0,0:3|0:0,0:0:0:0:
100,132,59873,2,0,B|172:120|172:120|204:100,1,103.499996841431,0|0,1:0|0:0,0:0:0:0:
256,20,60237,1,4,0:3:0:0:
256,20,60600,1,0,1:0:0:0:
300,200,60964,6,0,L|328:304,1,103.499996841431,4|0,0:3|1:0,0:0:0:0:
212,200,61328,2,0,L|184:304,1,103.499996841431,0|4,1:0|0:3,0:0:0:0:
143,192,61691,5,0,1:0:0:0:
107,356,61873,1,4,0:3:0:0:
75,172,62055,1,0,1:0:0:0:
39,336,62237,1,4,0:3:0:0:
7,152,62419,5,0,1:0:0:0:
187,51,62600,1,0,1:0:0:0:
0,83,62782,1,0,1:0:0:0:
194,120,62963,1,0,1:0:0:0:
308,36,63146,6,0,P|390:45|431:118,1,172.5,4|2,0:0|0:3,0:0:0:0:
460,180,63510,2,0,B|432:192|404:184|404:176|376:168|348:180,1,115,0|0,1:0|0:0,0:0:0:0:
236,239,63873,1,2,3:3:0:0:
344,307,64055,1,0,3:0:0:0:
347,180,64237,1,0,1:0:0:0:
200,68,64419,6,0,P|97:34|31:120,1,230,4|2,0:0|0:3,0:0:0:0:
160,236,64964,1,0,1:0:0:0:
132,144,65146,1,0,3:0:0:0:
136,332,65328,2,0,P|196:336|240:300,1,115,2|0,3:3|3:0,0:0:0:0:
376,272,65691,2,0,P|316:276|272:240,1,115,0|0,1:2|0:0,0:0:0:0:
176,72,66055,6,0,B|208:104|256:80|256:64|304:40|336:72,1,172.5,4|2,0:0|0:3,0:0:0:0:
400,96,66419,2,0,L|376:212,1,115,0|0,1:0|0:0,0:0:0:0:
250,356,66782,2,0,L|274:244,1,115,2|0,3:3|3:0,0:0:0:0:
219,59,67146,1,0,1:0:0:0:
219,59,67328,6,0,B|195:175|195:175|184:224|144:244|108:228,1,230,4|2,0:0|0:3,0:0:0:0:
4,192,67873,1,0,1:0:0:0:
92,116,68055,1,0,0:0:0:0:
114,230,68237,1,2,3:3:0:0:
152,300,68419,1,0,3:0:0:0:
237,331,68600,1,0,1:0:0:0:
334,295,68782,1,0,0:0:0:0:
318,157,68964,6,0,P|375:63|484:72,1,230,4|0,0:0|1:0,0:0:0:0:
431,177,69510,2,0,P|433:118|292:47,1,230,2|2,0:0|0:3,0:0:0:0:
222,120,70055,1,0,1:0:0:0:
194,227,70237,6,0,B|206:255|206:255|238:247|238:247|250:271|250:271|282:263|282:263|298:283|298:283|326:275|326:275|346:299|346:299|370:291,1,230,2|2,0:3|0:3,0:0:0:0:
367,183,70782,2,0,P|337:146|270:153,1,115,0|0,1:0|0:0,0:0:0:0:
194,227,71146,2,0,P|137:321|28:312,1,230,0|0,3:0|1:0,0:0:0:0:
81,207,71692,2,0,P|79:266|220:337,1,230,2|4,0:0|0:0,0:0:0:0:
352,324,72237,6,0,P|392:292|400:232,1,115,0|0,1:0|0:0,0:0:0:0:
276,168,72600,2,0,P|283:218|331:255,1,115,2|0,3:3|0:0,0:0:0:0:
452,180,72964,2,0,P|384:164|344:192,1,115,0|0,1:0|0:0,0:0:0:0:
352,324,73328,1,4,0:3:0:0:
452,180,73510,5,0,1:0:0:0:
304,49,73691,1,0,1:0:0:0:
344,238,73873,1,0,1:0:0:0:
423,61,74055,1,0,1:0:0:0:
255,158,74237,1,0,1:0:0:0:
488,96,74419,5,0,1:0:0:0:
264,232,74600,1,0,1:0:0:0:
204,36,74782,6,0,B|160:56|116:40|116:40|120:84|80:116,1,172.5,4|2,0:0|0:3,0:0:0:0:
56,172,75146,2,0,B|84:188|112:176|112:172|140:156|168:172,1,115,0|0,1:0|0:0,0:0:0:0:
277,230,75509,1,2,3:3:0:0:
169,298,75691,1,0,3:0:0:0:
166,171,75873,1,0,1:0:0:0:
312,36,76055,6,0,B|359:44|375:78|375:78|417:73|428:114|428:114|465:115|491:156,1,230,4|2,0:0|0:3,0:0:0:0:
444,260,76600,1,0,1:0:0:0:
348,320,76782,1,0,3:0:0:0:
236,336,76964,2,0,P|176:340|132:304,1,115,2|0,3:3|3:0,0:0:0:0:
272,252,77328,2,0,P|332:256|376:220,1,115,0|0,1:2|0:0,0:0:0:0:
336,96,77691,6,0,B|300:124|264:96|264:96|248:96|248:96|212:68|176:96,1,172.5,4|2,0:0|0:3,0:0:0:0:
128,140,78055,2,0,P|108:196|132:244,1,115,0|0,1:0|0:0,0:0:0:0:
326,244,78419,2,0,P|291:201|236:196,1,115,2|0,3:3|3:0,0:0:0:0:
148,366,78782,1,0,1:0:0:0:
148,366,78964,6,0,P|225:329|232:192,1,230,4|2,0:0|0:3,0:0:0:0:
260,84,79509,1,0,1:0:0:0:
152,120,79691,1,0,0:0:0:0:
235,196,79873,1,2,3:3:0:0:
308,216,80055,1,0,3:0:0:0:
392,208,80236,1,0,1:0:0:0:
476,156,80418,1,0,0:0:0:0:
374,31,80600,6,0,B|348:73|353:122|427:154|432:204|406:245,1,230,4|0,0:0|1:0,0:0:0:0:
303,201,81146,2,0,B|315:154|354:123|428:154|467:123|478:76,1,230,2|2,0:0|0:3,0:0:0:0:
374,31,81691,1,0,1:0:0:0:
212,64,81873,6,0,P|196:160|303:199,1,230,6|2,0:0|0:3,0:0:0:0:
252,4,82418,2,0,P|192:-4|148:28,1,115,0|0,1:0|0:0,0:0:0:0:
105,140,82782,6,0,B|81:180|86:230|160:262|165:311|139:353,1,230,0|0,3:0|1:0,0:0:0:0:
35,308,83328,2,0,B|46:261|85:230|159:261|198:230|210:183,1,230,2|4,0:0|0:0,0:0:0:0:
268,60,83873,6,0,P|271:111|315:152,1,115,0|0,1:0|0:0,0:0:0:0:
439,87,84237,2,0,P|394:64|336:82,1,115,2|0,3:3|0:0,0:0:0:0:
328,224,84600,2,0,P|380:177|380:128,1,115,0|0,1:0|0:0,0:0:0:0:
268,60,84964,1,4,0:3:0:0:
200,152,85146,1,0,1:0:0:0:
200,152,85237,1,0,1:0:0:0:
200,152,85328,1,0,1:0:0:0:
108,84,85510,1,4,0:3:0:0:
192,16,85691,5,0,1:0:0:0:
364,44,85873,1,0,1:0:0:0:
196,84,86055,1,0,1:0:0:0:
368,112,86237,1,0,1:0:0:0:
200,152,86419,6,0,B|228:168|252:160|252:160|272:188|272:188|308:180|348:200,1,163.874995624065,4|2,0:0|0:3,0:0:0:0:
355,267,86782,2,0,P|395:295|463:279,1,109.24999708271,0|0,1:0|0:0,0:0:0:0:
404,72,87146,1,2,3:3:0:0:
424,180,87328,1,0,3:2:0:0:
508,104,87510,1,0,1:0:0:0:
453,287,87691,6,0,P|384:292|332:164,1,218.499994165421,4|0,0:0|0:0,0:0:0:0:
344,64,88237,2,0,L|236:100,1,109.24999708271,0|0,1:0|0:0,0:0:0:0:
104,164,88600,2,0,L|207:198,1,109.24999708271,0|0,3:0|3:0,0:0:0:0:
328,256,88964,2,0,L|224:290,1,109.24999708271,0|0,1:0|0:0,0:0:0:0:
104,164,89328,6,0,B|148:140|183:161|183:161|204:124|257:126,1,163.874995624065,2|2,0:0|0:3,0:0:0:0:
315,148,89691,1,0,1:0:0:0:
407,205,89873,1,0,0:0:0:0:
502,151,90055,2,0,P|474:107|409:102,1,109.24999708271,2|0,3:3|3:0,0:0:0:0:
407,205,90419,1,0,1:0:0:0:
512,148,90600,6,0,B|507:114|479:86|449:79|414:85|414:85|405:35|352:22,1,218.499994165421,6|2,0:0|0:3,0:0:0:0:
256,12,91146,2,0,L|256:128,1,109.24999708271,0|0,1:0|0:0,0:0:0:0:
172,48,91510,2,0,L|172:160,1,109.24999708271,0|0,1:0|0:0,0:0:0:0:
88,84,91873,2,0,L|88:196,1,109.24999708271,0|4,1:0|0:3,0:0:0:0:
88,368,92237,5,4,0:0:0:0:
256,192,92419,12,2,96600,0:0:0:0:
