osu file format v14

[General]
AudioFilename: audio.mp3
AudioLeadIn: 0
PreviewTime: 108744
Countdown: 0
SampleSet: Soft
StackLeniency: 0.7
Mode: 0
LetterboxInBreaks: 0
WidescreenStoryboard: 1

[Editor]
DistanceSpacing: 1
BeatDivisor: 8
GridSize: 4
TimelineZoom: 1.3

[Metadata]
Title:Self-complacent
TitleUnicode:愛情怎麼了嗎
Artist:Lu Crowd
ArtistUnicode:盧廣仲
Creator:bossandy
Version:What's wrong with love?
Source:月村歡迎你
Tags:Opening Back To Home 討海人 Chinese pop Lu Guang Zhong
BeatmapID:2281449
BeatmapSetID:1091315

[Difficulty]
HPDrainRate:5
CircleSize:3.3
OverallDifficulty:6
ApproachRate:7.6
SliderMultiplier:2.5
SliderTickRate:1

[Events]
//Background and Video events
0,0,"BG.jpg",0,0
Video,0,"video.avi"
//Break Periods
2,7094,9721
2,12992,15247
2,21368,22038
2,24969,26381
2,29770,31488
//Storyboard Layer 0 (Background)
//Storyboard Layer 1 (Fail)
//Storyboard Layer 2 (Pass)
//Storyboard Layer 3 (Foreground)
//Storyboard Layer 4 (Overlay)
//Storyboard Sound Samples

[TimingPoints]
3201,628.601361969618,4,2,1,30,1,8
3201,-200,4,2,1,30,0,0
4143,-200,4,2,1,5,0,0
4458,-200,4,2,1,30,0,0
5401,728.155339805825,4,2,1,5,1,0
5401,-200,4,2,1,5,0,0
6129,549.199084668192,4,2,1,30,1,8
6129,-200,4,2,1,30,0,0
6403,491.803278688525,4,2,1,30,1,8
6403,-200,4,2,1,30,0,0
6894,519.705500216544,4,2,1,30,1,0
6894,-200,4,2,1,30,0,0
10531,582.52427184466,4,2,1,30,1,8
10531,-200,4,2,1,30,0,0
10822,545.454545454546,4,2,1,30,1,8
10822,-200,4,2,1,30,0,0
11367,674.157303370787,4,2,1,30,1,8
11367,-200,4,2,1,30,0,0
11704,544.21768707483,4,2,1,30,1,8
11704,-200,4,2,1,30,0,0
16057,471.512770137525,4,2,1,30,1,8
16528,631.578947368421,4,2,1,30,1,8
16528,-200,4,2,1,30,0,0
16843,588.235294117647,4,2,1,30,1,8
16843,-200,4,2,1,30,0,0
18019,750,4,2,1,30,1,8
18019,-200,4,2,1,30,0,0
18394,728.597449908925,4,2,1,30,1,8
18394,-200,4,2,1,30,0,0
19122,600,4,2,1,30,1,8
19122,-200,4,2,1,30,0,0
19422,571.428571428571,4,2,1,30,1,8
20279,750,4,2,1,30,1,8
20279,-200,4,2,1,30,0,8
20654,1029.15951972556,4,2,1,30,1,8
20654,-142.857142857143,4,2,1,30,0,8
21168,560.224089635854,4,2,1,30,1,8
21168,-200,4,2,1,30,0,8
22848,468.75,4,2,1,30,1,8
22848,-200,4,2,1,30,0,8
23316,968.914008881712,4,2,1,30,1,8
23316,-200,4,2,1,30,0,8
24769,-200,4,2,1,5,0,8
27191,659.340659340659,4,2,1,30,1,8
27191,-200,4,2,1,30,0,8
27520,512.820512820513,4,2,1,30,1,8
27520,-200,4,2,1,30,0,8
28032,-250,4,2,1,30,0,8
29571,681.818181818182,4,2,1,5,1,8
29571,-200,4,2,1,5,0,8
32298,967.741935483871,4,2,1,5,1,0
32298,-200,4,2,1,30,0,0
32781,952.380952380952,4,2,1,30,1,0
32781,-200,4,2,1,30,0,0
33257,952.380952380952,4,2,1,30,1,0
33257,-200,4,2,1,30,0,0
33733,952.380952380952,4,2,1,30,1,0
33733,-200,4,2,1,30,0,0
34209,895.522388059701,4,2,1,30,1,8
34209,-125,4,2,1,30,0,0
34656,937.5,4,2,1,30,1,0
34656,-125,4,2,1,30,0,0
36062,895.522388059701,4,2,1,30,1,0
36062,-125,4,2,1,30,0,0
36509,971.65991902834,4,2,1,30,1,0
36994,833.333333333333,4,2,1,30,1,0
36994,-125,4,2,1,30,0,0
37410,895.522388059701,4,2,1,30,1,0
37410,-125,4,2,1,30,0,0
37857,1057.26872246696,4,2,1,30,1,0
37857,-125,4,2,1,30,0,0
38385,857.142857142857,4,2,1,30,1,0
38813,852.272727272727,4,2,1,30,1,0
39239,937.5,4,2,1,30,1,0
39239,-125,4,2,1,30,0,0
40645,923.076923076923,4,2,1,30,1,0
40645,-125,4,2,1,30,0,0
41106,869.565217391304,4,2,1,30,1,0
41106,-125,4,2,1,30,0,0
41540,983.606557377049,4,2,1,30,1,0
41540,-125,4,2,1,30,0,0
42031,895.522388059701,4,2,1,30,1,0
42031,-125,4,2,1,30,0,0
42478,967.741935483871,4,2,1,30,1,0
42478,-125,4,2,1,30,0,0
42961,928.792569659443,4,2,1,30,1,0
42961,-125,4,2,1,30,0,0
43425,983.606557377049,4,2,1,30,1,0
43425,-125,4,2,1,30,0,0
43916,882.352941176471,4,2,1,30,1,0
43916,-125,4,2,1,30,0,0
44357,812.897981303346,4,2,1,30,1,0
44357,-125,4,2,1,30,0,0
47202,-125,4,2,1,5,0,0
47608,802.675585284281,4,2,1,5,1,0
48009,1000,4,2,1,30,1,0
48009,-125,4,2,1,30,0,0
48509,900.900900900901,4,2,1,30,1,0
48959,910.470409711684,4,2,1,30,1,0
48959,-125,4,2,1,30,0,0
49869,810.810810810811,4,2,1,30,1,0
50274,1000,4,2,1,30,1,0
50774,952.380952380952,4,2,1,30,1,0
50774,-125,4,2,1,30,0,0
51726,923.076923076923,4,2,1,30,1,0
51726,-125,4,2,1,30,0,0
53110,945.25403702245,4,2,1,30,1,0
53110,-125,4,2,1,30,0,0
54527,895.522388059701,4,2,1,30,1,0
54527,-125,4,2,1,30,0,0
54974,1018.67572156197,4,2,1,30,1,0
54974,-125,4,2,1,30,0,0
55483,967.741935483871,4,2,1,30,1,0
55483,-125,4,2,1,30,0,0
55966,813.559322033898,4,2,1,30,1,0
56372,957.701516360734,4,2,1,30,1,0
56372,-125,4,2,1,30,0,0
57329,875.912408759124,4,2,1,30,1,0
57329,-125,4,2,1,30,0,0
58204,962.309542902967,4,2,1,30,1,0
58204,-125,4,2,1,30,0,0
58685,796.812749003984,4,2,1,30,1,0
58685,-125,4,2,1,30,0,0
59083,943.025540275049,4,2,1,30,1,0
59083,-125,4,2,1,30,0,0
60497,923.076923076923,4,2,1,30,1,0
60497,-125,4,2,1,30,0,0
62805,944.88188976378,4,2,1,30,1,0
62805,-125,4,2,1,30,0,0
63749,881.057268722467,4,2,1,30,1,0
64189,967.741935483871,4,2,1,30,1,0
64189,-125,4,2,1,30,0,0
65156,857.142857142857,4,2,1,30,1,0
65584,913.24200913242,4,2,1,30,1,0
66497,896.191187453323,4,2,1,30,1,0
66497,-125,4,2,1,30,0,0
67841,922.367409684858,4,2,1,30,1,0
67841,-125,4,2,1,30,0,0
69224,945.626477541371,4,2,1,30,1,0
70169,975.609756097561,4,2,1,30,1,0
70169,-125,4,2,1,30,0,0
71144,905.660377358491,4,2,1,30,1,0
71144,-125,4,2,1,30,0,0
72049,967.741935483871,4,2,1,30,1,0
72049,-125,4,2,1,30,0,0
72532,854.092526690391,4,2,1,30,1,0
72532,-111.111111111111,4,2,1,30,0,0
72959,950.118764845606,4,2,1,30,1,0
72959,-125,4,2,1,30,0,0
73909,882.352941176471,4,2,1,30,1,0
73909,-250,4,2,1,30,0,0
75232,-125,4,2,1,30,0,0
76673,928.792569659443,4,2,1,30,1,0
77601,923.076923076923,4,2,1,30,1,0
77601,-125,4,2,1,30,0,0
80831,859.598853868195,4,2,1,30,1,0
80831,-125,4,2,1,30,0,0
81260,944.88188976378,4,2,1,30,1,0
81260,-125,4,2,1,30,0,0
82677,895.522388059701,4,2,1,30,1,0
82677,-125,4,2,1,30,0,0
84020,952.380952380952,4,2,1,30,1,0
84020,-125,4,2,1,30,0,0
84972,1061.94690265487,4,2,1,30,1,0
84972,-125,4,2,1,30,0,0
85502,781.758957654723,4,2,1,30,1,0
85502,-125,4,2,1,30,0,0
85892,928.433268858801,4,2,1,30,1,0
85892,-125,4,2,1,30,0,0
88677,920.951650038373,4,2,1,30,1,0
88677,-125,4,2,1,30,0,0
90288,-125,4,2,1,45,0,0
92360,923.076923076923,4,2,1,45,1,0
92360,-125,4,2,1,45,0,0
95129,882.352941176471,4,2,1,45,1,0
95129,-125,4,2,1,45,0,0
96011,1005.02512562814,4,2,1,45,1,0
96011,-125,4,2,1,45,0,0
96513,923.076923076923,4,2,1,45,1,0
96513,-125,4,2,1,45,0,0
96974,895.522388059701,4,2,1,45,1,0
96974,-125,4,2,1,45,0,0
98317,1008.40336134454,4,2,1,45,1,0
98317,-125,4,2,1,45,0,0
98821,923.076923076923,4,2,1,45,1,0
98821,-125,4,2,1,45,0,0
99744,923.076923076923,4,2,1,45,1,0
99744,-125,4,2,1,45,0,0
108975,895.522388059701,4,2,1,45,1,0
109870,951.625693893735,4,2,1,45,1,0
109870,-125,4,2,1,45,0,0
110821,923.076923076923,4,2,1,80,1,1
110821,-100,4,2,1,80,0,1
129744,890.86859688196,4,2,1,80,1,1
130189,895.522388059701,4,2,1,80,1,1
130860,1051.70902716915,4,2,1,80,1,1
131122,929.512006196747,4,2,1,80,1,1
132051,923.076923076923,4,2,1,80,1,1
132974,923.076923076923,4,2,1,80,1,1
133897,810.810810810811,4,2,1,80,1,1
134302,995.024875621891,4,2,1,80,1,1
134799,923.076923076923,4,2,1,80,1,1
135952,951.625693893735,4,2,1,80,1,1
136665,903.614457831325,4,2,1,80,1,1
137568,923.076923076923,4,2,1,80,1,1
138521,952.380952380952,4,2,1,80,1,1
138997,875.912408759124,4,2,1,80,1,1
139653,923.076923076923,4,2,1,80,1,1
140345,923.076923076923,4,2,1,70,1,0
169191,-100,4,2,1,80,0,1
169421,-100,4,2,1,70,0,0
169883,-100,4,2,1,80,0,1
182575,1008.40336134454,4,2,1,80,1,1
182827,909.090909090909,4,2,1,80,1,1
182827,-200,4,2,1,80,0,1
185554,939.702427564604,4,2,1,80,1,0
185554,-100,4,2,1,70,0,0
186493,1121.4953271028,4,2,1,80,1,1
186773,858.369098712446,4,2,1,80,1,1
187416,923.076923076923,4,2,1,80,1,1
190185,923.076923076923,4,2,1,80,1,1
199877,-100,4,2,1,65,0,1
200338,902.255639097744,4,2,1,80,1,1
200338,-100,4,2,1,70,0,1
200563,-100,4,2,1,70,0,1
200789,909.090909090909,4,2,1,75,1,1
200789,-100,4,2,1,75,0,1
201243,935.089223096704,4,2,1,80,1,1
201243,-100,4,2,1,80,0,1
204282,869.565217391304,4,2,1,80,1,1
204934,923.076923076923,4,2,1,80,1,1
205164,1000,4,2,1,80,1,1
205664,923.076923076923,4,2,1,80,1,1
210510,638.297872340426,4,2,1,80,1,1
210510,-144.927536231884,4,2,1,80,0,1
211148,-100,4,2,1,80,0,0
214202,952.380952380952,4,2,1,30,1,0
214202,-100,4,2,1,30,0,0
215154,789.473684210526,4,2,1,30,1,0
215943,857.142857142857,4,2,1,30,1,0
215943,-125,4,2,1,30,0,0
216371,1000,4,2,1,30,1,0
216621,789.473684210526,4,2,1,30,1,0
216621,-125,4,2,1,30,0,0
216818,779.220779220779,4,2,1,30,1,0
216818,-125,4,2,1,30,0,0
217158,975.609756097561,4,2,1,30,1,0
220084,1132.07547169811,4,2,1,30,1,0
220933,1348.31460674157,4,2,1,30,1,0
220933,-200,4,2,1,30,0,0
222955,-200,4,2,1,5,0,0
223629,967.741935483871,4,2,1,30,1,0
224596,952.380952380952,4,2,1,30,1,0
225548,983.606557377049,4,2,1,30,1,0
226531,927.357032457496,4,2,1,30,1,0
227226,923.076923076923,4,2,1,30,1,0
227918,967.741935483871,4,2,1,30,1,0
228401,927.357032457496,4,2,1,30,1,0
229328,931.67701863354,4,2,1,30,1,0
230259,929.512006196747,4,2,1,30,1,0
231188,952.380952380952,4,2,1,30,1,0
233092,937.5,4,2,1,30,1,0
234615,967.741935483871,4,2,1,30,1,0
234977,937.5,4,2,1,30,1,0
235914,983.606557377049,4,2,1,30,1,0
236405,923.076923076923,4,2,1,30,1,0
236866,926.640926640927,4,2,1,30,1,0
237329,1111.11111111111,4,2,1,30,1,0
237884,967.741935483871,4,2,1,30,1,0
237884,-200,4,2,1,15,0,0

[Colours]
Combo1 : 125,184,255
Combo2 : 215,132,6

[HitObjects]
300,312,3201,6,0,B|253:323|207:312|207:312|161:300|115:312,1,187.5,2|0,0:0|0:0,0:0:0:0:
24,302,4458,2,0,B|30:255|76:231|76:231|69:134,1,187.5,2|0,0:0|0:0,0:0:0:0:
71,134,6129,5,0,0:0:0:0:
160,164,6403,2,0,L|169:246,2,62.5,2|2|2,0:0|0:0|0:0,0:0:0:0:
160,164,10531,5,0,0:0:0:0:
244,188,10822,2,0,B|304:200|304:200|372:152,1,125,2|0,0:0|0:0,0:0:0:0:
424,108,11704,1,2,0:0:0:0:
284,32,12248,2,0,L|280:112,2,62.5,0|0|2,0:0|0:0|0:0,0:0:0:0:
284,32,16057,5,0,0:0:0:0:
196,48,16292,1,2,0:0:0:0:
108,64,16528,2,0,L|36:76,1,62.5,2|2,0:0|0:0,0:0:0:0:
46,74,18019,5,0,0:0:0:0:
104,152,18394,2,0,P|64:212|64:276,1,125,2|0,0:0|0:0,0:0:0:0:
120,336,19422,1,2,0:0:0:0:
256,240,19993,5,0,0:0:0:0:
256,240,20279,1,0,0:0:0:0:
315,313,20654,2,0,B|356:324|356:301|400:313,1,87.499997329712,2|0,0:0|0:0,0:0:0:0:
401,313,22848,5,2,0:0:0:0:
340,236,23316,2,0,L|352:48,1,187.5
351,48,27191,5,2,0:0:0:0:
348,136,27520,2,0,L|344:214,1,62.5
336,284,28032,2,0,P|208:321|72:240,1,300
72,239,32298,5,2,0:0:0:0:
156,264,32539,1,0,0:0:0:0:
140,176,32781,1,0,0:0:0:0:
172,348,33257,5,0,0:0:0:0:
256,248,33733,1,2,0:0:0:0:
348,364,34209,2,0,L|456:356,1,100,2|2,0:0|0:0,0:0:0:0:
455,236,35124,6,0,L|247:248,1,200,0|2,0:0|0:0,0:0:0:0:
140,176,36509,1,0,0:0:0:0:
236,96,36994,2,0,P|284:112|344:104,1,100,0|2,0:0|0:0,0:0:0:0:
128,28,37857,2,0,P|80:44|20:36,1,100,2|0,0:0|0:0,0:0:0:0:
236,96,38813,5,2,0:0:0:0:
140,176,39239,1,2,0:0:0:0:
236,96,39707,1,0,0:0:0:0:
208,256,40176,1,2,0:0:0:0:
312,148,40645,6,0,P|328:100|312:48,1,100,2|0,0:0|0:0,0:0:0:0:
324,228,41540,2,0,P|369:205|394:157,1,100,2|0,0:0|0:0,0:0:0:0:
240,196,42478,2,0,P|224:148|240:96,1,100,2|0,0:0|0:0,0:0:0:0:
228,276,43425,2,0,P|182:253|157:205,1,100,2|0,0:0|0:0,0:0:0:0:
324,228,44357,5,2,0:0:0:0:
256,192,44560,12,0,47202,0:0:0:0:
424,324,48009,5,0,0:0:0:0:
340,268,48509,1,0,0:0:0:0:
412,196,48959,2,0,P|392:152|404:80,1,100,2|0,0:0|0:0,0:0:0:0:
492,132,49869,5,0,0:0:0:0:
472,32,50274,1,0,0:0:0:0:
394,101,50774,2,0,P|352:80|288:88,1,100,2|0,0:0|0:0,0:0:0:0:
232,156,51726,6,0,P|142:112|44:119,1,200,0|2,0:0|0:0,0:0:0:0:
8,212,53110,1,0,0:0:0:0:
32,308,53582,2,0,P|96:296|136:264,1,100
212,328,54527,2,0,P|276:340|316:372,1,100,2|0,0:0|0:0,0:0:0:0:
392,304,55483,6,0,L|384:192,1,100
216,168,56372,2,0,L|208:280,1,100,2|0,0:0|0:0,0:0:0:0:
300,188,57329,2,0,L|292:76,1,100
124,52,58204,2,0,L|116:164,1,100,2|0,0:0|0:0,0:0:0:0:
100,332,59083,6,0,P|81:236|33:305,1,200,0|2,0:0|0:0,0:0:0:0:
100,332,60497,1,0,0:0:0:0:
204,192,60958,2,0,L|214:42,1,150
292,84,61881,2,0,B|360:112|372:64|440:84,1,150,2|0,0:0|0:0,0:0:0:0:
408,160,62805,6,0,L|412:272,1,100
412,360,63749,1,2,0:0:0:0:
324,308,64189,2,0,B|280:312|256:336|256:336|232:312|188:308,1,150,2|0,0:0|0:0,0:0:0:0:
188,308,65156,1,0,0:0:0:0:
100,360,65584,1,2,0:0:0:0:
0,188,66497,6,0,P|48:216|120:204,1,100
144,132,67393,1,2,0:0:0:0:
194,218,67841,2,0,B|224:248|224:248|286:248|286:248|317:218,1,150,2|0,0:0|0:0,0:0:0:0:
318,217,68763,1,0,0:0:0:0:
368,132,69224,1,2,0:0:0:0:
368,132,70169,6,0,P|411:154|440:204,1,100
344,228,71144,2,0,P|358:273|344:329,1,100,2|0,0:0|0:0,0:0:0:0:
144,132,72049,2,0,P|101:154|72:204,1,100
168,228,72959,2,0,P|153:273|168:329,1,100,2|0,0:0|0:0,0:0:0:0:
256,348,73909,6,0,L|256:192,1,150,2|2,0:0|0:0,0:0:0:0:
256,198,77601,5,0,0:0:0:0:
168,148,78062,1,0,0:0:0:0:
160,248,78524,2,0,P|180:292|168:364,1,100,2|0,0:0|0:0,0:0:0:0:
80,316,79447,5,0,0:0:0:0:
64,216,79908,1,0,0:0:0:0:
48,116,80370,2,0,L|36:16,1,100,2|0,0:0|0:0,0:0:0:0:
132,48,81260,6,0,B|228:80|228:80|284:80|312:28,1,200,0|2,0:0|0:0,0:0:0:0:
416,32,82677,1,0,0:0:0:0:
416,32,82900,2,0,P|464:96|468:172,1,150,2|0,0:0|0:0,0:0:0:0:
400,240,84020,2,0,P|351:227|303:237,1,100,2|0,0:0|0:0,0:0:0:0:
236,312,84972,6,0,L|124:304,1,100
80,148,85892,2,0,L|192:140,1,100,2|0,0:0|0:0,0:0:0:0:
344,216,86820,2,0,L|232:208,1,100
188,52,87748,2,0,L|300:44,1,100,2|0,0:0|0:0,0:0:0:0:
344,216,88677,6,0,P|360:140|476:96,1,200,0|2,0:0|0:0,0:0:0:0:
440,192,90058,2,0,L|424:264,1,50,0|0,0:0|3:0,0:0:0:0:
412,324,90518,6,0,P|364:336|312:324,1,100,0|0,3:2|0:0,0:0:0:0:
156,248,91439,2,0,P|204:260|256:248,1,100,0|0,3:0|0:0,0:0:0:0:
210,64,92360,6,0,L|206:176,1,100,0|0,3:2|0:0,0:0:0:0:
156,248,93283,1,8,0:0:0:0:
188,344,93744,2,0,B|232:340|256:316|256:316|280:340|324:344,1,150,2|0,0:0|0:0,0:0:0:0:
323,343,94667,1,0,0:0:0:0:
356,248,95129,1,8,0:0:0:0:
356,248,96011,6,0,P|396:208|408:160,1,100,0|0,3:2|0:0,0:0:0:0:
308,156,96974,1,8,0:0:0:0:
308,56,97421,2,0,B|292:24|292:24|272:24|256:11|256:11|240:24|220:24|220:24|204:56,1,150,2|0,0:0|0:0,0:0:0:0:
203,56,98317,1,0,0:0:0:0:
204,156,98821,1,8,0:0:0:0:
204,156,99513,6,0,L|212:212,1,50,0|0,0:0|3:0,0:0:0:0:
268,288,100205,1,0,0:0:0:0:
192,352,100667,2,0,P|149:326|88:332,1,100,8|0,0:0|0:0,0:0:0:0:
28,256,101590,2,0,L|39:156,1,100,0|0,3:0|0:0,0:0:0:0:
52,56,102513,2,0,P|94:30|143:31,1,100,8|0,0:0|0:0,0:0:0:0:
204,108,103436,5,0,0:0:0:0:
308,108,103897,1,2,0:0:0:0:
200,192,104359,5,0,0:0:0:0:
312,192,104820,1,2,0:0:0:0:
196,276,105282,5,0,0:0:0:0:
316,276,105744,1,2,0:0:0:0:
192,360,106205,5,0,0:0:0:0:
320,360,106667,1,2,0:0:0:0:
196,276,107128,6,0,P|152:260|96:264,1,100,2|8,0:0|3:0,0:0:0:0:
316,276,108051,2,0,P|360:260|416:264,1,100,0|8,3:0|3:0,0:0:0:0:
256,188,108974,1,6,3:2:0:0:
444,60,109870,5,2,1:2:0:0:
396,212,110107,2,0,P|372:168|375:119,1,100,0|0,3:0|0:0,0:0:0:0:
460,147,110821,5,6,3:2:0:0:
444,60,111051,1,2,0:0:0:0:
444,60,111282,1,2,0:0:0:0:
444,60,111513,1,2,0:0:0:0:
289,136,111744,2,0,P|218:139|147:81,1,125,0|0,1:0|0:0,0:0:0:0:
132,36,112436,1,0,3:0:0:0:
84,148,112667,6,0,L|105:301,1,125,0|0,3:0|3:0,0:0:0:0:
112,360,113359,1,2,0:0:0:0:
184,312,113590,2,0,B|224:304|224:304|261:321|261:321|308:312,1,125,2|0,1:2|0:0,0:0:0:0:
364,252,114282,1,2,0:0:0:0:
444,372,114513,6,0,P|444:336|432:292,1,62.5,0|2,3:0|0:0,0:0:0:0:
364,252,114974,2,0,P|364:216|376:172,1,62.5,2|2,0:0|0:0,0:0:0:0:
300,136,115436,2,0,P|252:160|180:152,1,125,0|0,1:0|0:0,0:0:0:0:
128,84,116128,1,0,3:0:0:0:
92,164,116359,6,0,L|104:240,2,62.5,0|0|0,3:0|1:0|3:0,0:0:0:0:
264,216,117282,1,2,1:2:0:0:
300,136,117513,2,0,L|288:60,2,62.5,2|2|2,0:0|0:0|0:0,0:0:0:0:
356,204,118205,6,0,B|400:168|388:112|388:112|376:56,1,125,4|2,3:1|0:0,0:0:0:0:
360,8,118897,1,2,0:0:0:0:
476,100,119128,2,0,P|472:188|428:252,1,125,0|2,1:0|0:0,0:0:0:0:
388,276,119821,1,2,3:2:0:0:
300,136,120051,6,0,P|248:108|172:124,1,125,0|2,3:0|0:0,0:0:0:0:
232,192,120744,1,2,0:0:0:0:
164,248,120974,2,0,P|216:276|292:260,1,125,0|0,1:0|0:0,0:0:0:0:
232,192,121667,1,2,0:0:0:0:
300,136,121897,5,2,3:2:0:0:
164,248,122359,1,2,0:0:0:0:
32,132,122821,1,0,1:0:0:0:
24,220,123051,2,0,L|16:300,1,62.5,2|2,0:0|0:0,0:0:0:0:
170,310,123513,6,0,L|163:247,1,62.5,2|0,0:0|3:0,0:0:0:0:
100,188,123974,1,0,1:0:0:0:
120,104,124205,1,0,3:0:0:0:
80,276,124667,1,2,1:2:0:0:
248,220,125128,1,2,1:2:0:0:
312,384,125590,5,4,3:1:0:0:
356,308,125821,1,2,0:0:0:0:
356,308,126051,1,2,0:0:0:0:
356,308,126282,1,2,0:0:0:0:
248,220,126513,6,0,P|232:156|276:76,1,125,0|0,1:0|0:0,0:0:0:0:
320,44,127205,1,0,3:0:0:0:
376,164,127436,2,0,B|406:175|436:164|436:164|467:152|497:164,1,125,0|0,3:0|3:0,0:0:0:0:
472,244,128128,1,0,0:0:0:0:
404,80,128359,2,0,B|373:68|343:80|343:80|312:91|282:80,1,125,2|0,1:2|0:0,0:0:0:0:
212,28,129051,1,2,0:0:0:0:
96,108,129282,6,0,L|88:200,1,62.5,0|2,3:0|0:0,0:0:0:0:
26,298,129744,2,0,L|31:235,1,62.5,2|2,3:2|0:0,0:0:0:0:
90,170,130189,1,0,1:0:0:0:
136,244,130412,1,2,3:2:0:0:
192,176,130636,1,2,3:2:0:0:
238,250,130860,1,2,3:2:0:0:
292,180,131122,6,0,L|280:16,1,125,4|0,3:2|0:0,0:0:0:0:
456,72,132051,2,0,L|450:154,1,62.5,2|2,1:2|0:0,0:0:0:0:
444,220,132512,1,2,3:2:0:0:
376,168,132743,1,2,3:2:0:0:
296,272,132974,6,0,P|240:240|168:248,1,125,4|2,3:2|3:2,0:0:0:0:
104,288,133666,1,0,0:0:0:0:
24,256,133897,2,0,B|8:196|8:196|24:120,1,125,2|2,1:2|0:0,0:0:0:0:
40,48,134550,1,2,0:0:0:0:
108,104,134799,6,0,P|144:100|180:84,1,62.5,0|2,3:0|0:0,0:0:0:0:
248,48,135260,2,0,P|284:52|320:68,1,62.5,2|2,3:2|0:0,0:0:0:0:
260,132,135722,1,0,1:0:0:0:
316,256,135952,2,0,P|356:204|340:128,1,125,2|2,0:0|0:0,0:0:0:0:
191,195,136665,6,0,P|216:215|230:242,1,62.5,0|2,3:0|0:0,0:0:0:0:
212,328,137116,1,0,0:0:0:0:
104,192,137568,2,0,P|112:148|88:88,2,93.75,2|2|2,1:2|3:2|3:2,0:0:0:0:
28,152,138521,5,2,3:2:0:0:
172,52,138997,1,0,3:0:0:0:
232,116,139215,2,0,L|218:171,2,31.25,0|0|2,0:0|1:0|1:2,0:0:0:0:
316,88,139653,5,2,3:2:0:0:
376,152,139883,1,2,3:2:0:0:
456,120,140114,1,2,3:2:0:0:
295,183,140345,6,0,P|338:228|399:236,1,125,6|0,3:2|0:0,0:0:0:0:
376,152,141037,1,0,0:0:0:0:
232,116,141268,2,0,P|204:176|220:240,1,125,0|0,1:0|0:0,0:0:0:0:
268,304,141960,1,0,0:0:0:0:
192,344,142191,6,0,L|120:340,2,62.5,2|0|0,3:2|1:0|3:0,0:0:0:0:
344,260,143114,1,2,1:2:0:0:
424,224,143345,2,0,B|444:164|444:164|424:96,1,125,2|0,0:0|0:0,0:0:0:0:
392,24,144037,6,0,L|256:32,1,125,2|0,3:2|0:0,0:0:0:0:
92,36,144960,1,0,1:0:0:0:
188,180,145421,1,0,0:0:0:0:
188,180,145652,1,0,3:0:0:0:
275,175,145883,6,0,L|359:171,2,62.5,0|0|0,3:0|1:0|3:0,0:0:0:0:
100,184,146806,1,2,1:2:0:0:
148,256,147037,1,2,0:0:0:0:
88,320,147268,2,0,L|4:316,1,62.5,2|2,3:2|0:0,0:0:0:0:
148,256,147729,6,0,B|176:228|224:232|224:232|284:256,1,125,6|0,3:2|0:0,0:1:0:0:
208,316,148421,1,0,3:0:0:0:
332,308,148652,2,0,P|348:224|316:176,1,125,0|0,1:0|0:0,0:0:0:0:
396,132,149345,1,0,3:0:0:0:
396,132,149575,5,0,3:0:0:0:
264,248,150037,1,0,3:0:0:0:
112,160,150498,1,0,1:0:0:0:
44,220,150729,2,0,P|28:136|60:88,1,125,2|0,0:0|0:0,0:0:0:0:
128,72,151421,5,4,3:2:0:0:
336,158,151883,2,0,P|307:168|275:167,1,62.5,2|0,0:0|0:0,0:0:0:0:
392,84,152345,2,0,P|397:53|413:26,1,62.5,2|0,1:2|0:0,0:0:0:0:
428,169,152806,2,0,P|451:188|466:216,1,62.5,2|2,1:2|0:0,0:0:0:0:
376,280,153268,6,0,P|354:257|343:228,1,62.5,2|2,3:2|1:2,0:0:0:0:
215,170,153729,2,0,P|245:162|275:167,1,62.5,0|2,1:2|3:2,0:0:0:0:
391,84,154191,2,0,P|382:113|363:138,1,62.5,2|2,1:2|3:2,0:0:0:0:
216,56,154652,2,0,P|224:26|243:1,1,62.5,2|0,3:2|3:0,0:0:0:0:
304,72,155114,6,0,P|264:132|184:140,1,125,4|0,3:2|0:0,0:0:0:0:
128,132,155806,1,0,3:0:0:0:
44,148,156037,1,0,1:0:0:0:
120,304,156498,2,0,P|120:340|108:396,2,62.5,0|0|0,0:0|3:0|3:0,0:0:0:0:
44,148,157421,5,0,3:0:0:0:
188,248,157883,2,0,P|224:236|272:240,1,62.5,0|2,1:0|0:0,0:0:0:0:
296,340,158345,2,0,P|260:328|212:332,1,62.5,2|2,0:0|0:0,0:0:0:0:
388,308,158806,6,0,P|348:252|344:160,1,125,6|0,3:2|0:0,0:0:0:0:
356,112,159498,1,0,0:0:0:0:
412,44,159729,1,0,1:0:0:0:
236,32,160191,2,0,L|136:28,1,62.5,0|0,0:0|3:0,0:0:0:0:
124,104,160652,6,0,L|0:108,2,125,0|0|2,0:0|3:0|1:2,0:0:0:0:
284,180,162037,2,0,L|384:176,1,62.5,0|0,0:0|3:0,0:0:0:0:
196,180,162498,5,6,3:2:0:0:
348,264,162960,1,0,3:0:0:0:
172,264,163421,1,2,1:2:0:0:
324,352,163883,1,0,0:0:0:0:
252,300,164114,6,0,L|264:248,2,31.25,2|2|2,0:0|1:2|1:2,0:0:0:0:
324,352,164575,1,0,1:0:0:0:
172,264,164806,2,0,L|200:120,1,125,0|0,3:0|1:0,0:0:0:0:
116,108,165498,1,0,0:0:0:0:
32,80,165729,2,0,L|20:141,1,62.5,0|0,3:0|3:0,0:0:0:0:
4,228,166191,6,0,P|32:240|84:240,1,62.5,6|0,3:2|0:0,0:0:0:0:
120,312,166652,2,0,P|148:300|200:300,1,62.5,0|0,3:0|0:0,0:0:0:0:
252,344,167114,2,0,P|308:296|384:308,1,125,2|0,1:2|1:0,0:0:0:0:
336,380,167806,1,0,1:0:0:0:
432,252,168037,6,0,P|423:223|427:187,1,62.5,0|0,1:0|3:0,0:0:0:0:
456,48,168498,2,0,P|464:76|460:112,1,62.5,0|0,3:0|3:0,0:0:0:0:
428,192,168960,1,2,1:2:0:0:
376,88,169191,2,0,P|312:92|260:56,1,125,6|0,3:2|0:0,0:0:0:0:
188,156,169883,6,0,L|196:252,1,62.5,6|0,3:2|0:0,0:0:0:0:
112,256,170345,2,0,L|68:212,1,62.5,2|0,0:0|0:0,0:0:0:0:
12,144,170806,1,2,1:2:0:0:
48,316,171268,1,2,1:2:0:0:
48,316,171498,1,2,0:0:0:0:
184,312,171729,6,0,B|232:308|232:308|268:340|328:336,1,125,2|2,3:2|0:0,0:0:0:0:
368,240,172421,2,0,L|296:248,1,62.5,2|2,0:0|1:2,0:0:0:0:
128,160,172883,2,0,P|172:196|240:188,1,125,2|0,0:0|3:0,0:0:0:0:
216,4,173575,6,0,B|184:48|184:48|200:116,1,125,2|2,3:2|0:0,0:0:0:0:
288,124,174268,1,2,0:0:0:0:
352,64,174498,2,0,B|384:32|384:32|432:20|484:48,1,125,2|2,1:2|0:0,0:0:0:0:
424,116,175191,1,2,3:2:0:0:
444,200,175421,6,0,L|440:288,2,62.5,2|0|0,3:2|1:0|3:0,0:0:0:0:
288,124,176345,2,0,L|300:24,1,62.5,0|0,1:0|3:0,0:0:0:0:
236,196,176806,2,0,L|248:296,1,62.5,2|2,1:2|1:2,0:0:0:0:
176,128,177268,5,2,3:2:0:0:
120,196,177498,1,2,0:0:0:0:
60,132,177729,1,2,0:0:0:0:
4,196,177960,2,0,L|12:264,1,62.5,2|0,0:0|1:0,0:0:0:0:
156,360,178652,5,0,3:0:0:0:
256,216,179114,1,4,1:2:0:0:
356,72,179575,1,0,3:0:0:0:
256,216,180037,1,0,1:0:0:0:
156,72,180498,5,2,3:2:0:0:
156,72,180729,1,2,0:0:0:0:
104,144,180960,2,0,L|112:260,2,93.75,6|2|2,1:2|0:0|0:0,0:0:0:0:
256,112,181883,2,0,L|249:18,2,93.75,2|8|4,1:2|3:0|3:0,0:0:0:0:
408,144,182827,6,0,P|256:237|104:144,1,375,6|4,3:2|3:0,0:0:0:0:
103,143,186493,5,6,3:2:0:0:
40,220,186773,1,2,0:0:0:0:
40,220,186987,1,2,0:0:0:0:
40,220,187202,1,2,0:0:0:0:
148,340,187416,2,0,P|219:343|290:285,1,125,0|0,1:0|0:0,0:0:0:0:
332,244,188108,1,0,3:0:0:0:
420,292,188339,6,0,P|432:264|424:216,1,62.5,0|0,3:0|1:0,0:0:0:0:
384,100,188800,2,0,P|372:128|380:176,1,62.5,0|0,3:0|0:0,0:0:0:0:
416,8,189262,2,0,B|375:3|375:3|340:23|340:23|292:18,1,125,2|2,1:2|0:0,0:0:0:0:
196,12,189954,1,2,0:0:0:0:
212,136,190185,6,0,L|220:216,1,62.5,0|2,3:0|0:0,0:0:0:0:
128,72,190646,2,0,L|120:144,1,62.5,2|2,0:0|0:0,0:0:0:0:
164,280,191108,2,0,P|213:260|284:274,1,125,0|0,1:0|0:0,0:0:0:0:
225,357,191800,1,0,3:0:0:0:
325,362,192031,6,0,P|352:364|388:376,2,62.5,0|0|0,3:0|1:0|3:0,0:0:0:0:
218,198,192954,1,2,1:2:0:0:
164,280,193185,2,0,P|137:278|101:266,2,62.5,2|2|2,3:2|1:2|1:2,0:0:0:0:
16,308,193877,6,0,B|11:286|11:286|0:230|43:194,1,125,4|2,3:1|0:0,0:0:0:0:
136,160,194569,1,2,0:0:0:0:
228,204,194800,2,0,B|268:196|268:196|304:216|304:216|348:208,1,125,0|2,1:0|0:0,0:0:0:0:
484,188,195492,6,0,L|468:56,1,125,6|0,3:2|1:0,0:0:0:0:
388,4,196185,1,2,3:2:0:0:
348,96,196415,1,2,0:0:0:0:
272,32,196646,2,0,P|204:48|144:36,1,125,0|0,1:0|0:0,0:0:0:0:
56,8,197338,1,2,3:2:0:0:
76,104,197569,5,2,3:2:0:0:
240,220,198031,1,2,3:2:0:0:
40,236,198492,1,0,1:0:0:0:
124,184,198723,2,0,L|180:148,1,62.5,2|2,3:2|3:2,0:0:0:0:
345,152,199185,6,0,L|233:224,1,125,6|2,3:2|3:2,0:0:0:0:
156,272,199877,6,0,P|160:308|184:344,1,62.5,0|2,1:0|1:2,0:0:0:0:
124,184,200339,2,0,P|90:169|47:172,1,62.5,0|0,1:0|1:0,0:0:0:0:
216,200,200789,2,0,P|245:178|264:139,1,62.5,2|0,1:2|1:0,0:0:0:0:
168,112,201243,5,6,3:2:0:0:
256,60,201476,1,2,0:0:0:0:
256,60,201710,1,2,3:2:0:0:
256,60,201944,2,0,P|320:44|400:88,1,125,2|2,0:0|3:2,0:0:0:0:
440,192,202645,1,0,3:0:0:0:
374,321,202879,6,0,P|315:340|255:323,1,125,4|0,3:2|1:0,0:0:0:0:
316,244,203580,1,0,3:0:0:0:
220,148,203814,2,0,B|251:160|281:148|281:148|312:137|342:148,1,125,2|0,0:0|0:0,0:0:0:0:
316,244,204499,1,2,1:2:0:0:
316,244,204716,1,0,1:0:0:0:
196,244,204934,6,0,L|104:252,1,62.5,2|2,3:2|0:0,0:0:0:0:
220,148,205414,2,0,L|312:156,1,62.5,2|2,0:0|3:2,0:0:0:0:
380,164,205894,1,0,1:0:0:0:
340,72,206125,1,0,3:0:0:0:
440,84,206356,1,2,3:2:0:0:
340,72,206587,6,0,L|216:62,1,125,6|2,3:2|1:2,0:0:0:0:
116,52,207279,1,0,3:0:0:0:
116,52,207510,1,0,3:0:0:0:
156,140,207740,2,0,P|157:171|151:202,1,62.5,2|2,1:2|0:0,0:0:0:0:
100,288,208202,1,2,1:2:0:0:
100,288,208433,1,2,3:2:0:0:
244,232,208664,6,0,B|280:244|300:264|300:264|332:252|368:264,1,125,4|2,3:2|3:2,0:0:0:0:
336,360,209356,1,0,0:0:0:0:
432,332,209587,2,0,B|460:312|464:272|464:272|456:204,1,125,2|2,1:2|0:0,0:0:0:0:
448,116,210279,1,2,0:0:0:0:
364,60,210510,6,0,P|320:52|280:64,2,86.2500001316071,2|0|2,3:2|0:0|0:0,0:0:0:0:
328,152,211467,1,6,3:2:0:0:
256,192,211786,12,0,214180,0:0:0:0:
328,152,215154,5,2,0:0:0:0:
308,136,216157,2,0,P|280:124|252:120,1,50
176,160,216621,2,0,P|148:172|120:176,1,50,0|2,0:0|0:0,0:0:0:0:
64,116,217012,2,0,L|68:100,3,12.5,0|0|0|2,0:0|0:0|0:0|0:0,0:0:0:0:
64,116,220084,5,2,0:0:0:0:
186,110,220367,1,0,0:0:0:0:
303,137,220650,1,0,0:0:0:0:
399,195,220933,6,0,P|328:248|236:228,1,187.5
128,132,223629,5,2,0:0:0:0:
149,179,223870,1,0,0:0:0:0:
151,228,224112,1,0,0:0:0:0:
139,277,224354,1,2,0:0:0:0:
106,315,224596,1,0,0:0:0:0:
106,315,225548,1,2,0:0:0:0:
106,315,226531,1,2,0:0:0:0:
236,228,227456,5,2,0:0:0:0:
285,209,227687,1,0,0:0:0:0:
338,209,227918,1,0,0:0:0:0:
389,229,228159,1,2,0:0:0:0:
426,269,228401,1,0,0:0:0:0:
426,269,229328,1,2,0:0:0:0:
426,269,230259,1,2,0:0:0:0:
364,128,231188,5,2,0:0:0:0:
327,137,231426,1,0,0:0:0:0:
297,160,231664,1,0,0:0:0:0:
281,194,231902,1,2,0:0:0:0:
277,231,232140,1,0,0:0:0:0:
426,269,232616,1,0,0:0:0:0:
364,128,233092,1,2,0:0:0:0:
364,128,234029,1,2,0:0:0:0:
216,156,234977,5,2,0:0:0:0:
192,161,235211,1,0,0:0:0:0:
167,165,235445,1,0,0:0:0:0:
141,170,235680,1,2,0:0:0:0:
118,175,235914,5,0,0:0:0:0:
144,296,236405,1,0,0:0:0:0:
276,256,236866,5,2,0:0:0:0:
250,377,237329,1,0,0:0:0:0:
144,296,237884,6,0,B|82:250|119:156|189:168|189:168|259:180|296:86|234:40,1,375,2|2,0:0|0:0,0:0:0:0:
