osu file format v14

[General]
AudioFilename: audio.mp3
AudioLeadIn: 0
PreviewTime: 132555
Countdown: 0
SampleSet: Soft
StackLeniency: 0.7
Mode: 0
LetterboxInBreaks: 0
WidescreenStoryboard: 1

[Editor]
DistanceSpacing: 1
BeatDivisor: 4
GridSize: 4
TimelineZoom: 1

[Metadata]
Title:Ah-Choo
TitleUnicode:Ah-Choo
Artist:Lovelyz
ArtistUnicode:러블리즈
Creator:TaMul
Version:Normal
Source:
Tags:Kpop korean 베이비소울 유지애 서지수 이미주 케이 진 류수정 정예인 babysoul Yujiae SeoJisu IMiju Kei JIN RyuSujeong JeongYein
BeatmapID:1025345
BeatmapSetID:480270

[Difficulty]
HPDrainRate:5
CircleSize:4
OverallDifficulty:4
ApproachRate:4
SliderMultiplier:1.4
SliderTickRate:4

[Events]
//Background and Video events
0,0,"bg.jpg",0,0
//Break Periods
2,148264,154503
2,174921,179542
//Storyboard Layer 0 (Background)
//Storyboard Layer 1 (Fail)
//Storyboard Layer 2 (Pass)
//Storyboard Layer 3 (Foreground)
//Storyboard Sound Samples

[TimingPoints]
15981,472.44094488189,4,3,1,80,1,0
18106,-100,4,2,1,80,0,0
28500,-100,4,2,3,80,0,0
28618,-100,4,2,1,80,0,0
32752,-100,4,2,2,80,0,0
32988,-100,4,2,1,80,0,0
34878,-100,4,2,3,80,0,0
34996,-100,4,2,1,80,0,0
36768,-100,4,2,3,80,0,0
36886,-100,4,2,1,80,0,0
38658,-100,4,2,3,80,0,0
38776,-100,4,2,1,80,0,0
39603,-100,4,2,3,80,0,0
39721,-100,4,2,1,80,0,0
41729,-100,4,2,3,80,0,0
41847,-100,4,2,1,80,0,0
43855,-100,4,2,2,80,0,0
43973,-100,4,2,1,80,0,0
52122,-100,4,3,1,80,0,0
52358,-100,4,1,2,80,0,1
52477,-100,4,2,1,80,0,1
52831,-100,4,2,3,80,0,1
52949,-100,4,2,1,80,0,1
65114,-100,4,2,3,80,0,1
65232,-100,4,2,1,80,0,1
66414,-100,4,2,1,80,0,0
67477,-100,4,1,2,80,0,1
67949,-100,4,2,1,80,0,1
80232,-100,4,2,3,80,0,1
80351,-100,4,2,1,80,0,1
82122,-100,4,2,1,80,0,0
83776,-100,4,2,4,80,0,0
84248,-100,4,2,1,80,0,0
86847,-100,4,2,4,80,0,0
86965,-100,4,2,1,80,0,0
91335,-100,4,2,2,80,0,0
91571,-100,4,2,1,80,0,0
99012,-100,4,2,2,80,0,0
99130,-100,4,2,1,80,0,0
101020,-100,4,2,3,80,0,0
101138,-100,4,2,1,80,0,0
109996,-100,4,2,2,80,0,0
110114,-100,4,2,1,80,0,0
118264,-100,4,3,1,80,0,0
118500,-100,4,1,2,80,0,1
118618,-100,4,2,1,80,0,1
118973,-100,4,2,3,80,0,1
119091,-100,4,2,1,80,0,1
129366,-100,4,2,3,80,0,1
129484,-100,4,2,1,80,0,1
131256,-100,4,2,3,80,0,1
131374,-100,4,2,1,80,0,1
132555,-100,4,2,1,80,0,0
133618,-100,4,1,2,80,0,1
133736,-100,4,2,1,80,0,1
144484,-100,4,2,3,80,0,1
144603,-100,4,2,1,80,0,1
146374,-100,4,2,3,80,0,1
146492,-100,4,2,1,80,0,1
147555,-100,4,2,3,80,0,1
147792,-100,4,2,1,80,0,1
148264,-100,4,2,1,80,0,0
156768,-100,4,2,0,80,0,0
156886,-100,4,2,1,80,0,0
158658,-100,4,2,0,80,0,0
158776,-100,4,2,1,80,0,0
160547,-100,4,2,0,80,0,0
160784,-100,4,2,1,80,0,0
162437,-100,4,2,0,80,0,0
162555,-100,4,2,1,80,0,0
164327,-100,4,2,0,80,0,0
164445,-100,4,2,1,80,0,0
166217,-100,4,2,0,80,0,0
166335,-100,4,2,1,80,0,0
167162,-100,4,2,3,80,0,0
167280,-100,4,2,1,80,0,0
168106,-100,4,2,0,80,0,0
168343,-100,4,2,1,80,0,0
186059,-100,4,2,3,80,0,0
186177,-100,4,2,1,80,0,0
187004,-100,4,2,3,80,0,0
187122,-100,4,2,1,80,0,0
187949,-100,4,2,3,80,0,0
188067,-100,4,2,1,80,0,0
190075,-100,4,3,1,80,0,0
190311,-100,4,1,2,80,0,1
191020,-100,4,2,1,80,0,1
201177,-100,4,2,3,80,0,1
201295,-100,4,2,1,80,0,1
203067,-100,4,2,3,80,0,1
203185,-100,4,2,1,80,0,1
204248,-100,4,2,3,80,0,1
204484,-100,4,2,1,80,0,1
204957,-100,4,2,1,60,0,0
207910,-100,4,2,1,40,0,0
212634,-100,4,2,4,20,0,0

[Colours]
Combo1 : 255,128,192
Combo2 : 255,128,255

[HitObjects]
60,100,17870,5,10,0:0:0:0:
108,152,18106,1,0,0:0:0:0:
180,148,18343,2,0,P|216:136|252:144,1,70,8|0,0:0|0:0,0:0:0:0:
308,172,18815,2,0,P|324:216|412:232,1,140,2|8,0:0|0:0,0:0:0:0:
380,168,19524,1,0,0:0:0:0:
352,104,19760,6,0,P|419:107|451:166,2,140,2|8|2,0:0|0:0|0:0,0:0:0:0:
280,108,20941,1,2,0:0:0:0:
256,44,21177,2,0,B|184:32|184:56|112:44,1,140,8|2,0:0|0:0,0:0:0:0:
72,176,22122,6,0,P|60:204|64:248,1,70,8|0,0:0|0:0,0:0:0:0:
120,284,22595,2,0,P|132:256|128:216,1,70,2|0,0:0|0:0,0:0:0:0:
140,148,23067,2,0,P|176:144|208:128,1,70,8|0,0:0|0:0,0:0:0:0:
256,180,23540,1,2,0:0:0:0:
248,248,23776,1,0,0:0:0:0:
300,296,24012,1,8,0:0:0:0:
464,144,25666,5,0,0:0:0:0:
412,96,25902,1,8,0:0:0:0:
396,164,26138,2,0,P|344:176|328:192,1,70,0|2,0:0|0:0,0:0:0:0:
136,116,27083,6,0,P|176:116|208:132,1,70,0|2,0:0|0:0,0:0:0:0:
80,60,27792,2,0,P|132:44|220:56,2,140,8|2|8,0:0|0:0|0:0,0:0:0:0:
300,332,29918,5,0,0:0:0:0:
288,264,30154,1,2,0:0:0:0:
356,288,30390,1,0,0:0:0:0:
368,356,30626,2,0,P|400:340|424:304,1,70,8|0,0:0|0:0,0:0:0:0:
416,244,31099,2,0,P|456:252|480:280,2,70,2|0|8,0:0|0:0|0:0,0:0:0:0:
304,160,32043,6,0,P|260:176|236:172,1,70,2|2,0:0|0:0,0:0:0:0:
172,152,32516,2,8,P|120:132|32:144,2,140,0|2|8,0:0|0:0|0:0,0:0:0:0:
256,40,33933,6,0,P|296:52|324:48,1,70,2|0,0:0|0:0,0:0:0:0:
392,28,34406,1,8,0:0:0:0:
460,16,34642,2,0,P|441:80|376:96,1,140
372,168,35351,6,0,P|384:204|384:244,1,70,8|0,0:0|0:0,0:0:0:0:
364,304,35823,1,2,0:0:0:0:
296,328,36059,1,0,0:0:0:0:
228,308,36295,1,8,0:0:0:0:
200,244,36532,2,0,P|160:324|248:376,1,210,0|8,0:0|0:0,0:0:0:0:
272,240,37713,6,0,P|260:204|232:180,1,70,2|0,0:0|0:0,0:0:0:0:
168,168,38185,1,8,0:0:0:0:
104,200,38421,2,0,P|96:152|164:96,1,140
156,28,39130,2,0,B|188:20|220:56|220:56|280:28|280:28|312:52|348:44,1,210,8|2,0:0|0:0,0:0:0:0:
412,16,40075,1,8,0:0:0:0:
408,156,40547,6,0,B|392:224|420:224|408:300,1,140,2|8,0:0|0:0,0:0:0:0:
476,320,41256,2,0,P|448:356|336:284,1,210,2|8,0:0|0:0,0:0:0:0:
260,172,42437,6,0,P|256:108|192:72,1,140,2|8,0:0|0:0,0:0:0:0:
192,144,43146,2,0,B|120:164|120:164|52:148,2,140,2|2|0,0:0|0:0|0:0,0:0:0:0:
256,192,44327,12,0,45981,0:0:0:0:
88,88,48106,6,2,B|152:80|152:80|224:104,1,140,0|2,0:0|0:0,0:0:0:0:
344,176,49051,2,0,B|280:168|280:168|208:192,1,140,2|2,0:0|0:0,0:0:0:0:
80,248,49996,6,0,B|116:248|116:248|152:260,1,70,2|0,0:0|0:0,0:0:0:0:
220,264,50469,2,0,B|252:276|252:276|292:276,1,70,2|0,0:0|0:0,0:0:0:0:
352,308,50941,1,2,0:0:0:0:
412,184,51414,2,0,P|428:144|424:80,2,105,2|2|12,0:0|0:0|0:0,0:0:0:0:
348,152,52358,6,0,P|312:80|280:164,1,210,14|0,0:0|0:0,0:0:0:0:
216,200,53303,2,0,P|200:172|192:136,2,70,8|0|2,0:0|0:0|0:0,0:0:0:0:
280,228,54012,2,0,P|260:256|216:268,1,70,0|8,0:0|0:0,0:0:0:0:
160,248,54484,1,0,0:0:0:0:
136,180,54721,6,0,P|140:124|200:64,1,140,2|8,0:0|0:0,0:0:0:0:
324,132,55666,2,0,P|372:108|460:108,2,140,2|8|2,0:0|0:0|0:0,0:0:0:0:
256,116,56847,1,0,0:0:0:0:
188,136,57083,2,0,P|160:152|112:148,1,70,8|0,0:0|0:0,0:0:0:0:
56,176,57555,5,2,0:0:0:0:
128,56,58028,1,8,0:0:0:0:
256,116,58500,1,2,0:0:0:0:
184,236,58973,2,0,P|148:240|120:272,1,70,8|0,0:0|0:0,0:0:0:0:
180,308,59445,2,0,P|240:284|248:208,1,140,2|8,0:0|0:0,0:0:0:0:
188,92,60390,6,0,P|192:48|208:24,1,70,2|0,0:0|0:0,0:0:0:0:
256,76,60862,2,0,P|296:84|328:72,1,70,8|0,0:0|0:0,0:0:0:0:
380,36,61335,2,0,B|400:64|388:100|388:100|384:140|420:168,1,140,2|8,0:0|0:0,0:0:0:0:
468,296,62280,1,2,0:0:0:0:
332,268,62752,2,0,P|296:256|264:256,1,70,8|0,0:0|0:0,0:0:0:0:
124,268,63461,6,0,P|160:280|192:280,1,70,0|8,0:0|0:0,0:0:0:0:
208,212,63933,1,0,0:0:0:0:
224,144,64169,2,0,P|188:132|156:132,2,70,2|0|8,0:0|0:0|0:0,0:0:0:0:
280,100,64878,6,0,P|224:68|140:64,1,140
92,104,65587,2,0,P|92:176|28:224,2,140,0|2|8,0:0|0:0|0:0,0:0:0:0:
136,236,67004,6,0,P|164:180|164:100,1,140,2|14,0:0|0:0,0:0:0:0:
292,48,67949,1,2,0:0:0:0:
332,108,68185,2,0,P|360:76|360:40,2,70,0|8|0,0:0|0:0|0:0,0:0:0:0:
264,116,68894,1,2,0:0:0:0:
244,184,69130,2,0,P|252:220|240:256,1,70,0|8,0:0|0:0,0:0:0:0:
196,304,69603,1,0,0:0:0:0:
264,316,69839,2,0,B|328:332|328:292|404:316,2,140,2|8|2,0:0|0:0|0:0,0:0:0:0:
96,92,71729,6,0,P|76:128|80:164,1,70,2|0,0:0|0:0,0:0:0:0:
144,140,72201,2,0,P|172:168|204:172,1,70,8|0,0:0|0:0,0:0:0:0:
268,184,72673,2,0,P|292:144|384:132,1,140,2|8,0:0|0:0,0:0:0:0:
412,192,73382,1,0,0:0:0:0:
391,259,73618,2,0,P|426:262|457:246,1,70,2|2,0:0|0:0,0:0:0:0:
480,180,74091,2,0,P|464:144|440:128,2,70,8|0|2,0:0|0:0|0:0,0:0:0:0:
256,348,75508,6,0,B|204:328|204:328|188:332,1,70,2|0,0:0|0:0,0:0:0:0:
128,364,75981,2,0,P|120:332|132:292,1,70,8|0,0:0|0:0,0:0:0:0:
160,232,76453,2,0,P|176:184|164:96,1,140,2|8,0:0|0:0,0:0:0:0:
112,48,77162,1,0,0:0:0:0:
102,119,77398,2,0,P|136:117|164:96,1,70,2|0,0:0|0:0,0:0:0:0:
224,60,77870,2,0,P|264:40|296:40,1,70,8|0,0:0|0:0,0:0:0:0:
360,160,78579,5,0,0:0:0:0:
340,228,78815,1,8,0:0:0:0:
408,212,79051,1,0,0:0:0:0:
432,144,79288,2,0,P|432:112|440:76,2,70,2|0|8,0:0|0:0|0:0,0:0:0:0:
408,212,79996,6,0,P|420:280|416:352,1,140
348,366,80705,2,0,P|336:298|340:226,2,140,8|2|8,0:0|0:0|0:0,0:0:0:0:
96,80,83540,6,0,L|100:152,1,70,0|4,0:0|0:0,0:0:0:0:
68,288,84248,6,0,P|108:288|140:304,1,70
204,284,84721,1,0,0:0:0:0:
256,332,84957,1,0,0:0:0:0:
428,208,85666,5,0,0:0:0:0:
468,268,85902,2,0,P|416:280|356:216,1,140
376,156,86610,1,0,0:0:0:0:
396,88,86847,2,0,P|336:96|308:176,1,140,4|0,0:0|0:0,0:0:0:0:
44,264,88264,6,0,L|56:188,1,70
48,124,88736,2,0,L|58:54,2,70
112,156,89445,2,0,B|192:148|192:148|256:156,2,140
54,194,90626,6,0,L|44:264,1,70
32,332,91099,2,0,B|72:340|100:308|100:308|120:336|176:336,1,140,8|2,0:0|0:0,0:0:0:0:
224,356,91807,6,0,P|252:328|284:320,1,70,0|8,0:0|0:0,0:0:0:0:
352,320,92280,1,0,0:0:0:0:
416,344,92516,1,2,0:0:0:0:
456,136,93225,1,0,0:0:0:0:
392,168,93461,2,0,P|444:208|512:180,2,140,2|8|2,0:0|0:0|0:0,0:0:0:0:
376,100,94642,2,0,P|372:64|344:40,1,70,2|8,0:0|0:0,0:0:0:0:
83,294,96059,6,0,P|59:270|56:236,1,70,0|2,0:0|0:0,0:0:0:0:
76,168,96532,2,0,P|96:136|96:100,1,70,0|8,0:0|0:0,0:0:0:0:
84,36,97004,1,0,0:0:0:0:
152,60,97240,6,0,B|252:96|252:96|288:88,1,140,2|8,0:0|0:0,0:0:0:0:
412,144,98185,1,2,0:0:0:0:
480,120,98421,1,2,0:0:0:0:
428,76,98658,2,0,P|408:48|400:8,2,70,8|8|0,0:0|0:0|0:0,0:0:0:0:
256,296,100075,6,0,P|216:284|180:284,1,70,2|0,0:0|0:0,0:0:0:0:
124,308,100547,1,8,0:0:0:0:
54,327,100784,2,0,B|44:292|65:261|65:261|72:216|40:192,1,140
80,136,101492,5,8,0:0:0:0:
76,64,101729,1,0,0:0:0:0:
140,96,101965,2,0,P|180:108|216:104,1,70,2|0,0:0|0:0,0:0:0:0:
256,56,102437,1,8,0:0:0:0:
304,106,102673,2,0,P|339:107|372:96,1,70,0|2,0:0|0:0,0:0:0:0:
460,204,103382,6,0,P|384:200|320:224,1,140,8|2,0:0|0:0,0:0:0:0:
256,204,104091,1,0,0:0:0:0:
187,221,104327,2,0,P|121:199|52:204,2,140,8|2|8,0:0|0:0|0:0,0:0:0:0:
256,344,105744,1,2,0:0:0:0:
256,272,105981,1,2,0:0:0:0:
316,308,106217,2,0,P|356:324|392:324,1,70,8|8,0:0|0:0,0:0:0:0:
448,304,106689,6,0,B|448:256|480:232|480:232|468:208|472:176,1,140,2|8,0:0|0:0,0:0:0:0:
492,108,107398,1,2,0:0:0:0:
320,0,108106,6,0,B|320:48|288:72|288:72|300:96|296:128,1,140,8|2,0:0|0:0,0:0:0:0:
276,196,108815,1,0,0:0:0:0:
212,228,109051,1,8,0:0:0:0:
144,216,109288,2,0,P|120:188|24:188,2,140,2|2|0,0:0|0:0|0:0,0:0:0:0:
256,192,110469,12,0,112122,0:0:0:0:
136,264,114248,6,0,B|152:196|152:196|128:120,1,140,2|2,0:0|0:0,0:0:0:0:
256,64,115193,2,0,L|256:204,1,140,2|2,0:0|0:0,0:0:0:0:
376,264,116138,2,0,B|360:196|360:196|384:120,2,140,2|2|2,0:0|0:0|0:0,0:0:0:0:
256,192,117555,2,0,L|256:297,2,105,2|2|12,0:0|0:0|0:0,0:0:0:0:
308,144,118500,6,0,P|252:120|196:228,1,210,14|0,0:0|0:0,0:0:0:0:
196,300,119445,2,0,P|160:292|132:264,1,70,8|0,0:0|0:0,0:0:0:0:
72,296,119918,2,0,P|68:256|84:224,1,70,2|0,0:0|0:0,0:0:0:0:
120,172,120390,2,0,P|132:132|128:104,1,70,8|0,0:0|0:0,0:0:0:0:
184,60,120862,2,0,P|204:128|184:200,1,140,2|8,0:0|0:0,0:0:0:0:
316,244,121807,2,0,P|296:176|316:104,2,140,2|8|2,0:0|0:0|0:0,0:0:0:0:
340,308,122988,1,0,0:0:0:0:
404,340,123225,2,0,P|412:304|400:268,1,70,8|0,0:0|0:0,0:0:0:0:
340,308,123697,6,0,B|212:328|212:328|200:320,1,140,2|8,0:0|0:0,0:0:0:0:
176,184,124642,2,0,B|304:164|304:164|316:172,1,140,2|8,0:0|0:0,0:0:0:0:
372,208,125351,2,0,P|384:172|376:140,1,70,0|2,0:0|0:0,0:0:0:0:
244,104,126059,6,0,P|228:164|240:240,1,140,8|2,0:0|0:0,0:0:0:0:
288,292,126768,2,0,P|304:336|296:368,2,70,0|8|0,0:0|0:0|0:0,0:0:0:0:
239,239,127477,2,0,P|168:256|92:236,1,140,2|8,0:0|0:0,0:0:0:0:
80,104,128421,2,0,P|151:87|227:107,1,140,2|8,0:0|0:0,0:0:0:0:
276,68,129130,6,0,B|344:84|344:56|416:72,1,140
448,136,129839,2,0,P|480:108|484:72,2,70,8|0|2,0:0|0:0|0:0,0:0:0:0:
392,180,130547,2,0,P|384:216|396:252,1,70,0|8,0:0|0:0,0:0:0:0:
328,276,131020,6,0,P|312:216|336:136,1,140
272,104,131729,2,0,P|248:160|244:244,2,140,8|2|8,0:0|0:0|0:0,0:0:0:0:
144,48,133146,2,0,P|152:96|144:128,1,70,2|0,0:0|0:0,0:0:0:0:
132,184,133618,6,0,P|92:220|100:300,1,140,14|2,0:0|0:0,0:0:0:0:
160,336,134327,1,0,0:0:0:0:
228,312,134563,2,0,P|252:268|252:244,1,70,8|0,0:0|0:0,0:0:0:0:
244,180,135036,2,0,P|280:184|308:208,1,70,2|0,0:0|0:0,0:0:0:0:
376,192,135508,2,0,P|412:212|440:208,1,70,8|0,0:0|0:0,0:0:0:0:
480,264,135981,2,0,P|424:280|344:256,1,140,2|8,0:0|0:0,0:0:0:0:
372,120,136925,2,0,P|306:98|239:114,1,140,2|8,0:0|0:0,0:0:0:0:
180,156,137634,1,0,0:0:0:0:
164,224,137870,6,0,P|180:264|168:300,1,70,2|0,0:0|0:0,0:0:0:0:
108,268,138343,2,0,P|92:237|97:202,1,70,8|0,0:0|0:0,0:0:0:0:
108,132,138815,6,0,B|140:72|72:72|108:0,1,140,2|8,0:0|0:0,0:0:0:0:
244,32,139760,2,0,B|276:92|208:92|244:164,1,140,2|8,0:0|0:0,0:0:0:0:
228,232,140469,1,0,0:0:0:0:
280,278,140705,2,0,P|296:250|292:206,1,70,2|0,0:0|0:0,0:0:0:0:
120,96,141650,5,2,0:0:0:0:
136,164,141886,1,0,0:0:0:0:
68,144,142122,2,0,P|36:132|0:140,1,70,8|0,0:0|0:0,0:0:0:0:
32,204,142595,2,0,B|40:268|40:268|24:344,1,140,2|8,0:0|0:0,0:0:0:0:
88,372,143303,1,0,0:0:0:0:
108,304,143540,2,0,B|116:272|116:272|112:228,2,70,2|0|8,0:0|0:0|0:0,0:0:0:0:
156,356,144248,6,0,B|264:340|264:340|304:352,1,140
344,300,144957,2,0,P|364:336|360:368,1,70,8|0,0:0|0:0,0:0:0:0:
432,376,145429,2,0,P|436:328|392:248,1,140,2|8,0:0|0:0,0:0:0:0:
356,188,146138,2,0,P|344:132|368:48,1,140
436,52,146847,2,0,P|447:120|427:186,2,140,2|2|12,0:0|0:0|0:0,0:0:0:0:
96,120,155823,6,0,P|136:96|168:100,1,70,6|0,0:0|0:0,0:0:0:0:
228,112,156295,2,0,P|272:132|296:128,1,70
356,104,156768,2,0,P|408:80|496:88,1,140,8|0,0:0|0:0,0:0:0:0:
480,156,157477,2,0,P|428:180|340:172,1,140,2|2,0:0|0:0,0:0:0:0:
320,240,158185,2,0,P|368:252|460:244,2,140
204,160,159603,6,0,P|156:148|64:156,2,140,2|0|8,0:0|0:0|0:0,0:0:0:0:
244,220,160784,2,0,P|252:264|240:292,1,70
300,328,161256,2,0,P|320:284|308:192,1,140,2|2,0:0|0:0,0:0:0:0:
272,136,161965,2,0,P|264:96|280:0,2,140,2|8|0,0:0|0:0|0:0,0:0:0:0:
376,232,163382,6,0,P|340:264|296:268,1,70,6|0,0:0|0:0,0:0:0:0:
252,280,163855,2,0,P|208:256|180:256,1,70
124,284,164327,2,0,B|108:244|132:212|132:212|144:180|128:148,1,140,8|0,0:0|0:0,0:0:0:0:
88,92,165036,6,0,P|124:80|200:156,1,140,2|2,0:0|0:0,0:0:0:0:
256,176,165744,2,0,B|264:212|252:244|252:244|260:240|260:240|248:280|256:316,2,140,2|8|0,0:0|0:0|0:0,0:0:0:0:
313,136,166925,2,0,P|357:85|424:92,1,140
448,24,167634,2,0,P|384:8|312:28,1,140,0|8,0:0|0:0,0:0:0:0:
256,64,168343,2,0,P|208:72|180:64,1,70
124,40,168815,6,0,B|108:72|128:104|128:104|132:144|96:168,1,140
84,236,169524,1,0,0:0:0:0:
11,245,169760,2,0,P|33:182|98:166,1,140
152,212,170469,2,0,P|184:236|212:240,1,70
284,228,170941,5,2,0:0:0:0:
256,92,171414,1,2,0:0:0:0:
392,68,171886,1,2,0:0:0:0:
416,204,172358,2,0,B|428:236|412:272|412:272|408:316|440:336,1,140,2|2,0:0|0:0,0:0:0:0:
256,192,173303,12,0,174721,0:0:0:0:
160,136,180862,6,0,L|172:280,1,140,2|2,0:0|0:0,0:0:0:0:
268,172,181807,2,0,L|277:279,1,105,2|2,0:0|0:0,0:0:0:0:
440,68,183461,5,0,0:0:0:0:
384,108,183697,1,0,0:0:0:0:
316,88,183933,1,0,0:0:0:0:
72,68,185351,6,0,P|108:84|144:80,1,70
200,48,185823,2,0,P|208:84|144:152,1,140
108,212,186532,1,2,0:0:0:0:
176,216,186768,2,0,P|232:184|272:116,1,140
276,52,187477,1,2,0:0:0:0:
336,92,187713,6,0,P|404:72|476:100,1,140
436,156,188421,2,0,P|376:148|368:220,1,140,2|2,0:0|0:0,0:0:0:0:
448,324,189366,1,0,0:0:0:0:
380,300,189603,2,0,P|340:312|312:308,1,70
248,280,190075,1,12,0:0:0:0:
256,348,190311,1,14,0:0:0:0:
120,188,191020,5,0,0:0:0:0:
149,124,191256,2,0,P|109:116|81:128,1,70,8|0,0:0|0:0,0:0:0:0:
54,62,191729,2,0,P|113:45|192:68,1,140,2|8,0:0|0:0,0:0:0:0:
256,76,192437,1,0,0:0:0:0:
324,64,192673,2,0,P|390:44|458:61,2,140,2|8|2,0:0|0:0|0:0,0:0:0:0:
208,320,194563,6,0,L|204:250,1,70,2|0,0:0|0:0,0:0:0:0:
132,248,195036,2,0,L|135:317,1,70,8|0,0:0|0:0,0:0:0:0:
64,320,195508,2,0,B|56:189|56:189|64:172,1,140,2|8,0:0|0:0,0:0:0:0:
116,140,196217,1,0,0:0:0:0:
51,112,196453,2,0,P|104:69|168:91,2,140,2|8|2,0:0|0:0|0:0,0:0:0:0:
332,148,198343,6,0,P|352:104|348:76,1,70,2|0,0:0|0:0,0:0:0:0:
399,34,198815,2,0,P|370:15|336:16,1,70,8|0,0:0|0:0,0:0:0:0:
284,60,199288,2,0,P|236:72|144:56,1,140,2|8,0:0|0:0,0:0:0:0:
92,100,199996,1,0,0:0:0:0:
30,70,200232,2,0,P|51:43|84:32,2,70,2|2|8,0:0|0:0|0:0,0:0:0:0:
36,140,200941,6,0,P|48:208|36:288,1,140
100,312,201650,2,0,B|88:348|108:348|96:384,2,70,8|0|2,0:0|0:0|0:0,0:0:0:0:
168,292,202358,1,0,0:0:0:0:
232,320,202595,1,8,0:0:0:0:
296,296,202831,6,0,B|332:288|368:304|368:304|364:296|364:296|400:316|432:296,1,140
404,232,203540,2,0,B|396:164|396:164|404:84,2,140,8|2|12,0:0|0:0|0:0,0:0:0:0:
256,192,204957,12,0,207910,0:0:0:0:
256,192,210272,12,4,212634,0:0:0:0:
