osu file format v14

[General]
AudioFilename: audio.mp3
AudioLeadIn: 0
PreviewTime: 132555
Countdown: 0
SampleSet: Soft
StackLeniency: 0.7
Mode: 0
LetterboxInBreaks: 0
WidescreenStoryboard: 0

[Editor]
DistanceSpacing: 0.7
BeatDivisor: 4
GridSize: 4
TimelineZoom: 1

[Metadata]
Title:Ah-Choo
TitleUnicode:Ah-Choo
Artist:Lovelyz
ArtistUnicode:러블리즈
Creator:TaMul
Version:Hard
Source:
Tags:Kpop korean 베이비소울 유지애 서지수 이미주 케이 진 류수정 정예인 babysoul Yujiae SeoJisu IMiju Kei JIN RyuSujeong JeongYein
BeatmapID:1025344
BeatmapSetID:480270

[Difficulty]
HPDrainRate:6
CircleSize:5
OverallDifficulty:6
ApproachRate:7
SliderMultiplier:1.7
SliderTickRate:4

[Events]
//Background and Video events
0,0,"bg.jpg",0,0
//Break Periods
2,148464,154923
2,174921,179962
//Storyboard Layer 0 (Background)
//Storyboard Layer 1 (Fail)
//Storyboard Layer 2 (Pass)
//Storyboard Layer 3 (Foreground)
//Storyboard Sound Samples

[TimingPoints]
15981,472.44094488189,4,2,1,80,1,0
17398,-100,4,1,0,80,0,0
17870,-100,4,3,1,80,0,0
18343,-100,4,2,1,80,0,0
24012,-100,4,2,2,80,0,0
24130,-100,4,2,1,80,0,0
24721,-100,4,2,3,80,0,0
24839,-100,4,2,1,80,0,0
25193,-100,4,2,2,80,0,0
25429,-100,4,2,1,80,0,0
36768,-100,4,2,3,80,0,0
36886,-100,4,2,1,80,0,0
38658,-100,4,2,3,80,0,0
38776,-100,4,2,1,80,0,0
40311,-100,4,2,2,80,0,0
40547,-100,4,2,1,80,0,0
46689,-133.333333333333,4,2,1,80,0,0
47398,-133.333333333333,4,2,1,40,0,0
47634,-100,4,2,1,80,0,0
51650,-76.9230769230769,4,2,1,80,0,0
52358,-100,4,1,2,80,0,1
52831,-100,4,2,1,80,0,1
53067,-100,4,2,3,80,0,1
53185,-100,4,2,1,80,0,1
59445,-100,4,2,3,80,0,1
59563,-100,4,2,1,80,0,1
63225,-100,4,2,3,80,0,1
63343,-100,4,2,1,80,0,1
65114,-100,4,2,3,80,0,1
65232,-100,4,2,1,80,0,1
66295,-100,4,2,3,80,0,1
66414,-100,4,2,1,80,0,0
67477,-76.9230769230769,4,1,2,80,0,1
67595,-76.9230769230769,4,2,1,80,0,1
68185,-100,4,2,1,80,0,1
73855,-100,4,2,3,80,0,1
73973,-100,4,2,1,80,0,1
74563,-100,4,2,3,80,0,1
74681,-100,4,2,1,80,0,1
76453,-100,4,2,3,80,0,1
76571,-100,4,2,1,80,0,1
78343,-100,4,2,3,80,0,1
78461,-100,4,2,1,80,0,1
81414,-100,4,2,3,80,0,1
81532,-100,4,2,1,80,0,1
82122,-100,4,2,1,80,0,0
83540,-100,4,2,1,40,0,0
83776,-100,4,2,4,80,0,0
84248,-100,4,2,1,60,0,0
91571,-100,4,2,1,80,0,0
102910,-100,4,2,3,80,0,0
103028,-100,4,2,1,80,0,0
104799,-100,4,2,3,80,0,0
104918,-100,4,2,1,80,0,0
112831,-133.333333333333,4,2,1,80,0,0
113776,-100,4,2,1,80,0,0
117910,-83.3333333333333,4,2,1,80,0,0
118264,-83.3333333333333,4,2,3,80,0,0
118382,-83.3333333333333,4,2,1,80,0,0
118500,-100,4,1,2,80,0,1
118973,-100,4,2,1,80,0,1
127477,-100,4,2,3,80,0,1
127595,-100,4,2,1,80,0,1
129366,-100,4,2,3,80,0,1
129484,-100,4,2,1,80,0,1
131256,-100,4,2,3,80,0,1
131374,-100,4,2,1,80,0,1
132555,-100,4,2,1,80,0,0
133146,-100,4,2,3,80,0,0
133264,-100,4,2,1,80,0,0
133618,-100,4,1,2,80,0,1
133736,-100,4,2,1,80,0,1
140705,-100,4,2,3,80,0,1
140823,-100,4,2,1,80,0,1
144484,-100,4,2,3,80,0,1
144603,-100,4,2,1,80,0,1
145429,-100,4,2,3,80,0,1
145547,-100,4,2,1,80,0,1
146374,-100,4,2,3,80,0,1
146492,-100,4,2,1,80,0,1
148264,-166.666666666667,4,2,1,80,0,0
156768,-166.666666666667,4,2,2,80,0,0
156886,-166.666666666667,4,2,1,80,0,0
158658,-166.666666666667,4,2,2,80,0,0
158776,-166.666666666667,4,2,1,80,0,0
160547,-166.666666666667,4,2,2,80,0,0
160784,-166.666666666667,4,2,1,80,0,0
162437,-166.666666666667,4,2,2,80,0,0
162673,-166.666666666667,4,2,1,80,0,0
164327,-166.666666666667,4,2,2,80,0,0
164445,-166.666666666667,4,2,1,80,0,0
166217,-166.666666666667,4,2,2,80,0,0
166335,-166.666666666667,4,2,1,80,0,0
168106,-166.666666666667,4,2,2,80,0,0
168225,-166.666666666667,4,2,1,80,0,0
170941,-100,4,2,1,80,0,0
172831,-100,4,3,1,80,0,0
172949,-100,4,2,1,80,0,0
186059,-100,4,2,3,80,0,0
186177,-100,4,2,1,80,0,0
187949,-100,4,2,3,80,0,0
188067,-100,4,2,1,80,0,0
190075,-100,4,3,1,80,0,0
190311,-100,4,2,1,80,0,1
193618,-100,4,2,3,80,0,1
193736,-100,4,2,1,80,0,1
196453,-100,4,2,3,80,0,1
196571,-100,4,2,1,80,0,1
197398,-100,4,2,3,80,0,1
197516,-100,4,2,1,80,0,1
197870,-100,4,2,2,80,0,1
197988,-100,4,2,1,80,0,1
199288,-100,4,2,3,80,0,1
199406,-100,4,2,1,80,0,1
201177,-100,4,2,3,80,0,1
201295,-100,4,2,1,80,0,1
204248,-100,4,2,3,80,0,1
204366,-100,4,2,1,80,0,1
204484,-142.857142857143,4,2,1,80,0,1
204957,-100,4,2,1,60,0,0
205666,-125,4,2,1,50,0,0
206374,-166.666666666667,4,2,1,40,0,0
207083,-166.666666666667,4,2,4,20,0,0

[Colours]
Combo1 : 255,128,192
Combo2 : 255,128,255

[HitObjects]
256,272,17162,6,4,L|256:184,1,85,8|0,0:0|0:0,0:0:0:0:
176,36,17870,5,10,0:0:0:0:
256,68,18106,1,0,0:0:0:0:
336,36,18343,2,0,P|372:48|420:36,2,85,8|0|2,0:0|0:0|0:0,0:0:0:0:
256,68,19051,1,0,0:0:0:0:
292,144,19288,1,8,0:0:0:0:
372,112,19524,1,0,0:0:0:0:
372,112,19642,1,0,0:0:0:0:
372,112,19760,6,0,P|364:196|292:232,2,170,2|8|2,0:0|0:0|0:0,0:0:0:0:
464,256,20941,1,2,0:0:0:0:
296,144,21177,1,8,0:0:0:0:
288,348,21414,1,0,0:0:0:0:
288,348,21650,6,0,P|316:308|316:272,1,85,2|0,0:0|0:0,0:0:0:0:
256,216,22122,1,8,0:0:0:0:
195,273,22358,1,0,0:0:0:0:
120,236,22595,1,2,0:0:0:0:
132,152,22831,1,0,0:0:0:0:
216,148,23067,1,8,0:0:0:0:
216,148,23303,1,0,0:0:0:0:
195,273,23540,5,2,0:0:0:0:
164,72,23776,2,0,P|212:56|304:128,1,170
68,208,24484,2,0,B|92:132|92:132|68:108|64:76|80:40,2,170,2|8|6,0:0|0:0|0:0,0:0:0:0:
152,192,25666,5,0,0:0:0:0:
196,264,25902,1,8,0:0:0:0:
256,204,26138,1,0,0:0:0:0:
316,264,26374,1,2,0:0:0:0:
360,192,26610,1,0,0:0:0:0:
360,192,26729,1,0,0:0:0:0:
360,192,26847,2,0,B|404:200|404:200|448:188,1,85,8|0,0:0|0:0,0:0:0:0:
316,264,27319,5,2,0:0:0:0:
320,120,27555,1,0,0:0:0:0:
176,124,27792,1,8,0:0:0:0:
180,268,28028,2,0,P|200:312|188:356,1,85,0|2,0:0|0:0,0:0:0:0:
224,192,28500,1,2,0:0:0:0:
224,192,28618,1,0,0:0:0:0:
224,192,28736,2,0,P|260:248|272:352,1,170,8|2,0:0|0:0,0:0:0:0:
116,308,29445,5,0,0:0:0:0:
224,192,29681,1,8,0:0:0:0:
188,368,29918,1,0,0:0:0:0:
136,220,30154,1,2,0:0:0:0:
292,268,30390,1,0,0:0:0:0:
116,308,30626,1,8,0:0:0:0:
116,308,30862,2,0,P|72:280|36:284,2,85,0|2|0,0:0|0:0|0:0,0:0:0:0:
292,268,31571,1,8,0:0:0:0:
292,268,32043,5,2,0:0:0:0:
196,256,32280,2,0,L|184:300,1,42.5,2|0,0:0|0:0,0:0:0:0:
256,196,32516,2,0,L|267:154,1,42.5,8|0,0:0|0:0,0:0:0:0:
200,92,32752,2,0,L|180:176,1,85,8|6,0:0|0:0,0:0:0:0:
340,232,33225,1,0,0:0:0:0:
340,232,33461,6,0,P|392:240|360:168,1,170,8|2,0:0|0:0,0:0:0:0:
368,312,34169,1,0,0:0:0:0:
368,312,34406,2,0,P|420:300|444:280,2,85,8|0|2,0:0|0:0|0:0,0:0:0:0:
256,280,35114,1,0,0:0:0:0:
143,312,35351,6,0,P|102:305|68:280,1,85,8|0,0:0|0:0,0:0:0:0:
136,228,35823,2,0,P|108:192|108:152,1,85,2|2,0:0|0:0,0:0:0:0:
144,76,36295,1,8,0:0:0:0:
228,72,36532,6,0,P|240:120|292:60,1,170
232,192,37240,2,0,P|304:192|368:120,2,170,8|2|8,0:0|0:0|0:0,0:0:0:0:
160,144,38421,6,0,B|144:104|100:92|100:92|72:132|96:176,1,170
176,272,39130,2,0,B|212:248|256:264|256:264|300:248|340:272,1,170,8|2,0:0|0:0,0:0:0:0:
352,144,39839,1,2,0:0:0:0:
352,144,39957,1,0,0:0:0:0:
352,144,40075,6,0,B|368:104|412:92|412:92|440:132|416:176,1,170,8|6,0:0|0:0,0:0:0:0:
256,80,40784,1,0,0:0:0:0:
240,264,41020,1,8,0:0:0:0:
240,264,41256,6,2,P|264:224|176:200,1,170
156,280,41965,1,8,0:0:0:0:
156,280,42437,6,0,P|216:264|312:312,1,170,2|8,0:0|0:0,0:0:0:0:
384,268,43146,2,0,B|404:288|404:332|384:360|384:360|412:348|440:348|452:360,1,170,2|2,0:0|0:0,0:0:0:0:
309,308,43855,1,8,0:0:0:0:
308,224,44091,2,0,P|260:232|236:264,1,85,0|2,0:0|0:0,0:0:0:0:
160,232,44563,5,0,0:0:0:0:
164,148,44799,2,0,P|205:143|233:113,2,85,2|0|2,0:0|0:0|0:0,0:0:0:0:
88,184,45508,1,0,0:0:0:0:
160,232,45744,1,2,0:0:0:0:
84,272,45981,1,2,0:0:0:0:
84,272,46453,5,0,0:0:0:0:
84,272,46689,2,0,P|136:220|136:304,1,191.250007295609,8|0,0:0|0:0,0:0:0:0:
120,148,47634,1,8,0:0:0:0:
120,148,47870,2,0,L|112:100,1,42.5,8|8,0:0|0:0,0:0:0:0:
172,76,48106,6,0,L|200:252,1,170,2|2,0:0|0:0,0:0:0:0:
340,76,49051,2,0,L|312:252,1,170,2|2,0:0|0:0,0:0:0:0:
256,84,49996,6,0,L|256:0,1,85,2|0,0:0|0:0,0:0:0:0:
192,128,50469,2,0,B|176:84|176:84|132:60,1,85,2|0,0:0|0:0,0:0:0:0:
369,65,50941,2,0,B|336:84|336:84|320:128,1,85,2|0,0:0|0:0,0:0:0:0:
256,204,51414,1,2,0:0:0:0:
256,204,51650,6,0,B|264:252|204:284|144:268|144:212|160:176|216:160,1,220.999989883423,2|2,0:0|0:0,0:0:0:0:
328,208,52358,6,0,B|324:268|288:320|224:328,2,170,14|2|8,0:0|0:0|0:0,0:0:0:0:
256,164,53540,1,0,0:0:0:0:
184,208,53776,1,2,0:0:0:0:
184,208,54012,6,0,B|144:192|144:192|96:200,2,85,0|8|0,0:0|0:0|0:0,0:0:0:0:
256,164,54721,1,2,0:0:0:0:
256,164,54957,2,0,P|268:204|256:252,1,85,2|8,0:0|0:0,0:0:0:0:
188,292,55429,1,0,0:0:0:0:
188,292,55547,1,0,0:0:0:0:
188,292,55666,1,2,0:0:0:0:
108,260,55902,1,0,0:0:0:0:
116,176,56138,1,8,0:0:0:0:
40,212,56374,1,0,0:0:0:0:
188,220,56610,6,0,P|200:176|188:132,1,85,2|2,0:0|0:0,0:0:0:0:
231,16,57083,2,0,P|192:31|172:68,1,85,8|0,0:0|0:0,0:0:0:0:
256,248,57555,2,0,P|268:196|240:80,2,170,2|8|2,0:0|0:0|0:0,0:0:0:0:
196,308,58736,1,2,0:0:0:0:
196,308,58973,1,8,0:0:0:0:
116,280,59209,1,0,0:0:0:0:
116,280,59327,6,0,B|88:232|88:232|68:244|36:244|16:224,1,127.5
56,148,59918,1,8,0:0:0:0:
4,84,60154,1,0,0:0:0:0:
4,84,60272,1,0,0:0:0:0:
4,84,60390,6,0,P|48:64|88:72,1,85,2|2,0:0|0:0,0:0:0:0:
140,132,60862,1,8,0:0:0:0:
224,116,61099,2,0,L|256:148,1,42.5
232,220,61335,2,0,P|304:208|316:112,2,170,2|8|2,0:0|0:0|0:0,0:0:0:0:
152,188,62516,5,2,0:0:0:0:
256,384,62752,1,8,0:0:0:0:
254,146,62988,2,0,B|252:140|252:140|260:140|260:140|252:132|252:132|260:132|260:132|212:124|192:80|200:40|220:20,1,170
296,52,63697,1,8,0:0:0:0:
296,52,63933,1,0,0:0:0:0:
352,116,64169,1,2,0:0:0:0:
352,116,64406,1,2,0:0:0:0:
348,200,64642,1,8,0:0:0:0:
348,200,64878,6,0,P|304:236|384:244,1,170
260,180,65587,2,0,P|244:268|292:332,2,170,8|2|8,0:0|0:0|0:0,0:0:0:0:
296,104,66768,1,0,0:0:0:0:
296,104,66886,1,0,0:0:0:0:
296,104,67004,2,0,P|308:56|296:20,1,85,2|0,0:0|0:0,0:0:0:0:
52,40,67477,6,0,P|108:112|116:28,1,220.999989883423,14|2,0:0|0:0,0:0:0:0:
40,168,68185,5,0,0:0:0:0:
40,168,68421,2,0,P|88:180|128:172,1,85,8|0,0:0|0:0,0:0:0:0:
200,136,68894,1,2,0:0:0:0:
256,200,69130,1,0,0:0:0:0:
312,136,69366,1,8,0:0:0:0:
256,72,69603,1,0,0:0:0:0:
336,208,69839,1,2,0:0:0:0:
336,208,70075,6,0,P|376:176|384:140,1,85,2|8,0:0|0:0,0:0:0:0:
472,136,70547,2,0,L|484:184,1,42.5
420,68,70784,1,2,0:0:0:0:
336,76,71020,2,0,B|296:88|296:88|252:80,2,85,0|8|0,0:0|0:0|0:0,0:0:0:0:
200,28,71729,6,0,P|176:68|184:112,1,85
244,160,72201,1,8,0:0:0:0:
244,160,72437,2,0,P|252:208|236:248,1,85,0|2,0:0|0:0,0:0:0:0:
304,120,72910,1,0,0:0:0:0:
304,120,73146,2,0,P|320:188|292:288,2,170,8|2|8,0:0|0:0|0:0,0:0:0:0:
256,48,74327,1,0,0:0:0:0:
256,48,74445,6,0,B|212:60|168:44|168:44|140:72,1,127.5
168,152,75036,2,0,P|104:152|60:64,1,170,8|2,0:0|0:0,0:0:0:0:
240,128,75744,2,0,P|240:176|220:208,1,85,0|8,0:0|0:0,0:0:0:0:
64,304,76217,1,0,0:0:0:0:
64,304,76335,2,0,P|92:264|172:260,1,127.5
256,268,76925,1,8,0:0:0:0:
346,256,77162,1,0,0:0:0:0:
312,336,77398,1,2,0:0:0:0:
256,268,77634,6,0,P|256:220|236:188,1,85,2|8,0:0|0:0,0:0:0:0:
106,3,78106,2,0,P|118:83|192:120,1,170
276,120,78815,1,8,0:0:0:0:
276,120,79051,1,0,0:0:0:0:
348,76,79288,1,2,0:0:0:0:
348,76,79524,2,0,P|404:56|436:64,1,85,0|8,0:0|0:0,0:0:0:0:
279,201,79996,6,0,P|288:160|276:120,1,85,0|2,0:0|0:0,0:0:0:0:
272,36,80469,1,0,0:0:0:0:
224,240,80705,2,0,P|292:268|344:196,2,170,8|2|8,0:0|0:0|0:0,0:0:0:0:
256,192,82122,12,0,83540,0:0:0:0:
256,192,83776,5,6,0:0:0:0:
196,352,84248,1,0,0:0:0:0:
196,352,84484,2,0,B|208:312|208:312|200:268,2,85
196,352,85666,1,0,0:0:0:0:
196,352,85902,6,0,P|256:300|312:352,1,170
340,272,86610,1,0,0:0:0:0:
340,272,86847,2,0,P|304:244|256:236,1,85
184,248,87319,2,0,P|128:268|100:268,1,85
64,192,87792,1,0,0:0:0:0:
103,115,88028,6,0,P|145:119|184:136,2,85
48,52,88736,2,0,P|136:48|216:76,1,170
252,148,89445,2,0,B|276:136|288:120|292:104|292:104|316:136|372:136|392:108,2,170
348,40,90626,2,0,P|400:32|472:124,1,170,0|8,0:0|0:0,0:0:0:0:
428,184,91335,1,8,0:0:0:0:
428,184,91453,1,8,0:0:0:0:
428,184,91571,1,6,0:0:0:0:
472,271,91807,5,0,0:0:0:0:
472,271,92043,2,0,B|424:272|424:272|392:304,1,85,8|0,0:0|0:0,0:0:0:0:
316,316,92516,2,0,B|280:312|256:256|256:256|232:312|200:316,1,170,2|8,0:0|0:0,0:0:0:0:
39,271,93225,2,0,B|88:272|88:272|120:304,1,85,0|2,0:0|0:0,0:0:0:0:
172,236,93697,1,0,0:0:0:0:
172,236,93933,6,0,L|108:172,1,85,8|0,0:0|0:0,0:0:0:0:
256,204,94406,2,0,L|256:119,1,85,2|2,0:0|0:0,0:0:0:0:
340,236,94878,2,0,L|400:175,1,85,8|0,0:0|0:0,0:0:0:0:
344,112,95351,5,2,0:0:0:0:
356,28,95587,1,0,0:0:0:0:
156,28,95823,1,8,0:0:0:0:
168,112,96059,1,0,0:0:0:0:
256,141,96295,2,0,L|256:56,2,85,0|0|8,0:0|0:0|0:0,0:0:0:0:
192,196,97004,1,0,0:0:0:0:
192,196,97240,6,0,P|256:244|320:196,2,170,2|8|2,0:0|0:0|0:0,0:0:0:0:
256,141,98421,1,2,0:0:0:0:
256,384,98658,2,0,L|256:296,1,85,8|8,0:0|0:0,0:0:0:0:
256,276,99012,1,8,0:0:0:0:
256,256,99130,1,2,0:0:0:0:
420,376,99603,6,0,P|360:340|356:244,1,170,8|2,0:0|0:0,0:0:0:0:
420,192,100311,1,0,0:0:0:0:
354,136,100547,1,8,0:0:0:0:
354,136,100784,2,0,P|368:84|360:56,1,85,0|2,0:0|0:0,0:0:0:0:
203,90,101256,2,0,P|243:104|283:92,1,85,0|8,0:0|0:0,0:0:0:0:
156,20,101729,5,0,0:0:0:0:
160,168,101965,1,2,0:0:0:0:
283,92,102201,1,2,0:0:0:0:
88,96,102437,1,8,0:0:0:0:
88,96,102673,6,0,B|52:140|68:192|68:192|56:188|56:188|68:216|60:244,1,170
227,224,103382,2,0,B|170:231|147:280|147:280|141:269|141:269|130:298|108:312,1,170,8|2,0:0|0:0,0:0:0:0:
188,148,104091,5,0,0:0:0:0:
256,300,104327,1,8,0:0:0:0:
323,147,104563,2,0,P|319:66|381:12,1,170
396,192,105272,1,8,0:0:0:0:
396,192,105508,1,0,0:0:0:0:
320,232,105744,1,2,0:0:0:0:
320,232,105981,2,0,P|264:216|232:224,1,85,2|8,0:0|0:0,0:0:0:0:
172,276,106453,1,8,0:0:0:0:
172,276,106571,1,8,0:0:0:0:
172,276,106689,6,0,B|144:236|164:184|164:184|124:204|92:184,1,170,2|8,0:0|0:0,0:0:0:0:
128,108,107398,2,0,P|156:72|80:76,1,170,2|0,0:0|0:0,0:0:0:0:
200,132,108106,2,0,P|220:64|200:8,1,127.5,8|0,0:0|0:0,0:0:0:0:
202,12,108579,6,0,P|250:27|290:19,1,85,2|0,0:0|0:0,0:0:0:0:
324,96,109051,1,8,0:0:0:0:
368,24,109288,2,0,P|400:56|384:148,1,127.5,2|0,0:0|0:0,0:0:0:0:
396,133,109760,2,0,P|452:128|480:144,1,85,2|8,0:0|0:0,0:0:0:0:
428,212,110232,1,0,0:0:0:0:
428,212,110351,1,0,0:0:0:0:
428,212,110469,6,0,B|420:256|420:256|428:304,1,85,2|0,0:0|0:0,0:0:0:0:
336,372,110941,2,0,L|320:288,1,85,2|0,0:0|0:0,0:0:0:0:
256,232,111414,1,2,0:0:0:0:
176,372,111650,2,0,L|192:288,1,85,0|2,0:0|0:0,0:0:0:0:
256,232,112122,2,0,B|244:136|268:136|256:56,1,170,2|2,0:0|0:0,0:0:0:0:
332,100,112831,6,0,P|260:148|180:96,1,191.250007295609,8|0,0:0|0:0,0:0:0:0:
336,20,113776,1,8,0:0:0:0:
412,60,114012,1,8,0:0:0:0:
412,60,114130,1,8,0:0:0:0:
412,60,114248,6,0,P|424:120|452:136,1,85,2|0,0:0|0:0,0:0:0:0:
396,204,114721,2,0,P|440:220|480:208,1,85,2|0,0:0|0:0,0:0:0:0:
336,172,115193,1,2,0:0:0:0:
336,172,115429,2,0,P|328:216|352:256,1,85,0|2,0:0|0:0,0:0:0:0:
256,120,115902,1,0,0:0:0:0:
176,172,116138,6,0,P|184:216|160:256,1,85,2|0,0:0|0:0,0:0:0:0:
176,84,116610,1,2,0:0:0:0:
256,120,116847,1,0,0:0:0:0:
336,84,117083,1,2,0:0:0:0:
256,0,117319,1,0,0:0:0:0:
256,0,117555,1,2,0:0:0:0:
256,0,117910,6,0,P|208:64|312:36,1,254.999992218018,2|14,0:0|0:0,0:0:0:0:
184,160,118973,5,2,0:0:0:0:
200,244,119209,1,0,0:0:0:0:
200,244,119445,1,8,0:0:0:0:
284,264,119681,1,0,0:0:0:0:
284,264,119799,1,0,0:0:0:0:
284,264,119918,1,2,0:0:0:0:
336,120,120154,5,0,0:0:0:0:
200,244,120390,1,8,0:0:0:0:
376,300,120626,1,0,0:0:0:0:
228,140,120862,2,0,P|176:152|132:140,1,85,2|2,0:0|0:0,0:0:0:0:
128,136,121217,1,0,0:0:0:0:
116,120,121335,6,0,P|72:100|24:104,1,85,8|0,0:0|0:0,0:0:0:0:
252,212,121807,2,0,P|296:168|260:72,2,170,2|8|2,0:0|0:0|0:0,0:0:0:0:
188,68,122988,1,0,0:0:0:0:
180,240,123225,2,0,P|192:284|192:324,1,85,8|0,0:0|0:0,0:0:0:0:
184,344,123579,1,0,0:0:0:0:
204,340,123697,6,0,P|252:340|288:356,1,85,2|0,0:0|0:0,0:0:0:0:
288,200,124169,2,0,P|324:230|342:266,1,85,8|0,0:0|0:0,0:0:0:0:
344,284,124524,1,0,0:0:0:0:
344,304,124642,1,2,0:0:0:0:
200,240,124878,1,2,0:0:0:0:
212,84,125114,1,8,0:0:0:0:
212,84,125351,2,0,L|216:40,1,42.5
160,128,125587,6,0,P|204:152|280:76,2,170,2|8|2,0:0|0:0|0:0,0:0:0:0:
76,140,126768,1,0,0:0:0:0:
52,220,127004,1,8,0:0:0:0:
116,272,127240,1,0,0:0:0:0:
116,272,127358,6,0,P|176:272|248:304,1,127.5
296,360,127949,1,8,0:0:0:0:
380,348,128185,1,0,0:0:0:0:
432,280,128421,1,2,0:0:0:0:
440,196,128658,1,2,0:0:0:0:
440,196,128894,1,8,0:0:0:0:
333,0,129130,6,0,B|344:32|320:68|320:68|320:124|372:152,1,170
512,0,129839,1,8,0:0:0:0:
256,16,130075,5,0,0:0:0:0:
408,52,130311,1,2,0:0:0:0:
256,16,130547,2,0,P|212:40|176:40,1,85,0|8,0:0|0:0,0:0:0:0:
36,188,131020,6,0,P|28:140|116:64,1,170
116,84,131610,1,0,0:0:0:0:
128,100,131729,2,0,P|168:120|212:112,1,85,8|0,0:0|0:0,0:0:0:0:
256,44,132201,1,2,0:0:0:0:
384,100,132437,2,0,P|344:120|300:112,1,85,2|8,0:0|0:0,0:0:0:0:
312,136,132792,1,0,0:0:0:0:
312,156,132910,1,0,0:0:0:0:
304,176,133028,6,0,P|320:232|296:296,1,127.5
216,188,133618,2,0,P|256:224|176:244,1,170,14|2,0:0|0:0,0:0:0:0:
208,112,134327,1,0,0:0:0:0:
336,144,134563,1,8,0:0:0:0:
304,272,134799,1,0,0:0:0:0:
304,272,134918,1,0,0:0:0:0:
304,272,135036,6,0,P|288:324|296:360,1,85,2|0,0:0|0:0,0:0:0:0:
368,220,135508,1,8,0:0:0:0:
288,188,135744,1,0,0:0:0:0:
288,188,135981,1,2,0:0:0:0:
356,136,136217,1,2,0:0:0:0:
356,136,136453,1,8,0:0:0:0:
436,168,136689,1,0,0:0:0:0:
436,168,136807,1,0,0:0:0:0:
436,168,136925,6,0,P|440:120|348:52,1,170,2|8,0:0|0:0,0:0:0:0:
256,88,137634,1,0,0:0:0:0:
256,88,137870,2,0,P|204:108|176:104,1,85,2|0,0:0|0:0,0:0:0:0:
136,172,138343,2,0,P|104:136|100:96,1,85,8|0,0:0|0:0,0:0:0:0:
284,16,138815,6,0,P|332:68|296:156,1,170,2|8,0:0|0:0,0:0:0:0:
224,188,139524,1,0,0:0:0:0:
204,180,139642,1,0,0:0:0:0:
184,176,139760,2,0,P|136:180|104:204,1,85,2|2,0:0|0:0,0:0:0:0:
256,272,140232,5,8,0:0:0:0:
232,108,140469,1,0,0:0:0:0:
232,108,140587,2,0,P|264:68|208:40,1,127.5
292,144,141177,1,8,0:0:0:0:
292,144,141414,6,0,P|316:112|324:60,1,85,0|2,0:0|0:0,0:0:0:0:
400,112,141886,1,0,0:0:0:0:
368,192,142122,2,0,P|344:224|336:276,1,85,8|0,0:0|0:0,0:0:0:0:
256,240,142595,1,2,0:0:0:0:
176,267,142831,1,0,0:0:0:0:
176,267,143067,2,0,P|168:226|144:192,1,85,8|0,0:0|0:0,0:0:0:0:
256,56,143540,2,0,P|263:97|288:131,2,85,2|2|8,0:0|0:0|0:0,0:0:0:0:
256,240,144248,6,0,P|228:160|164:100,1,170
244,320,144957,1,8,0:0:0:0:
244,320,145193,2,0,B|280:328|316:304|316:304|312:320|312:320|352:296|392:312,1,170
296,40,145902,1,8,0:0:0:0:
296,40,146138,6,0,B|260:32|224:56|224:56|228:40|228:40|188:64|148:48,1,170
340,104,146847,2,0,P|368:68|368:24,1,85,8|0,0:0|0:0,0:0:0:0:
272,144,147319,2,0,P|244:180|244:224,1,85,2|2,0:0|0:0,0:0:0:0:
220,212,147673,1,0,0:0:0:0:
200,216,147792,2,0,P|144:248|160:340,1,170,8|4,0:0|0:0,0:0:0:0:
88,200,155823,6,0,P|112:216|144:216,1,50.9999984436036,6|0,0:0|0:0,0:0:0:0:
204,200,156295,1,0,0:0:0:0:
256,248,156532,1,0,0:0:0:0:
232,316,156768,2,0,P|284:316|320:280,1,101.999996887207,8|0,0:0|0:0,0:0:0:0:
328,212,157477,6,0,P|324:172|368:124,1,101.999996887207,2|0,0:0|0:0,0:0:0:0:
308,80,158185,2,0,B|280:84|256:76|256:76|232:84|208:80,2,101.999996887207,2|8|0,0:0|0:0|0:0,0:0:0:0:
150,126,159366,2,0,P|140:104|136:76,1,50.9999984436036
220,148,159839,1,0,0:0:0:0:
220,148,160075,6,0,P|200:184|144:200,1,101.999996887207,0|8,0:0|0:0,0:0:0:0:
80,168,160784,1,0,0:0:0:0:
80,168,161020,1,0,0:0:0:0:
88,96,161256,6,0,P|108:60|164:44,1,101.999996887207,2|0,0:0|0:0,0:0:0:0:
232,68,161965,2,0,P|268:84|288:84,1,50.9999984436036,2|0,0:0|0:0,0:0:0:0:
348,76,162437,1,8,0:0:0:0:
416,100,162673,1,0,0:0:0:0:
460,156,162910,1,0,0:0:0:0:
468,228,163146,2,0,P|460:252|456:280,1,50.9999984436036,0|6,0:0|0:0,0:0:0:0:
388,300,163618,6,0,P|364:276|344:272,1,50.9999984436036
276,284,164091,1,0,0:0:0:0:
236,344,164327,2,0,P|204:300|212:256,1,101.999996887207,8|0,0:0|0:0,0:0:0:0:
232,188,165036,2,0,B|232:164|220:144|220:144|228:148|228:148|212:128|212:104,1,101.999996887207,2|0,0:0|0:0,0:0:0:0:
256,48,165744,2,0,P|208:32|164:52,2,101.999996887207,2|8|0,0:0|0:0|0:0,0:0:0:0:
324,72,166925,6,0,B|376:84|372:64|428:76,1,101.999996887207
456,140,167634,2,0,B|404:152|408:132|354:143,2,101.999996887207,0|8|0,0:0|0:0|0:0,0:0:0:0:
292,132,168815,6,0,P|296:172|348:208,1,101.999996887207
342,207,169524,1,0,0:0:0:0:
316,72,169760,6,0,P|276:66|232:108,1,101.999996887207
208,172,170469,1,0,0:0:0:0:
160,120,170705,1,0,0:0:0:0:
136,188,170941,6,0,B|140:228|112:256|112:256|152:260|176:284|180:324,1,170,2|2,0:0|0:0,0:0:0:0:
376,188,171886,2,0,B|372:228|400:256|400:256|360:260|336:284|332:324,1,170,2|2,0:0|0:0,0:0:0:0:
224,152,172831,6,0,P|228:92|276:184,1,297.5,4|0,0:0|0:0,0:0:0:0:
256,192,173776,12,4,174721,0:0:0:0:
144,180,180862,6,0,P|176:144|208:196,1,127.5,2|0,0:0|0:0,0:0:0:0:
136,88,181335,2,0,P|200:80|256:116,1,127.5,2|0,0:0|0:0,0:0:0:0:
88,136,181807,2,0,P|68:96|76:56,1,85,2|0,0:0|0:0,0:0:0:0:
75,57,182162,1,2,0:0:0:0:
244,108,182516,6,0,L|240:64,2,42.5
328,88,182988,2,0,L|324:44,2,42.5,0|0|2,0:0|0:0|0:0,0:0:0:0:
304,172,183461,1,0,0:0:0:0:
304,172,183579,1,0,0:0:0:0:
304,172,183697,1,0,0:0:0:0:
408,52,183933,1,0,0:0:0:0:
408,52,184051,1,0,0:0:0:0:
408,52,184169,6,0,B|400:120|400:120|408:136,1,85,2|0,0:0|0:0,0:0:0:0:
476,252,184642,2,0,B|484:184|484:184|476:168,1,85
372,244,185114,1,2,0:0:0:0:
256,188,185351,1,0,0:0:0:0:
372,244,185587,1,0,0:0:0:0:
256,188,185823,6,0,P|256:132|160:92,1,170
100,148,186532,2,0,P|60:168|20:164,1,85,2|0,0:0|0:0,0:0:0:0:
162,91,187004,1,2,0:0:0:0:
27,81,187240,2,0,P|15:122|20:164,1,85,0|2,0:0|0:0,0:0:0:0:
170,323,187713,6,0,B|144:296|96:312|96:312|112:260|80:228,1,170
256,312,188421,1,2,0:0:0:0:
256,312,188658,1,0,0:0:0:0:
292,236,188894,1,2,0:0:0:0:
292,236,189130,1,0,0:0:0:0:
276,152,189366,5,2,0:0:0:0:
318,152,189484,1,0,0:0:0:0:
354,173,189602,1,0,0:0:0:0:
374,210,189720,1,0,0:0:0:0:
380,252,189839,2,0,P|416:240|464:244,1,85,2|4,0:0|0:0,0:0:0:0:
391,347,190311,2,0,P|443:302|449:371,1,170,8|2,0:0|0:0,0:0:0:0:
324,320,191020,5,0,0:0:0:0:
324,320,191256,2,0,P|312:268|320:236,1,85,8|0,0:0|0:0,0:0:0:0:
356,160,191729,1,2,0:0:0:0:
356,160,191965,2,0,P|376:100|372:76,2,85,0|8|0,0:0|0:0|0:0,0:0:0:0:
272,164,192673,5,2,0:0:0:0:
240,84,192910,1,2,0:0:0:0:
240,84,193146,1,8,0:0:0:0:
308,32,193382,1,0,0:0:0:0:
308,32,193500,2,0,P|252:0|192:12,1,127.5
16,40,194091,2,0,P|72:72|132:60,1,127.5,8|0,0:0|0:0,0:0:0:0:
131,60,194563,6,0,L|116:148,1,85,2|0,0:0|0:0,0:0:0:0:
60,208,195036,1,8,0:0:0:0:
100,284,195272,1,0,0:0:0:0:
100,284,195390,1,0,0:0:0:0:
100,284,195508,6,0,P|156:280|184:300,1,85,2|0,0:0|0:0,0:0:0:0:
256,260,195981,1,8,0:0:0:0:
248,344,196217,1,0,0:0:0:0:
248,344,196335,2,0,B|292:352|320:320|320:320|324:328|324:328|340:312|364:312,1,127.5,0|2,0:0|0:0,0:0:0:0:
440,340,196925,1,8,0:0:0:0:
422,172,197162,1,0,0:0:0:0:
422,172,197280,2,0,P|420:215|432:256,1,85
484,140,197634,2,0,P|448:108|352:164,1,170
296,96,198343,5,2,0:0:0:0:
212,108,198579,1,0,0:0:0:0:
212,108,198815,2,0,P|172:132|128:128,1,85,8|0,0:0|0:0,0:0:0:0:
116,120,199169,2,0,P|125:173|76:228,1,127.5
32,156,199760,5,8,0:0:0:0:
196,204,199996,1,0,0:0:0:0:
164,28,200232,1,2,0:0:0:0:
80,226,200469,1,2,0:0:0:0:
68,60,200705,1,8,0:0:0:0:
224,112,200941,6,0,B|256:128|296:112|296:112|304:128|304:128|344:108|380:128,1,170
404,44,201650,1,8,0:0:0:0:
344,196,201886,1,0,0:0:0:0:
504,176,202122,1,2,0:0:0:0:
504,176,202358,2,0,B|488:112|488:112|496:92,1,85,0|8,0:0|0:0,0:0:0:0:
432,224,202831,1,0,0:0:0:0:
432,224,203067,6,0,B|448:288|448:288|440:308,1,85,2|0,0:0|0:0,0:0:0:0:
256,248,203540,2,0,P|292:224|304:288,1,127.5,8|0,0:0|0:0,0:0:0:0:
248,172,204012,2,0,P|296:164|364:200,1,127.5,6|2,0:0|0:0,0:0:0:0:
200,216,204484,6,0,P|184:176|200:128,1,89.2499972763062,12|0,0:0|0:0,0:0:0:0:
216,112,204957,6,0,P|244:72|164:76,1,170
288,140,205666,2,0,P|308:96|292:12,1,136
256,212,206374,2,0,B|292:232|328:212|328:212|328:220|328:220|364:204|396:216,1,152.999995330811,0|0,0:0|0:0,0:0:0:0:
256,192,207437,12,0,209681,0:0:0:0:
256,192,210272,12,4,212752,0:0:0:0:
