osu file format v14

[General]
AudioFilename: audio.mp3
AudioLeadIn: 0
PreviewTime: 119752
Countdown: 0
SampleSet: Soft
StackLeniency: 0
Mode: 2
LetterboxInBreaks: 0
WidescreenStoryboard: 1

[Editor]
DistanceSpacing: 1
BeatDivisor: 4
GridSize: 32
TimelineZoom: 1.7

[Metadata]
Title:The Fall
TitleUnicode:The Fall
Artist:Lovejoy
ArtistUnicode:Lovejoy
Creator:Crowley
Version:PLATTER
Source:
Tags:Pebble Brain Indie Rock English Wilbur Soot Ash Kabosu Mark Boardman Joe Goldsmith Jemzuu AJamez -MomoX Nosuri Male Vocals
BeatmapID:3326479
BeatmapSetID:1621981

[Difficulty]
HPDrainRate:5
CircleSize:3.8
OverallDifficulty:8
ApproachRate:8
SliderMultiplier:2.2
SliderTickRate:2

[Events]
//Background and Video events
0,0,"@_6plus1.jpg",0,0
//Break Periods
//Storyboard Layer 0 (Background)
//Storyboard Layer 1 (Fail)
//Storyboard Layer 2 (Pass)
//Storyboard Layer 3 (Foreground)
//Storyboard Layer 4 (Overlay)
//Storyboard Sound Samples

[TimingPoints]
3611,454.545454545455,4,2,1,50,1,0
4063,-100,4,2,1,40,0,0
4518,-100,4,2,1,50,0,0
5654,-100,4,2,1,40,0,0
6336,-100,4,2,1,50,0,0
7699,-100,4,2,1,40,0,0
8154,-100,4,2,1,50,0,0
9290,-100,4,2,1,40,0,0
9972,-100,4,2,1,50,0,0
11336,-100,4,2,1,40,0,0
11791,-100,4,2,1,50,0,0
12929,-100,4,2,1,40,0,0
13597,454.545454545455,4,2,1,50,1,0
14506,454.545454545455,4,2,1,50,1,0
14960,-100,4,2,1,40,0,0
15415,-100,4,2,1,50,0,0
16563,-100,4,2,1,40,0,0
17245,500.000000000001,4,2,1,50,1,0
17495,-100,4,2,2,60,0,0
17721,500.000000000001,4,2,1,60,1,0
17994,500.000000000001,4,2,2,60,1,0
18209,454.545454545455,4,2,3,60,1,0
18436,-100,4,2,3,40,0,0
19118,441.176470588236,4,2,4,40,1,0
20000,-100,4,2,3,40,0,0
20882,-100,4,2,1,40,0,0
21801,447.761194029851,4,2,3,60,1,0
22024,-100,4,2,3,40,0,0
22696,-100,4,2,4,40,0,0
23592,-100,4,2,3,40,0,0
23815,-100,4,2,1,40,0,0
24039,468.75,4,2,3,40,1,0
24273,-100,4,2,1,40,0,0
24547,441.176470588235,4,2,4,40,1,0
25208,-100,4,2,3,40,0,0
25443,454.545454545454,4,2,3,60,1,0
25656,-100,4,2,3,40,0,0
25883,-100,4,2,1,40,0,0
27454,458.015267175572,4,2,4,40,1,0
27530,-100,4,2,1,40,0,0
27681,-100,4,2,3,40,0,0
28170,454.545454545454,4,2,4,40,1,0
28269,-100,4,2,1,40,0,0
28383,-100,4,2,2,40,0,0
28610,-100,4,2,3,40,0,0
29065,-100,4,2,3,60,0,0
29092,454.545454545454,4,2,3,60,1,0
29553,454.545454545455,4,2,1,40,1,0
30916,447.761194029851,4,2,3,60,1,0
30916,-100,4,2,3,60,0,0
31139,-100,4,2,1,40,0,0
32030,458.015267175573,4,2,2,60,1,0
32259,-100,4,2,1,60,0,0
32717,454.545454545455,4,2,3,60,1,0
32944,-100,4,2,3,40,0,0
33626,-100,4,2,4,60,0,0
33967,-100,4,2,3,60,0,0
34080,-100,4,2,4,60,0,0
34421,-100,4,2,3,60,0,0
34762,-100,4,2,3,40,0,0
35444,-100,4,2,5,40,0,0
35557,-100,4,2,4,40,0,0
35671,-100,4,2,1,40,0,0
35785,-100,4,2,4,40,0,0
35898,-100,4,2,1,40,0,0
36126,-100,4,2,4,40,0,0
36239,-100,4,2,1,40,0,0
36353,-100,4,2,3,60,0,0
36580,-100,4,2,3,40,0,0
37262,-100,4,2,4,60,0,0
38398,-100,4,2,3,40,0,0
38626,-100,4,2,1,40,0,0
39080,-100,4,2,1,60,0,0
39989,-100,4,2,3,60,0,0
40217,-100,4,2,3,40,0,0
40898,-100,4,2,4,60,0,0
41012,-100,4,2,3,60,0,0
41239,-100,4,2,4,60,0,0
42035,-100,4,2,3,40,0,0
42489,-100,4,2,4,40,0,0
42565,-100,4,2,1,40,0,0
42717,-100,4,2,4,60,0,0
42831,-100,4,2,3,60,0,0
43171,-100,4,2,1,60,0,0
43398,-100,4,2,3,60,0,0
43853,-100,4,2,3,40,0,0
44535,-100,4,2,4,60,0,0
45671,-100,4,2,3,40,0,0
45898,-100,4,2,1,40,0,0
46126,-100,4,2,4,40,0,0
46201,-100,4,2,1,60,0,0
46580,-100,4,2,3,60,0,0
46807,-100,4,2,1,60,0,0
47262,-200,4,2,3,30,0,0
61782,465.116279069768,4,2,6,60,1,0
63642,447.761194029851,4,2,6,60,1,0
65433,452.830188679246,4,2,6,60,1,0
67256,452.830188679246,4,2,6,60,1,0
73142,-97.5609756097561,4,2,6,60,0,0
73583,517.241379310346,4,2,6,60,1,0
73841,451.127819548873,4,2,6,60,1,0
74540,451.127819548873,4,2,6,60,1,1
76344,461.538461538462,4,2,7,60,1,0
76603,428.571428571429,4,2,8,60,1,0
76817,-100,4,2,7,60,0,0
77031,461.538461538462,4,2,8,60,1,0
77261,444.444444444445,4,2,7,60,1,0
77957,405.405405405406,4,2,8,60,1,0
78148,447.761194029851,4,2,7,60,1,0
78819,-100,4,2,8,60,0,0
79081,461.538461538462,4,2,7,60,1,0
79763,-100,4,2,8,60,0,0
79994,454.545454545455,4,2,7,60,1,0
80448,441.176470588236,4,2,7,60,1,0
80668,-100,4,2,8,60,0,0
80889,458.015267175573,4,2,7,60,1,0
81118,-100,4,2,8,60,0,0
81347,-100,4,2,7,60,0,0
81576,-100,4,2,8,60,0,0
81805,-100,4,2,7,60,0,0
82034,-100,4,2,8,60,0,0
82263,-100,4,2,7,60,0,0
82492,-100,4,2,8,60,0,0
82721,451.127819548873,4,2,7,60,1,0
83397,-100,4,2,8,60,0,0
83623,456.273764258556,4,2,7,60,1,0
85219,-100,4,2,8,60,0,0
85448,454.545454545455,4,2,7,60,1,0
85675,-100,4,2,8,60,0,0
85902,-100,4,2,7,60,0,0
86129,-100,4,2,8,60,0,0
86357,451.127819548873,4,2,7,60,1,0
87033,-100,4,2,8,60,0,0
87259,451.127819548873,4,2,7,60,1,0
88837,-100,4,2,8,60,0,0
89063,456.273764258556,4,2,7,60,1,0
89975,454.545454545455,4,2,7,60,1,0
90202,-100,4,2,8,60,0,0
90429,-100,4,2,7,60,0,0
90656,-100,4,2,8,60,0,0
90884,454.545454545455,4,2,7,60,1,0
91111,-100,4,2,8,60,0,0
91338,-100,4,2,7,60,0,0
91565,-100,4,2,8,60,0,0
91793,-100,4,2,7,60,0,0
92020,-100,4,2,8,60,0,0
92134,-100,4,2,7,60,0,0
92474,-100,4,2,8,60,0,0
92702,-100,4,2,7,60,0,0
92929,-100,4,2,8,60,0,0
93156,-100,4,2,7,60,0,0
93384,-100,4,2,8,60,0,0
93611,465.116279069768,4,2,7,60,1,0
93843,-100,4,2,8,60,0,0
93959,-100,4,2,7,60,0,0
94308,-100,4,2,8,60,0,0
94541,458.015267175573,4,2,7,60,1,0
94770,-100,4,2,8,60,0,0
94999,-100,4,2,7,60,0,0
95228,-100,4,2,8,60,0,0
95457,447.761194029851,4,2,7,60,1,0
95680,-100,4,2,8,60,0,0
95904,437.956204379563,4,2,7,60,1,0
96122,-100,4,2,8,60,0,0
96341,472.44094488189,4,2,7,60,1,0
97285,437.956204379563,4,2,7,60,1,0
97503,-100,4,2,8,60,0,0
97722,428.57142857143,4,2,7,60,1,0
97936,-100,4,2,8,60,0,0
98160,452.830188679246,4,2,7,60,1,0
98839,-100,4,2,8,60,0,0
99067,458.015267175573,4,2,7,60,1,0
99296,-100,4,2,8,60,0,0
99410,-100,4,2,7,60,0,0
99754,-100,4,2,8,60,0,0
99990,447.761194029851,4,2,7,60,1,0
100213,-100,4,2,8,60,0,0
100437,-100,4,2,7,60,0,0
100661,-100,4,2,8,60,0,0
100885,-100,4,2,7,60,0,0
101332,465.116279069768,4,2,7,60,1,0
101797,454.545454545455,4,2,7,60,1,0
102024,-100,4,2,8,60,0,0
102251,-100,4,2,7,60,0,0
102478,-100,4,2,8,60,0,0
102706,-100,4,2,7,60,0,0
103387,-100,4,2,8,60,0,0
103500,-100,4,2,7,60,0,0
103615,458.015267175573,4,2,7,60,1,0
103844,-100,4,2,8,60,0,0
103958,-100,4,2,7,60,0,0
104073,425.531914893617,4,2,7,60,1,0
104285,-100,4,2,8,60,0,0
104498,472.44094488189,4,2,7,60,1,0
105442,458.015267175573,4,2,7,50,1,0
109106,444.444444444445,4,2,7,50,1,0
109994,480.000000000001,4,2,7,50,1,0
109994,-96.7117988394584,4,2,7,50,0,0
110458,444.444444444445,4,2,7,50,1,0
110680,-91.743119266055,4,2,7,50,0,0
110883,526.315789473685,4,2,7,50,1,0
111363,480.000000000001,4,2,7,50,1,0
111575,461.538461538462,4,2,7,50,1,0
112729,447.761194029851,4,2,7,50,1,0
114544,447.761194029851,4,2,7,50,1,0
116360,454.545454545455,4,2,7,50,1,0
118178,447.761194029851,4,2,7,50,1,0
119073,452.830188679246,4,2,7,50,1,0
119978,454.545454545455,4,2,9,70,1,1
121796,444.444444444445,4,2,9,70,1,1
122684,461.538461538462,4,2,9,70,1,1
123597,458.015267175573,4,2,9,70,1,1
126327,458.015267175573,4,2,9,70,1,1
127256,454.545454545455,4,2,9,70,1,1
128165,458.015267175573,4,2,9,70,1,1
129084,441.176470588236,4,2,9,70,1,1
130877,454.545454545455,4,2,9,70,1,1
132940,454.545454545455,4,2,9,70,1,1
133167,454.545454545455,4,2,9,70,1,1
133848,447.761194029851,4,2,9,70,1,1
134551,454.545454545455,4,2,9,70,1,1
135005,425.531914893617,4,2,9,70,1,1
135199,425.531914893617,4,2,9,70,1,1
135324,425.531914893617,4,2,9,70,1,1
135430,425.531914893617,4,2,9,70,1,1
135856,461.538461538462,4,2,9,70,1,1
136779,451.127819548873,4,2,9,70,1,1
138171,454.545454545455,4,2,9,70,1,1
139080,451.127819548872,4,2,9,70,1,1
139982,444.444444444445,4,2,9,70,1,1
140870,465.116279069768,4,2,9,70,1,1
141786,454.545454545455,4,2,9,70,1,1
142695,451.127819548872,4,2,9,70,1,1
143587,454.545454545455,4,2,9,70,1,1
144496,472.44094488189,4,2,9,70,1,1
145440,451.127819548872,4,2,9,70,1,1
146327,454.545454545455,4,2,9,70,1,1
147477,437.956204379563,4,2,9,70,1,1
148162,447.761194029851,4,2,9,70,1,1
149057,456.273764258555,4,2,9,70,1,1
150882,452.830188679245,4,2,9,70,1,1
152693,451.127819548872,4,2,9,70,1,1
153132,451.127819548872,4,2,9,70,1,1
154046,451.127819548872,4,2,9,70,1,1
154497,468.75,4,2,9,70,1,1
154965,454.545454545455,4,2,9,70,1,1
155890,454.545454545455,4,2,9,70,1,1
156349,461.538461538462,4,2,9,70,1,1
157262,449.438202247191,4,2,9,70,1,1
159087,454.545454545455,4,2,9,70,1,1
159996,434.782608695652,4,2,9,70,1,1
160865,461.538461538462,4,2,9,70,1,1
161788,437.956204379563,4,2,9,70,1,1
162671,428.571428571429,4,2,9,70,1,1
163134,447.761194029851,4,2,9,70,1,1
163595,454.545454545455,4,2,9,60,1,0
163595,-133.333333333333,4,2,9,60,0,0
167217,459.770114942529,4,2,7,50,1,0
167446,-100,4,2,7,5,0,0
170885,459.770114942529,4,2,7,50,1,0
171124,-100,4,2,7,5,0,0
173423,436.363636363637,4,2,7,50,1,0
173623,459.770114942529,4,2,7,50,1,0
174542,441.176470588235,4,2,7,50,1,0
174762,-100,4,2,7,5,0,0
176080,441.176470588235,4,2,7,50,1,0
176306,465.116279069768,4,2,7,50,1,0
176538,-100,4,2,7,5,0,0
177003,408.163265306123,4,2,7,50,1,0
177569,454.545454545455,4,2,7,50,1,0
178137,454.545454545455,4,2,7,50,1,0
179047,-100,4,2,7,40,0,0
179956,-100,4,2,7,30,0,0
180865,-100,4,2,7,20,0,0
181774,-100,4,2,7,10,0,0

[Colours]
Combo1 : 128,128,255
Combo2 : 255,128,128
Combo3 : 128,128,128
Combo4 : 255,0,0

[HitObjects]
393,192,3611,5,2,0:0:0:0:
220,193,4065,2,0,L|209:116,3,55,2|2|2|2,0:3|0:3|0:3|0:3,0:0:0:0:
341,119,4520,2,0,L|508:127,2,165,2|2|2,0:1|0:0|0:0,0:0:0:0:
129,108,5656,6,0,L|129:234,1,110,2|2,0:3|0:3,0:0:0:0:
263,104,6111,1,2,0:3:0:0:
467,105,6338,1,2,0:1:0:0:
467,105,6565,1,2,0:3:0:0:
342,103,6792,2,0,L|399:104,1,55,2|2,0:1|0:3,0:0:0:0:
467,105,7020,1,2,0:3:0:0:
148,279,7247,5,6,0:0:0:0:
368,277,7701,1,2,0:3:0:0:
396,231,7814,1,2,0:3:0:0:
380,181,7928,1,2,0:3:0:0:
330,161,8041,1,2,0:3:0:0:
187,157,8156,6,0,L|-4:158,2,165,2|2|2,0:1|0:0|0:0,0:0:0:0:
403,162,9292,2,0,L|403:35,1,110,2|2,0:3|0:3,0:0:0:0:
272,162,9747,1,2,0:3:0:0:
73,265,9974,1,2,0:1:0:0:
196,263,10201,1,2,0:3:0:0:
65,243,10429,2,0,L|-20:244,2,55,2|2|2,0:1|0:3|0:3,0:0:0:0:
285,164,10883,5,2,0:0:0:0:
118,167,11338,1,2,0:0:0:0:
87,123,11451,1,2,0:0:0:0:
103,73,11565,1,2,0:0:0:0:
152,54,11678,1,2,0:0:0:0:
301,52,11792,6,0,L|509:52,2,165,2|2|2,0:1|0:0|0:0,0:0:0:0:
464,126,12929,1,2,0:3:0:0:
464,16,13156,1,2,0:3:0:0:
330,18,13383,1,2,0:3:0:0:
462,201,13597,1,2,0:1:0:0:
462,201,13824,1,2,0:3:0:0:
320,137,14051,2,0,L|232:137,1,55,2|2,0:1|0:3,0:0:0:0:
320,137,14278,1,2,0:3:0:0:
33,330,14506,5,6,0:0:0:0:
206,330,14960,1,2,0:3:0:0:
238,288,15073,1,2,0:3:0:0:
226,236,15187,1,2,0:3:0:0:
177,214,15300,1,2,0:3:0:0:
60,259,15415,6,0,L|268:259,2,165,2|2|2,0:1|0:0|0:0,0:0:0:0:
275,195,16551,1,2,0:3:0:0:
275,85,16778,1,2,0:3:0:0:
150,83,17006,1,2,0:3:0:0:
352,32,17245,2,0,L|482:32,1,110,2|2,0:0|0:0,0:0:0:0:
259,197,17721,1,2,0:0:0:0:
409,198,17994,1,2,0:0:0:0:
106,352,18209,5,4,3:2:0:0:
326,252,18663,1,2,0:0:0:0:
374,230,18776,1,0,0:0:0:0:
392,179,18890,1,2,0:0:0:0:
367,132,19003,1,0,0:0:0:0:
326,252,19118,6,0,L|152:251,2,165,2|2|2,0:0|0:0|0:0,0:0:0:0:
145,317,20220,2,0,L|144:223,1,55,0|2,0:0|0:0,0:0:0:0:
223,255,20441,2,0,L|358:254,1,110,0|2,0:0|0:0,0:0:0:0:
200,115,20882,2,0,P|119:153|144:242,1,165,2|2,0:1|0:3,0:0:0:0:
226,256,21323,2,0,L|379:256,1,110,2|2,0:1|0:3,0:0:0:0:
11,366,21801,5,4,3:2:0:0:
179,365,22248,1,2,0:0:0:0:
127,349,22359,1,0,0:0:0:0:
106,300,22471,1,2,0:0:0:0:
127,252,22583,1,0,0:0:0:0:
179,365,22696,6,0,L|364:365,2,165,2|2|2,0:0|0:0|0:0,0:0:0:0:
389,263,23815,2,0,L|481:264,1,55,2|0,0:3|0:0,0:0:0:0:
389,263,24039,1,2,0:0:0:0:
258,262,24273,1,0,0:0:0:0:
436,197,24547,2,0,L|251:197,1,165,2|0,0:0|0:0,0:0:0:0:
350,182,24988,2,0,L|495:182,1,110,2|2,0:0|0:0,0:0:0:0:
130,29,25443,5,4,3:2:0:0:
310,31,25897,1,2,0:3:0:0:
356,57,26010,1,2,0:3:0:0:
374,108,26124,1,2,0:3:0:0:
355,158,26237,1,2,0:3:0:0:
308,184,26352,5,2,0:1:0:0:
133,182,26693,1,2,0:0:0:0:
308,184,27033,1,2,0:0:0:0:
103,368,27454,2,0,L|104:296,1,55,2|0,2:3|0:0,0:0:0:0:
182,297,27683,2,0,L|64:297,1,110,2|2,0:0|0:0,0:0:0:0:
298,235,28170,2,0,L|367:235,1,55,2|2,0:0|0:3,0:0:0:0:
298,235,28397,1,2,0:0:0:0:
162,232,28624,2,0,L|161:117,1,110,2|2,0:0|0:0,0:0:0:0:
472,109,29092,5,4,3:2:0:0:
295,177,29553,1,2,0:3:0:0:
244,161,29666,1,2,0:3:0:0:
224,111,29780,1,2,0:3:0:0:
249,65,29893,1,2,0:3:0:0:
302,55,30007,5,2,0:1:0:0:
461,57,30348,1,2,0:0:0:0:
302,55,30689,1,2,0:0:0:0:
490,172,30916,2,0,L|370:172,2,110,4|2|2,3:2|0:3|0:3,0:0:0:0:
377,284,31587,1,0,0:0:0:0:
250,285,31811,2,0,L|195:285,1,55,2|0,0:1|0:0,0:0:0:0:
250,285,32030,1,2,0:0:0:0:
383,363,32259,2,0,L|501:363,1,110,2|0,0:1|0:0,0:0:0:0:
201,198,32717,5,4,3:2:0:0:
422,201,33171,2,0,L|422:80,1,110,2|2,0:0|0:0,0:0:0:0:
222,86,33626,2,0,L|370:86,1,110,2|2,0:0|0:0,0:0:0:0:
386,86,33967,2,0,L|181:86,1,165,2|2,0:0|0:0,0:0:0:0:
427,18,34762,6,0,L|495:18,1,55,2|0,0:0|0:0,0:0:0:0:
427,18,34989,1,2,0:0:0:0:
292,18,35217,1,2,0:0:0:0:
80,209,35444,1,2,0:0:0:0:
32,184,35557,1,2,0:3:0:0:
15,133,35671,1,2,0:3:0:0:
39,86,35784,1,2,0:3:0:0:
90,69,35898,2,0,L|179:69,2,55,2|2|2,0:1|0:3|0:3,0:0:0:0:
382,207,36353,5,6,3:2:0:0:
181,360,36807,1,2,0:0:0:0:
143,323,36920,1,0,0:0:0:0:
156,273,37034,1,2,0:0:0:0:
207,261,37147,1,0,0:0:0:0:
331,257,37262,2,0,L|470:256,1,110,2|0,0:0|0:0,0:0:0:0:
309,218,37603,2,0,L|309:49,1,165,2|2,0:0|0:0,0:0:0:0:
39,198,38398,5,2,0:0:0:0:
39,198,38626,1,2,0:3:0:0:
165,197,38853,2,0,L|83:198,1,55,2|0,0:3|0:0,0:0:0:0:
45,119,39080,2,0,L|170:118,1,110,2|2,0:0|0:3,0:0:0:0:
291,202,39535,2,0,L|166:201,1,110,2|2,0:0|0:3,0:0:0:0:
468,99,39989,5,4,3:2:0:0:
306,99,40444,2,0,L|378:98,1,55,2|0,0:0|0:0,0:0:0:0:
288,153,40671,2,0,L|233:153,1,55,2|0,0:0|0:0,0:0:0:0:
337,234,40898,2,0,L|480:234,1,110,2|0,0:0|0:0,0:0:0:0:
390,238,41239,2,0,L|219:238,1,165,2|2,0:0|0:0,0:0:0:0:
471,369,42035,6,0,L|472:232,1,110,2|2,0:0|0:0,0:0:0:0:
357,254,42489,1,2,0:3:0:0:
142,251,42717,2,0,P|89:218|145:120,1,165,2|2,0:0|0:0,0:0:0:0:
208,122,43171,2,0,L|357:122,1,110,2|2,0:0|0:0,0:0:0:0:
25,37,43626,5,4,3:2:0:0:
201,179,44080,2,0,L|122:180,1,55,2|0,0:0|0:0,0:0:0:0:
92,249,44307,2,0,L|171:250,1,55,2|0,0:0|0:0,0:0:0:0:
276,322,44535,2,0,L|431:323,1,110,2|0,0:0|0:0,0:0:0:0:
453,324,44876,2,0,L|266:322,1,165,2|2,0:0|0:0,0:0:0:0:
32,372,45671,6,0,L|32:245,1,110,2|2,0:0|0:3,0:0:0:0:
159,251,46126,2,0,L|233:251,1,55,2|0,0:3|0:0,0:0:0:0:
150,191,46353,2,0,L|152:67,1,110,2|2,0:0|0:0,0:0:0:0:
290,73,46807,2,0,L|134:74,1,110,2|2,0:0|0:3,0:0:0:0:
470,27,47262,6,0,P|263:66|488:371,1,770,2|0,0:0|0:0,0:0:0:0:
144,33,50898,2,0,P|351:72|147:315,1,660,2|2,0:0|0:3,0:0:0:0:
341,321,54080,1,2,0:1:0:0:
96,370,54535,6,0,B|-3:365|-70:249|6:139|104:141|104:141|204:138|279:250|212:366|122:368|122:368|53:369,1,770,2|0,0:0|0:0,0:0:0:0:
250,373,58171,6,0,P|323:353|244:182,1,330,2|0,0:0|0:0,0:0:0:0:
61,191,59989,2,0,L|459:191,1,385,2|0,0:0|0:0,0:0:0:0:
446,191,61782,5,0,3:1:0:0:
59,361,62247,2,0,P|3:333|79:226,1,220,10|2,0:2|0:2,0:0:0:0:
171,224,62944,1,0,3:2:0:0:
367,221,63177,2,0,L|229:221,1,110,10|10,0:2|0:3,0:0:0:0:
257,221,63526,1,4,0:3:0:0:
360,209,63642,5,2,3:0:0:0:
489,210,63865,1,2,3:0:0:0:
355,369,64089,2,0,L|355:248,1,110,10|4,0:0|0:3,0:0:0:0:
285,258,64425,1,8,0:3:0:0:
173,253,64537,2,0,L|35:254,1,110,2|2,3:0|3:0,0:0:0:0:
203,175,64985,2,0,L|326:175,1,110,10|0,0:0|3:0,0:0:0:0:
20,26,65433,5,0,3:1:0:0:
204,378,65885,2,0,P|272:349|264:206,1,220,10|2,0:2|0:2,0:0:0:0:
133,221,66565,1,0,3:2:0:0:
276,217,66791,2,0,L|277:89,1,110,10|10,0:2|0:3,0:0:0:0:
201,109,67131,1,4,0:3:0:0:
72,108,67256,6,0,L|207:109,1,110,2|2,3:0|3:0,0:0:0:0:
29,204,67708,1,10,0:0:0:0:
29,204,67935,1,4,0:3:0:0:
93,204,68048,1,8,0:3:0:0:
202,204,68161,2,0,L|73:203,1,110,2|2,3:0|3:0,0:0:0:0:
202,204,68614,2,0,L|202:81,1,110,10|0,0:0|3:0,0:0:0:0:
495,57,69067,5,0,3:1:0:0:
285,59,69520,2,0,P|320:128|469:165,1,220,10|2,0:2|0:2,0:0:0:0:
323,185,70199,1,0,3:2:0:0:
452,180,70425,2,0,L|451:43,1,110,10|10,0:2|0:3,0:0:0:0:
390,73,70765,1,4,0:3:0:0:
266,209,70878,6,0,L|114:210,1,110,2|2,3:0|3:0,0:0:0:0:
288,306,71331,2,0,L|438:307,1,110,10|4,0:0|0:3,0:0:0:0:
333,298,71671,1,8,0:3:0:0:
214,286,71784,2,0,L|214:158,1,110,2|2,3:0|3:0,0:0:0:0:
349,172,72237,2,0,L|350:30,1,110,10|8,0:0|3:0,0:0:0:0:
41,56,72689,5,0,3:1:0:0:
252,202,73142,2,0,L|31:203,1,220,10|2,0:2|0:2,0:0:0:0:
170,183,73841,1,0,3:2:0:0:
35,180,74066,2,0,L|35:315,1,110,10|10,0:2|0:3,0:0:0:0:
95,290,74404,1,4,0:3:0:0:
252,357,74540,6,0,L|385:357,1,110,2|2,3:0|3:0,0:0:0:0:
141,286,74991,2,0,L|2:287,1,110,10|10,0:0|0:3,0:0:0:0:
103,274,75329,1,8,0:0:0:0:
234,264,75442,2,0,L|361:264,1,110,10|10,0:0|0:0,0:0:0:0:
32,178,75893,2,0,L|32:57,1,110,10|10,3:2|3:2,0:0:0:0:
334,46,76344,5,4,3:2:0:0:
187,197,76603,2,0,L|43:196,2,110,2|10|2,0:0|0:0|0:0,0:0:0:0:
406,202,77261,2,0,L|406:76,1,110,2|2,3:2|0:3,0:0:0:0:
346,90,77594,1,2,0:0:0:0:
279,87,77705,1,8,0:0:0:0:
406,55,77957,1,2,0:0:0:0:
234,220,78148,6,0,L|92:219,1,110,2|2,3:2|0:3,0:0:0:0:
257,160,78595,2,0,L|257:48,1,110,10|2,0:0|0:0,0:0:0:0:
56,48,79081,2,0,L|186:48,1,110,0|2,3:0|0:3,0:0:0:0:
275,169,79542,2,0,L|145:169,1,110,8|2,0:0|0:0,0:0:0:0:
457,79,79994,6,0,L|457:205,1,110,2|2,3:2|0:3,0:0:0:0:
393,204,80334,1,2,0:0:0:0:
327,220,80448,1,8,0:0:0:0:
452,314,80668,2,0,L|317:314,1,110,2|0,0:0|3:2,0:0:0:0:
476,255,81118,2,0,L|476:132,1,110,2|8,0:0|0:0,0:0:0:0:
355,143,81576,1,2,0:0:0:0:
132,143,81805,6,0,L|257:143,1,110,2|2,3:2|0:0,0:0:0:0:
299,144,82148,1,0,0:0:0:0:
179,110,82263,2,0,L|69:110,1,110,10|2,0:2|0:0,0:0:0:0:
290,26,82721,2,0,L|290:249,1,220,2|10,3:2|0:0,0:0:0:0:
168,247,83397,1,2,0:0:0:0:
475,363,83623,6,0,P|509:315|399:219,1,220,6|8,3:2|0:0,0:0:0:0:
300,212,84307,1,2,0:3:0:0:
101,208,84535,2,0,L|299:207,1,165,2|2,3:2|0:0,0:0:0:0:
181,188,84991,2,0,L|45:189,2,110,8|2|0,0:0|0:0|3:2,0:0:0:0:
313,187,85675,5,2,0:0:0:0:
177,360,85902,2,0,L|176:246,1,110,10|2,0:0|0:0,0:0:0:0:
376,237,86357,2,0,L|232:237,1,110,2|2,3:2|0:3,0:0:0:0:
397,166,86808,2,0,L|397:52,1,110,10|2,0:0|0:0,0:0:0:0:
108,42,87259,6,0,L|229:43,2,110,2|2|8,3:2|0:3|0:0,0:0:0:0:
235,148,87935,2,0,L|305:148,1,55,2|8,3:3|0:0,0:0:0:0:
191,135,88161,2,0,L|-9:135,1,165,2|2,3:2|0:0,0:0:0:0:
93,132,88612,2,0,L|222:131,1,110,8|2,0:0|0:0,0:0:0:0:
396,131,89063,5,0,3:0:0:0:
396,131,89291,1,2,0:3:0:0:
213,201,89519,1,10,0:0:0:0:
332,203,89747,2,0,L|412:202,1,55,2|10,0:3|0:0,0:0:0:0:
266,312,89975,2,0,L|162:313,2,55,2|2|12,3:2|3:2|0:0,0:0:0:0:
485,364,90429,2,0,L|484:293,1,55,2|0,3:2|0:0,0:0:0:0:
426,302,90656,1,12,0:0:0:0:
105,296,90884,5,4,3:2:0:0:
229,296,91111,2,0,L|374:296,2,110,2|10|2,0:0|0:0|0:0,0:0:0:0:
23,304,91793,2,0,L|23:175,1,110,2|2,3:2|0:0,0:0:0:0:
72,193,92134,1,2,0:0:0:0:
146,188,92247,1,8,0:0:0:0:
20,165,92474,1,2,0:0:0:0:
234,146,92702,5,0,3:0:0:0:
98,147,92929,2,0,L|99:31,1,110,2|10,0:0|0:0,0:0:0:0:
218,35,93384,1,2,0:0:0:0:
19,26,93611,2,0,L|150:26,1,110,2|2,3:2|0:0,0:0:0:0:
193,26,93959,1,2,0:0:0:0:
129,26,94076,2,0,L|19:26,1,110,8|2,0:0|0:0,0:0:0:0:
326,190,94541,5,0,3:0:0:0:
199,192,94770,2,0,L|78:193,2,110,2|10|2,0:0|0:0|0:0,0:0:0:0:
332,195,95457,2,0,L|332:58,1,110,2|2,3:2|0:0,0:0:0:0:
193,344,95904,2,0,L|193:207,1,110,10|2,0:0|0:0,0:0:0:0:
394,235,96341,6,0,L|255:235,2,110,0|2|8,3:0|0:3|0:0,0:0:0:0:
261,157,97049,2,0,L|202:156,1,55,2|8,0:3|0:0,0:0:0:0:
347,94,97285,2,0,L|464:95,1,110,8|6,0:0|3:2,0:0:0:0:
252,256,97722,2,0,L|135:257,1,110,8|6,0:0|3:2,0:0:0:0:
457,182,98160,5,4,3:2:0:0:
252,370,98612,2,0,L|252:242,1,110,10|2,0:0|0:0,0:0:0:0:
458,252,99067,2,0,L|321:252,1,110,2|2,3:2|0:0,0:0:0:0:
288,251,99410,1,2,0:0:0:0:
348,252,99525,2,0,L|458:252,1,110,8|2,0:0|0:0,0:0:0:0:
348,252,99990,5,0,3:2:0:0:
125,350,100213,2,0,L|262:349,2,110,2|10|2,0:0|0:0|0:0,0:0:0:0:
335,280,100885,2,0,L|349:214,1,55,2|2,3:2|0:0,0:0:0:0:
210,201,101221,2,0,L|196:124,1,55,2|8,0:0|0:0,0:0:0:0:
321,113,101564,1,2,0:3:0:0:
19,105,101797,5,0,3:0:0:0:
141,107,102024,2,0,L|266:107,2,110,2|10|2,0:0|0:0|0:0,0:0:0:0:
345,198,102706,2,0,L|183:198,1,110,2|2,3:2|0:3,0:0:0:0:
175,197,103047,1,2,0:0:0:0:
235,198,103160,1,8,0:0:0:0:
379,313,103387,2,0,L|458:312,1,55,10|8,0:0|0:0,0:0:0:0:
313,249,103615,6,0,L|176:249,1,110,2|2,3:2|0:0,0:0:0:0:
264,241,103958,1,2,0:0:0:0:
377,233,104073,2,0,L|398:104,1,110,8|2,0:0|0:0,0:0:0:0:
106,122,104498,2,0,L|26:123,1,55,2|2,3:2|0:0,0:0:0:0:
106,122,104734,1,2,0:0:0:0:
324,43,104970,1,8,0:0:0:0:
187,43,105206,1,0,3:0:0:0:
485,198,105442,6,0,P|507:124|390:60,1,220,4|10,3:2|0:0,0:0:0:0:
286,58,106129,1,2,0:0:0:0:
402,56,106358,2,0,L|402:194,1,110,2|0,0:0|3:0,0:0:0:0:
348,178,106701,1,2,0:0:0:0:
292,189,106816,1,8,0:0:0:0:
489,299,107045,6,0,L|333:302,1,110,2|0,0:0|0:0,0:0:0:0:
257,362,107503,2,0,L|413:365,2,110,2|8|0,3:2|0:0|0:0,0:0:0:0:
159,316,108190,1,0,0:0:0:0:
122,216,108419,1,0,3:0:0:0:
166,118,108648,1,8,0:0:0:0:
266,79,108877,2,0,L|346:78,1,55,0|0,3:0|0:0,0:0:0:0:
205,236,109106,6,0,P|168:215|226:74,1,220,0|10,3:0|0:0,0:0:0:0:
336,74,109772,1,2,0:0:0:0:
206,317,109994,2,0,P|226:245|357:200,1,220,2|10,0:0|0:0,0:0:0:0:
208,191,110680,6,0,L|209:66,1,110,2|0,0:0|0:0,0:0:0:0:
320,68,111146,1,2,0:0:0:0:
132,66,111363,1,8,0:0:0:0:
254,188,111575,1,0,3:0:0:0:
276,139,111690,1,0,0:0:0:0:
258,88,111805,1,0,0:0:0:0:
133,86,112036,1,0,3:0:0:0:
328,39,112267,2,0,L|445:38,1,110,8|0,0:0|3:0,0:0:0:0:
131,188,112729,6,0,L|358:132,1,220,4|8,3:2|0:0,0:0:0:0:
454,171,113400,1,2,0:0:0:0:
352,293,113624,2,0,L|230:293,1,110,2|0,0:0|3:0,0:0:0:0:
184,292,113960,1,2,0:0:0:0:
242,293,114072,1,8,0:0:0:0:
350,292,114296,1,2,0:0:0:0:
142,366,114544,6,0,P|107:310|214:217,1,220,0|8,0:0|0:0,0:0:0:0:
332,213,115215,1,0,0:0:0:0:
200,200,115439,2,0,L|77:199,1,110,2|0,0:0|3:0,0:0:0:0:
302,122,115887,2,0,L|434:122,1,110,8|0,0:0|0:0,0:0:0:0:
100,223,116360,6,0,L|371:223,1,220,4|8,3:2|0:0,0:0:0:0:
455,224,117041,1,8,0:0:0:0:
266,355,117269,2,0,L|145:356,2,110,8|8|8,0:0|0:0|0:0,0:0:0:0:
379,356,117950,1,8,0:0:0:0:
76,280,118178,6,0,L|48:161,1,110,8|8,0:0|0:0,0:0:0:0:
342,154,118625,2,0,L|370:35,1,110,8|8,0:0|0:0,0:0:0:0:
35,25,119073,1,10,0:0:0:0:
145,25,119299,1,0,3:0:0:0:
90,25,119412,1,0,3:0:0:0:
35,25,119525,1,8,0:0:0:0:
145,25,119752,1,0,3:0:0:0:
486,24,119978,6,0,L|348:24,2,110,6|0|14,3:1|3:0|0:0,0:0:0:0:
371,136,120659,2,0,L|294:137,1,55,2|2,3:2|0:0,0:0:0:0:
436,68,120887,2,0,L|513:69,2,55,6|2|2,3:2|0:0|3:2,0:0:0:0:
329,65,121341,1,14,0:0:0:0:
436,68,121568,1,2,3:2:0:0:
137,314,121796,6,0,L|1:314,2,110,6|0|14,3:2|3:0|0:0,0:0:0:0:
10,262,122462,2,0,L|9:191,1,55,2|2,3:2|0:0,0:0:0:0:
126,194,122684,2,0,L|199:193,1,55,6|2,3:2|0:0,0:0:0:0:
126,194,122914,1,2,3:2:0:0:
352,94,123145,2,0,L|352:238,1,110,14|2,0:0|3:2,0:0:0:0:
47,84,123597,6,0,L|181:84,2,110,6|0|14,3:2|3:0|0:0,0:0:0:0:
180,13,124284,2,0,L|180:95,1,55,2|2,3:2|3:2,0:0:0:0:
70,82,124513,2,0,L|-1:82,1,55,6|2,3:2|0:0,0:0:0:0:
70,82,124742,1,2,3:2:0:0:
191,188,124971,1,14,0:0:0:0:
74,84,125200,2,0,L|152:84,1,55,2|2,3:2|0:0,0:0:0:0:
243,86,125429,6,0,L|373:87,2,110,6|0|14,3:2|3:0|0:0,0:0:0:0:
397,26,126116,2,0,L|396:112,1,55,2|2,3:2|3:2,0:0:0:0:
277,148,126327,2,0,L|199:147,1,55,6|2,3:2|0:0,0:0:0:0:
277,148,126556,1,2,3:2:0:0:
485,275,126785,2,0,L|483:191,1,55,14|0,0:0|0:0,0:0:0:0:
430,217,127014,1,2,3:2:0:0:
125,356,127256,6,0,L|4:355,2,110,6|0|14,3:2|3:0|0:0,0:0:0:0:
254,355,127937,2,0,L|331:355,1,55,2|8,3:2|3:2,0:0:0:0:
201,292,128165,2,0,L|181:208,1,55,6|2,3:2|0:0,0:0:0:0:
201,292,128394,1,2,3:2:0:0:
362,230,128623,2,0,L|379:111,1,110,14|2,0:0|3:2,0:0:0:0:
315,112,128966,1,2,0:0:0:0:
188,100,129084,6,0,L|323:103,2,110,6|0|14,3:2|3:0|0:0,0:0:0:0:
297,102,129745,2,0,L|379:102,1,55,2|2,3:2|0:2,0:0:0:0:
254,194,129966,2,0,L|172:194,1,55,6|2,3:2|0:0,0:0:0:0:
254,194,130186,1,2,3:2:0:0:
68,321,130407,2,0,L|68:178,1,110,14|2,0:0|3:2,0:0:0:0:
388,359,130877,6,0,L|533:359,2,110,14|2|6,0:0|3:2|3:2,0:0:0:0:
178,351,131558,1,10,0:0:0:0:
133,320,131671,1,10,0:0:0:0:
118,268,131785,1,6,3:2:0:0:
140,219,131898,1,0,0:0:0:0:
188,195,132012,1,2,3:2:0:0:
321,194,132240,1,14,0:0:0:0:
185,132,132467,2,0,L|104:133,1,55,2|2,3:2|3:2,0:0:0:0:
185,132,132695,1,6,3:2:0:0:
494,128,132940,6,0,L|494:189,1,55,10|10,0:0|0:0,0:0:0:0:
396,204,133167,2,0,L|310:203,1,55,10|10,0:0|0:0,0:0:0:0:
396,204,133394,2,0,L|509:204,1,110,14|6,0:0|3:2,0:0:0:0:
207,344,133848,2,0,L|138:345,1,55,10|10,0:0|0:0,0:0:0:0:
207,344,134071,2,0,L|208:281,1,55,10|10,0:0|0:0,0:0:0:0:
78,214,134295,1,10,0:0:0:0:
19,216,134407,1,10,0:0:0:0:
78,214,134551,5,6,3:1:0:0:
367,110,134778,6,0,L|493:109,1,110,0|14,3:0|0:0,0:0:0:0:
367,110,135199,1,2,3:2:0:0:
367,110,135324,1,10,0:0:0:0:
270,110,135430,2,0,L|182:110,1,55,6|0,3:2|0:0,0:0:0:0:
271,111,135642,1,2,3:2:0:0:
386,112,135856,2,0,L|386:231,1,110,14|2,0:0|3:2,0:0:0:0:
316,223,136202,1,10,0:0:0:0:
189,323,136317,6,0,L|58:323,1,110,6|0,3:2|3:0,0:0:0:0:
198,239,136779,2,0,L|323:240,1,110,14|2,0:0|3:2,0:0:0:0:
370,242,137117,1,2,0:0:0:0:
307,239,137230,2,0,L|198:239,1,110,6|2,3:2|3:2,0:0:0:0:
403,172,137681,2,0,L|403:45,1,110,14|2,0:0|3:2,0:0:0:0:
35,58,138171,5,6,3:2:0:0:
167,57,138398,1,0,3:0:0:0:
390,174,138625,2,0,L|246:174,1,110,14|2,0:0|3:2,0:0:0:0:
215,173,138966,1,10,3:2:0:0:
339,236,139080,2,0,L|449:236,1,110,6|2,3:2|3:2,0:0:0:0:
385,228,139418,2,0,L|286:228,1,55,0|14,0:0|0:0,0:0:0:0:
27,325,139756,6,0,L|156:325,1,110,2|6,3:2|3:2,0:0:0:0:
271,326,140204,2,0,L|205:326,1,55,0|0,3:0|0:0,0:0:0:0:
161,326,140426,2,0,L|271:326,1,110,14|2,0:0|3:2,0:0:0:0:
212,306,140759,1,2,3:2:0:0:
90,304,140870,2,0,L|91:158,1,110,6|2,3:2|3:2,0:0:0:0:
311,191,141335,2,0,L|439:191,1,110,14|2,0:0|3:2,0:0:0:0:
90,60,141786,5,6,3:2:0:0:
224,91,142013,2,0,L|75:91,1,110,0|14,3:0|0:0,0:0:0:0:
224,91,142467,2,0,L|319:90,1,55,2|8,3:2|3:2,0:0:0:0:
155,209,142695,2,0,P|122:173|167:131,1,110,6|2,3:2|3:2,0:0:0:0:
254,132,143146,1,14,0:0:0:0:
121,136,143371,1,2,3:2:0:0:
317,201,143587,6,0,L|450:201,1,110,6|0,3:2|3:0,0:0:0:0:
141,363,144041,2,0,L|8:363,1,110,14|2,0:0|3:2,0:0:0:0:
96,357,144382,1,2,0:2:0:0:
32,350,144496,2,0,L|17:273,1,55,6|0,3:2|0:0,0:0:0:0:
32,350,144732,1,2,3:2:0:0:
331,200,144968,2,0,L|471:201,1,110,14|2,0:0|3:2,0:0:0:0:
106,71,145440,6,0,L|228:70,2,110,14|2|6,0:0|3:2|3:2,0:0:0:0:
318,28,146116,1,10,0:0:0:0:
194,28,146327,2,0,L|194:149,1,110,6|2,3:2|3:2,0:0:0:0:
425,196,146781,2,0,L|285:196,1,110,14|2,0:0|3:2,0:0:0:0:
26,197,147236,5,6,3:2:0:0:
151,195,147477,1,8,0:0:0:0:
183,151,147586,1,10,0:0:0:0:
181,97,147695,1,10,0:0:0:0:
147,56,147805,1,10,0:0:0:0:
94,45,147914,1,2,3:2:0:0:
314,43,148162,2,0,L|376:43,1,55,10|8,0:2|0:0,0:0:0:0:
369,43,148385,2,0,L|314:43,1,55,2|2,3:2|3:2,0:0:0:0:
194,43,148609,2,0,L|323:43,1,110,10|2,0:0|3:2,0:0:0:0:
13,202,149057,6,0,L|136:202,2,110,6|0|14,3:1|3:0|0:0,0:0:0:0:
234,144,149741,2,0,L|338:144,1,55,2|10,3:2|0:0,0:0:0:0:
234,144,149969,2,0,L|154:144,2,55,6|0|2,3:2|0:0|3:2,0:0:0:0:
362,145,150425,2,0,L|363:285,1,110,14|2,0:0|3:2,0:0:0:0:
69,363,150882,6,0,L|199:363,1,110,6|0,3:2|3:0,0:0:0:0:
121,353,151221,1,0,0:0:0:0:
43,349,151334,2,0,L|43:231,1,110,14|2,0:0|3:2,0:0:0:0:
115,234,151674,1,10,0:0:0:0:
242,194,151787,2,0,L|56:192,1,165,6|0,3:2|0:0,0:0:0:0:
10,190,152240,1,14,0:0:0:0:
142,193,152466,1,2,3:2:0:0:
462,287,152693,6,0,L|315:286,1,110,6|0,3:2|3:0,0:0:0:0:
462,287,153132,1,14,0:0:0:0:
254,364,153357,2,0,L|253:294,1,55,2|10,3:2|3:2,0:0:0:0:
329,290,153583,2,0,L|462:291,1,110,6|2,3:2|3:2,0:0:0:0:
304,184,154046,2,0,L|162:184,1,110,14|2,0:0|3:2,0:0:0:0:
121,183,154384,1,2,0:0:0:0:
194,184,154497,5,6,3:2:0:0:
59,181,154731,2,0,L|46:107,1,55,0|0,3:0|0:0,0:0:0:0:
59,181,154965,1,14,0:0:0:0:
278,80,155192,2,0,L|356:80,1,55,2|2,3:2|3:2,0:0:0:0:
272,75,155419,2,0,L|131:73,1,110,6|2,3:2|3:2,0:0:0:0:
295,75,155890,1,14,0:0:0:0:
428,76,156117,1,2,3:2:0:0:
126,293,156349,6,0,L|-8:295,1,110,6|0,3:2|3:0,0:0:0:0:
77,284,156695,1,0,0:0:0:0:
143,280,156810,2,0,L|141:155,1,110,14|2,0:0|3:2,0:0:0:0:
361,128,157262,2,0,L|115:126,1,220,6|14,3:2|0:0,0:0:0:0:
344,85,157936,2,0,L|419:85,1,55,2|2,3:2|0:0,0:0:0:0:
341,34,158160,6,0,L|178:34,1,110,6|0,3:2|3:0,0:0:0:0:
341,34,158610,1,14,0:0:0:0:
341,34,158835,1,2,3:2:0:0:
130,201,159087,2,0,L|210:201,1,55,6|0,3:2|0:0,0:0:0:0:
247,200,159314,1,2,3:2:0:0:
25,358,159541,2,0,L|25:232,1,110,14|2,0:0|3:2,0:0:0:0:
361,251,159996,5,14,0:0:0:0:
408,226,160104,1,2,0:0:0:0:
426,175,160213,1,2,3:2:0:0:
403,126,160322,1,2,0:2:0:0:
353,106,160430,1,6,3:2:0:0:
143,103,160648,1,10,0:0:0:0:
197,103,160756,1,2,0:0:0:0:
252,103,160865,1,6,3:2:0:0:
307,103,160980,1,2,0:0:0:0:
362,103,161095,1,2,3:2:0:0:
139,193,161326,2,0,L|15:193,1,110,14|2,0:0|3:2,0:0:0:0:
339,332,161788,6,0,L|438:331,1,73.3333333333333,6|10,3:2|0:0,0:0:0:0:
339,332,162079,1,10,0:0:0:0:
236,332,162225,2,0,L|137:331,1,73.3333333333333,10|10,0:0|0:0,0:0:0:0:
236,332,162516,1,10,0:0:0:0:
466,257,162671,2,0,L|467:158,1,73.3333333333333,2|10,3:2|0:0,0:0:0:0:
403,180,162956,1,10,0:0:0:0:
157,181,163134,2,0,L|326:182,1,146.666666666667,10|6,0:3|0:3,0:0:0:0:
73,65,163595,6,0,P|155:357|88:47,1,1155.00004405976,6|0,0:1|0:0,0:0:0:0:
416,193,167217,5,6,3:2:0:0:
96,193,170885,5,6,3:2:0:0:
416,193,173423,1,0,3:0:0:0:
415,165,173477,1,0,3:0:0:0:
415,138,173532,1,0,3:0:0:0:
320,135,173623,1,8,0:0:0:0:
138,134,173967,1,8,0:3:0:0:
320,135,174312,1,4,0:3:0:0:
12,194,174542,5,6,3:2:0:0:
416,193,176080,1,0,3:0:0:0:
417,165,176134,1,0,3:0:0:0:
417,138,176190,1,0,3:0:0:0:
500,194,176300,5,6,3:2:0:0:
149,345,177003,2,0,L|75:346,1,55,8|8,0:0|0:0,0:0:0:0:
193,278,177207,1,8,0:0:0:0:
374,276,177569,1,8,0:3:0:0:
193,278,177909,1,4,0:3:0:0:
492,202,178137,1,4,3:2:0:0:
256,192,178364,12,0,182227,0:0:0:0:
