osu file format v14

[General]
AudioFilename: audio.mp3
AudioLeadIn: 0
PreviewTime: 119752
Countdown: 0
SampleSet: Soft
StackLeniency: 0
Mode: 2
LetterboxInBreaks: 0
WidescreenStoryboard: 1

[Editor]
DistanceSpacing: 1
BeatDivisor: 4
GridSize: 32
TimelineZoom: 1.2

[Metadata]
Title:The Fall
TitleUnicode:The Fall
Artist:Lovejoy
ArtistUnicode:Lovejoy
Creator:Crowley
Version:JEMZUU'S RAIN
Source:
Tags:Pebble Brain Indie Rock English Wilbur Soot Ash Kabosu Mark Boardman Joe Goldsmith Jemzuu AJamez -MomoX Nosuri Male Vocals
BeatmapID:3507255
BeatmapSetID:1621981

[Difficulty]
HPDrainRate:5
CircleSize:4.5
OverallDifficulty:8.8
ApproachRate:8.8
SliderMultiplier:2.4
SliderTickRate:1

[Events]
//Background and Video events
0,0,"@_6plus1.jpg",0,0
//Break Periods
//Storyboard Layer 0 (Background)
//Storyboard Layer 1 (Fail)
//Storyboard Layer 2 (Pass)
//Storyboard Layer 3 (Foreground)
//Storyboard Layer 4 (Overlay)
//Storyboard Sound Samples

[TimingPoints]
3611,454.545454545455,4,2,1,50,1,0
3667,-100,4,2,1,5,0,0
4063,-100,4,2,1,40,0,0
4518,-100,4,2,1,50,0,0
4576,-100,4,2,1,5,0,0
4861,-100,4,2,1,50,0,0
4919,-100,4,2,1,5,0,0
5201,-100,4,2,1,50,0,0
5259,-100,4,2,1,5,0,0
5654,-100,4,2,1,40,0,0
6336,-100,4,2,1,50,0,0
6395,-100,4,2,1,5,0,0
6792,-100,4,2,1,50,0,0
6850,-100,4,2,1,5,0,0
7247,-100,4,2,1,50,0,0
7305,-100,4,2,1,5,0,0
7699,-100,4,2,1,40,0,0
8154,-100,4,2,1,50,0,0
8213,-100,4,2,1,5,0,0
8497,-100,4,2,1,50,0,0
8555,-100,4,2,1,5,0,0
8838,-100,4,2,1,50,0,0
8896,-100,4,2,1,5,0,0
9290,-100,4,2,1,40,0,0
9972,-100,4,2,1,50,0,0
10031,-100,4,2,1,5,0,0
10429,-100,4,2,1,50,0,0
10487,-100,4,2,1,5,0,0
10883,-100,4,2,1,50,0,0
10940,-100,4,2,1,5,0,0
11336,-100,4,2,1,40,0,0
11791,-100,4,2,1,50,0,0
11849,-100,4,2,1,5,0,0
12133,-100,4,2,1,50,0,0
12191,-100,4,2,1,5,0,0
12474,-100,4,2,1,50,0,0
12532,-100,4,2,1,5,0,0
12927,-100,4,2,1,40,0,0
13597,454.545454545455,4,2,1,50,1,0
13597,-100,4,2,1,50,0,0
13653,-100,4,2,1,5,0,0
14051,-100,4,2,1,50,0,0
14108,-100,4,2,1,5,0,0
14506,454.545454545455,4,2,1,50,1,0
14562,-100,4,2,1,5,0,0
14960,-100,4,2,1,40,0,0
15415,-100,4,2,1,50,0,0
15471,-100,4,2,1,5,0,0
15756,-100,4,2,1,50,0,0
15812,-100,4,2,1,5,0,0
16096,-100,4,2,1,50,0,0
16152,-100,4,2,1,5,0,0
16551,-100,4,2,1,40,0,0
17245,500.000000000001,4,2,1,50,1,0
17307,-100,4,2,1,5,0,0
17495,-100,4,2,2,60,0,0
17721,500.000000000001,4,2,1,60,1,0
17783,-100,4,2,1,5,0,0
17994,500.000000000001,4,2,2,60,1,0
18209,454.545454545455,4,2,3,60,1,0
18209,-133.333333333333,4,2,3,60,0,0
18436,-133.333333333333,4,2,3,40,0,0
19118,441.176470588236,4,2,4,40,1,0
19118,-133.333333333333,4,2,4,40,0,0
20000,-133.333333333333,4,2,3,40,0,0
20882,-133.333333333333,4,2,1,40,0,0
21801,447.761194029851,4,2,3,60,1,0
22024,-100,4,2,3,40,0,0
22696,-133.333333333333,4,2,4,40,0,0
23592,-133.333333333333,4,2,3,40,0,0
23815,-133.333333333333,4,2,1,40,0,0
24039,468.75,4,2,3,40,1,0
24039,-133.333333333333,4,2,3,40,0,0
24273,-133.333333333333,4,2,1,40,0,0
24547,441.176470588235,4,2,4,40,1,0
24547,-133.333333333333,4,2,4,40,0,0
25208,-133.333333333333,4,2,3,40,0,0
25443,454.545454545454,4,2,3,60,1,0
25656,-100,4,2,3,40,0,0
25883,-133.333333333333,4,2,1,40,0,0
27454,458.015267175572,4,2,1,40,1,0
27454,-133.333333333333,4,2,4,40,0,0
27530,-133.333333333333,4,2,1,40,0,0
27683,-133.333333333333,4,2,3,40,0,0
28170,454.545454545454,4,2,4,40,1,0
28170,-133.333333333333,4,2,4,40,0,0
28269,-133.333333333333,4,2,1,40,0,0
28383,-133.333333333333,4,2,2,40,0,0
28610,-133.333333333333,4,2,3,40,0,0
29065,-133.333333333333,4,2,3,60,0,0
29092,454.545454545454,4,2,3,60,1,0
29553,454.545454545455,4,2,1,40,1,0
30916,447.761194029851,4,2,3,60,1,0
30916,-100,4,2,3,60,0,0
31139,-100,4,2,1,40,0,0
32030,458.015267175573,4,2,2,60,1,0
32259,-100,4,2,1,60,0,0
32717,454.545454545455,4,2,3,60,1,0
32944,-100,4,2,3,40,0,0
33626,-100,4,2,4,60,0,0
33682,-100,4,2,4,5,0,0
33967,-100,4,2,3,60,0,0
34023,-100,4,2,4,5,0,0
34080,-100,4,2,4,60,0,0
34364,-100,4,2,4,5,0,0
34421,-100,4,2,3,60,0,0
34762,-100,4,2,3,40,0,0
35444,-100,4,2,5,40,0,0
35557,-100,4,2,4,40,0,0
35671,-100,4,2,1,40,0,0
35785,-100,4,2,4,40,0,0
35898,-100,4,2,1,40,0,0
36126,-100,4,2,4,40,0,0
36239,-100,4,2,1,40,0,0
36353,-100,4,2,3,60,0,0
36580,-100,4,2,3,40,0,0
37262,-100,4,2,4,60,0,0
37319,-100,4,2,4,5,0,0
37603,-100,4,2,4,60,0,0
37660,-100,4,2,4,5,0,0
37944,-100,4,2,4,60,0,0
38001,-100,4,2,4,5,0,0
38398,-100,4,2,3,40,0,0
38626,-100,4,2,1,40,0,0
39080,-100,4,2,1,60,0,0
39137,-100,4,2,4,5,0,0
39307,-100,4,2,1,60,0,0
39592,-100,4,2,4,5,0,0
39762,-100,4,2,1,60,0,0
39989,-100,4,2,3,60,0,0
40217,-100,4,2,3,40,0,0
40898,-100,4,2,4,60,0,0
40955,-100,4,2,4,5,0,0
41012,-100,4,2,3,60,0,0
41239,-100,4,2,4,60,0,0
41296,-100,4,2,4,5,0,0
41580,-100,4,2,4,60,0,0
41637,-100,4,2,4,5,0,0
42035,-100,4,2,3,40,0,0
42489,-100,4,2,4,40,0,0
42565,-100,4,2,1,40,0,0
42717,-100,4,2,4,60,0,0
42773,-100,4,2,4,5,0,0
42831,-100,4,2,3,60,0,0
43171,-100,4,2,4,60,0,0
43228,-100,4,2,4,5,0,0
43398,-100,4,2,3,60,0,0
43853,-100,4,2,3,40,0,0
44535,-100,4,2,4,60,0,0
44592,-100,4,2,4,5,0,0
44876,-100,4,2,4,60,0,0
44932,-100,4,2,4,5,0,0
45217,-100,4,2,4,60,0,0
45273,-100,4,2,4,5,0,0
45671,-100,4,2,3,40,0,0
45898,-100,4,2,1,40,0,0
46126,-100,4,2,4,40,0,0
46201,-100,4,2,1,60,0,0
46410,-100,4,2,4,5,0,0
46580,-100,4,2,3,60,0,0
46807,-100,4,2,1,60,0,0
46864,-100,4,2,4,5,0,0
47035,-100,4,2,1,60,0,0
47262,-181.818181818181,4,2,3,30,0,0
50898,-166.165390684534,4,2,3,30,0,0
52035,-132.831923500097,4,2,3,30,0,0
52376,-173.850527812465,4,2,3,30,0,0
59989,-171.526586620926,4,2,3,30,0,0
61782,465.116279069768,4,2,6,60,1,0
63642,447.761194029851,4,2,6,60,1,0
65433,452.830188679246,4,2,6,60,1,0
67256,452.830188679246,4,2,6,60,1,0
73583,517.241379310346,4,2,6,60,1,0
73841,451.127819548873,4,2,6,60,1,0
74540,451.127819548873,4,2,6,60,1,1
74540,-90.9090909090909,4,2,6,60,0,1
75893,-66.6666666666667,4,2,6,60,0,1
76344,461.538461538462,4,2,7,60,1,0
76603,428.571428571429,4,2,8,60,1,0
76817,-100,4,2,7,60,0,0
77031,461.538461538462,4,2,8,60,1,0
77261,444.444444444445,4,2,7,60,1,0
77957,405.405405405406,4,2,8,60,1,0
78148,447.761194029851,4,2,7,60,1,0
78819,-100,4,2,8,60,0,0
79081,461.538461538462,4,2,7,60,1,0
79081,-100,4,2,7,60,0,0
79763,-100,4,2,8,60,0,0
79994,454.545454545455,4,2,7,60,1,0
80448,441.176470588236,4,2,7,60,1,0
80668,-100,4,2,8,60,0,0
80889,458.015267175573,4,2,7,60,1,0
81118,-100,4,2,8,60,0,0
81347,-100,4,2,7,60,0,0
81576,-100,4,2,8,60,0,0
81805,-100,4,2,7,60,0,0
82034,-100,4,2,8,60,0,0
82263,-100,4,2,7,60,0,0
82492,-100,4,2,8,60,0,0
82721,451.127819548873,4,2,7,60,1,0
83397,-100,4,2,8,60,0,0
83623,456.273764258556,4,2,7,60,1,0
85219,-100,4,2,8,60,0,0
85448,454.545454545455,4,2,7,60,1,0
85675,-100,4,2,8,60,0,0
85902,-100,4,2,7,60,0,0
86129,-100,4,2,8,60,0,0
86357,451.127819548873,4,2,7,60,1,0
87033,-100,4,2,8,60,0,0
87259,451.127819548873,4,2,7,60,1,0
88837,-100,4,2,8,60,0,0
89063,456.273764258556,4,2,7,60,1,0
89975,454.545454545455,4,2,7,60,1,0
90202,-100,4,2,8,60,0,0
90429,-100,4,2,7,60,0,0
90656,-100,4,2,8,60,0,0
90884,454.545454545455,4,2,7,60,1,0
91111,-100,4,2,8,60,0,0
91338,-100,4,2,7,60,0,0
91565,-100,4,2,8,60,0,0
91793,-100,4,2,7,60,0,0
92020,-100,4,2,8,60,0,0
92134,-100,4,2,7,60,0,0
92474,-100,4,2,8,60,0,0
92702,-100,4,2,7,60,0,0
92929,-100,4,2,8,60,0,0
93156,-100,4,2,7,60,0,0
93384,-100,4,2,8,60,0,0
93611,465.116279069768,4,2,7,60,1,0
93843,-100,4,2,8,60,0,0
93959,-100,4,2,7,60,0,0
94308,-100,4,2,8,60,0,0
94541,458.015267175573,4,2,7,60,1,0
94770,-100,4,2,8,60,0,0
94999,-100,4,2,7,60,0,0
95228,-100,4,2,8,60,0,0
95457,447.761194029851,4,2,7,60,1,0
95680,-100,4,2,8,60,0,0
95904,437.956204379563,4,2,7,60,1,0
96122,-100,4,2,8,60,0,0
96341,472.44094488189,4,2,7,60,1,0
97285,437.956204379563,4,2,7,60,1,0
97503,-100,4,2,8,60,0,0
97722,428.57142857143,4,2,7,60,1,0
97936,-100,4,2,8,60,0,0
98160,452.830188679246,4,2,7,60,1,0
98839,-100,4,2,8,60,0,0
99067,458.015267175573,4,2,7,60,1,0
99296,-100,4,2,8,60,0,0
99410,-100,4,2,7,60,0,0
99754,-100,4,2,8,60,0,0
99990,447.761194029851,4,2,7,60,1,0
100213,-100,4,2,8,60,0,0
100437,-100,4,2,7,60,0,0
100661,-100,4,2,8,60,0,0
100885,-100,4,2,7,60,0,0
101332,465.116279069768,4,2,7,60,1,0
101797,454.545454545455,4,2,7,60,1,0
102024,-100,4,2,8,60,0,0
102251,-100,4,2,7,60,0,0
102478,-100,4,2,8,60,0,0
102706,-100,4,2,7,60,0,0
103387,-100,4,2,8,60,0,0
103500,-100,4,2,7,60,0,0
103615,458.015267175573,4,2,7,60,1,0
103844,-100,4,2,8,60,0,0
103958,-100,4,2,7,60,0,0
104073,425.531914893617,4,2,7,60,1,0
104285,-100,4,2,8,60,0,0
104498,472.44094488189,4,2,7,60,1,0
105442,458.015267175573,4,2,7,50,1,0
105442,-100,4,2,7,50,0,0
109106,444.444444444445,4,2,7,50,1,0
109994,480.000000000001,4,2,7,50,1,0
110458,444.444444444445,4,2,7,50,1,0
110883,526.315789473685,4,2,7,50,1,0
111363,480.000000000001,4,2,7,50,1,0
111575,461.538461538462,4,2,7,50,1,0
112729,447.761194029851,4,2,7,50,1,0
114544,447.761194029851,4,2,7,50,1,0
116360,454.545454545455,4,2,7,50,1,0
118178,447.761194029851,4,2,7,50,1,0
119073,452.830188679246,4,2,7,50,1,0
119978,454.545454545455,4,2,9,70,1,1
121796,444.444444444445,4,2,9,70,1,1
122684,461.538461538462,4,2,9,70,1,1
123597,458.015267175573,4,2,9,70,1,1
126327,458.015267175573,4,2,9,70,1,1
127256,454.545454545455,4,2,9,70,1,1
128165,458.015267175573,4,2,9,70,1,1
129084,441.176470588236,4,2,9,70,1,1
130877,454.545454545455,4,2,9,70,1,1
132940,454.545454545455,4,2,9,70,1,1
133167,454.545454545455,4,2,9,70,1,1
133848,447.761194029851,4,2,9,70,1,1
134551,454.545454545455,4,2,9,70,1,1
135005,425.531914893617,4,2,9,70,1,1
135199,425.531914893617,4,2,9,70,1,1
135324,425.531914893617,4,2,9,70,1,1
135430,425.531914893617,4,2,9,70,1,1
135856,461.538461538462,4,2,9,70,1,1
136779,451.127819548873,4,2,9,70,1,1
138171,454.545454545455,4,2,9,70,1,1
139080,451.127819548872,4,2,9,70,1,1
139982,444.444444444445,4,2,9,70,1,1
140870,465.116279069768,4,2,9,70,1,1
141786,454.545454545455,4,2,9,70,1,1
142695,451.127819548872,4,2,9,70,1,1
143587,454.545454545455,4,2,9,70,1,1
144496,472.44094488189,4,2,9,70,1,1
145440,451.127819548872,4,2,9,70,1,1
146327,454.545454545455,4,2,9,70,1,1
147477,437.956204379563,4,2,9,70,1,1
148162,447.761194029851,4,2,9,70,1,1
149057,456.273764258555,4,2,9,70,1,1
150882,452.830188679245,4,2,9,70,1,1
152693,451.127819548872,4,2,9,70,1,1
153132,451.127819548872,4,2,9,70,1,1
154046,451.127819548872,4,2,9,70,1,1
154497,468.75,4,2,9,70,1,1
154965,454.545454545455,4,2,9,70,1,1
155890,454.545454545455,4,2,9,70,1,1
156349,461.538461538462,4,2,9,70,1,1
157262,449.438202247191,4,2,9,70,1,1
159087,454.545454545455,4,2,9,70,1,1
159996,434.782608695652,4,2,9,70,1,1
160865,461.538461538462,4,2,9,70,1,1
161788,437.956204379563,4,2,9,70,1,1
162671,428.571428571429,4,2,9,70,1,1
163134,447.761194029851,4,2,9,70,1,1
163595,454.545454545455,4,2,9,60,1,0
163595,-142.857142857143,4,2,9,60,0,0
167217,459.770114942529,4,2,7,50,1,0
167217,-41.6666666666667,4,2,7,50,0,0
167446,-41.6666666666667,4,2,7,5,0,0
170885,459.770114942529,4,2,7,50,1,0
170885,-41.6666666666667,4,2,7,50,0,0
171114,-41.6666666666667,4,2,7,5,0,0
173423,436.363636363637,4,2,7,50,1,0
173423,-100,4,2,7,50,0,0
173623,459.770114942529,4,2,7,50,1,0
174542,441.176470588235,4,2,7,50,1,0
174542,-41.6666666666667,4,2,7,50,0,0
174762,-41.6666666666667,4,2,7,5,0,0
176080,441.176470588235,4,2,7,50,1,0
176306,465.116279069768,4,2,7,50,1,0
176306,-41.6666666666667,4,2,7,50,0,0
176538,-41.6666666666667,4,2,7,5,0,0
177003,408.163265306123,4,2,7,50,1,0
177003,-100,4,2,7,50,0,0
177569,454.545454545455,4,2,7,50,1,0
178137,454.545454545455,4,2,7,50,1,0
179047,-100,4,2,7,40,0,0
179956,-100,4,2,7,30,0,0
180865,-100,4,2,7,20,0,0
181774,-100,4,2,7,10,0,0

[Colours]
Combo1 : 128,128,255
Combo2 : 255,128,128
Combo3 : 128,128,128
Combo4 : 255,0,0

[HitObjects]
262,218,3611,6,0,L|314:214,1,30,2|0,0:0|0:0,0:0:0:0:
74,250,4065,2,0,L|55:182,3,60,2|2|2|2,0:3|0:3|0:3|0:3,0:0:0:0:
149,131,4520,6,0,L|182:122,1,30,2|0,0:1|0:0,0:0:0:0:
375,37,4861,2,0,L|332:30,1,30,2|0,0:0|0:0,0:0:0:0:
131,41,5201,2,0,L|181:34,1,30,2|0,0:0|0:0,0:0:0:0:
453,185,5656,6,0,L|478:141,2,40,2|2|2,0:3|0:3|0:3,0:0:0:0:
409,124,5883,2,0,L|265:120,1,120,2|2,0:3|0:3,0:0:0:0:
115,101,6338,6,0,L|109:56,1,30,2|0,0:1|0:0,0:0:0:0:
371,57,6792,2,0,L|380:21,1,30,2|0,0:1|0:0,0:0:0:0:
23,222,7247,2,0,L|66:228,1,30,6|0,0:0|0:0,0:0:0:0:
266,283,7701,2,0,L|287:205,3,60,2|2|2|2,0:3|0:3|0:3|0:3,0:0:0:0:
394,179,8156,6,0,L|358:173,1,30,2|0,0:1|0:0,0:0:0:0:
190,82,8497,2,0,L|221:75,1,30,2|0,0:0|0:0,0:0:0:0:
414,42,8838,2,0,L|361:42,1,30,2|0,0:0|0:0,0:0:0:0:
106,180,9292,6,0,L|83:222,2,40,2|2|2,0:3|0:3|0:3,0:0:0:0:
156,169,9520,2,0,L|285:162,1,120,2|2,0:3|0:3,0:0:0:0:
447,203,9974,6,0,L|457:162,1,30,2|0,0:1|0:0,0:0:0:0:
241,323,10429,2,0,L|232:284,1,30,2|0,0:1|0:0,0:0:0:0:
17,200,10883,2,0,L|65:196,1,30,2|0,0:0|0:0,0:0:0:0:
252,184,11338,2,0,L|273:116,3,60,2|2|2|2,0:3|0:3|0:3|0:3,0:0:0:0:
373,69,11792,6,0,L|316:61,1,30,2|0,0:1|0:0,0:0:0:0:
153,29,12133,2,0,L|201:28,1,30,2|0,0:0|0:0,0:0:0:0:
386,186,12474,2,0,L|345:187,1,30,2|0,0:0|0:0,0:0:0:0:
76,229,12929,2,0,L|39:282,2,40,2|2|2,0:3|0:3|0:3,0:0:0:0:
128,215,13156,2,0,L|256:209,1,120,2|2,0:3|0:3,0:0:0:0:
408,235,13597,6,0,L|420:195,1,30,2|0,0:1|0:0,0:0:0:0:
134,107,14051,2,0,L|117:65,1,30,2|0,0:1|0:0,0:0:0:0:
476,38,14506,2,0,L|432:33,1,30,6|0,0:0|0:0,0:0:0:0:
182,166,14960,2,0,L|165:225,3,60,2|2|2|2,0:3|0:3|0:3|0:3,0:0:0:0:
269,261,15415,6,0,L|222:269,1,30,2|0,0:1|0:0,0:0:0:0:
48,318,15756,2,0,L|97:326,1,30,2|0,0:0|0:0,0:0:0:0:
286,352,16096,2,0,L|243:353,1,30,2|0,0:0|0:0,0:0:0:0:
53,192,16551,2,0,L|24:147,2,40,2|0|2,0:3|0:0|0:3,0:0:0:0:
109,215,16778,2,0,L|258:195,1,120,2|2,0:3|0:3,0:0:0:0:
402,192,17245,6,0,L|415:150,1,30,2|0,0:0|0:0,0:0:0:0:
266,121,17495,1,2,0:0:0:0:
92,109,17721,2,0,L|76:78,1,30,2|0,0:0|0:0,0:0:0:0:
204,31,17994,1,2,0:0:0:0:
494,66,18209,5,4,3:2:0:0:
259,172,18663,2,0,L|237:235,3,45.0000017166138,2|0|2|0,0:0|0:0|0:0|0:0,0:0:0:0:
151,236,19118,2,0,L|321:262,2,135.000005149841,2|2|2,0:0|0:0|0:0,0:0:0:0:
45,125,20220,6,0,L|14:90,2,30.0000011444092,0|0|0,0:0|0:0|0:0,0:0:0:0:
94,140,20441,2,0,L|200:124,1,90.0000034332277,0|2,0:0|0:0,0:0:0:0:
355,124,20882,5,2,0:1:0:0:
402,96,20993,1,2,0:3:0:0:
355,124,21103,1,2,0:3:0:0:
278,133,21213,1,2,0:3:0:0:
187,138,21323,1,2,0:1:0:0:
159,174,21434,1,2,0:3:0:0:
187,138,21544,1,2,0:3:0:0:
263,129,21654,1,2,0:3:0:0:
474,199,21801,5,4,3:2:0:0:
472,297,22248,2,0,L|432:228,3,60,2|0|2|0,0:0|0:0|0:0|0:0,0:0:0:0:
337,212,22696,2,0,L|177:187,2,135.000005149841,2|2|2,0:0|0:0|0:0,0:0:0:0:
138,331,23815,6,0,L|134:286,2,30.0000011444092,2|2|2,0:3|0:3|0:3,0:0:0:0:
128,255,24039,2,0,L|26:248,1,90.0000034332277,2|2,0:0|0:3,0:0:0:0:
201,218,24547,6,0,L|202:120,1,90.0000034332277,2|0,0:0|0:0,0:0:0:0:
346,129,24988,2,0,L|352:28,1,90.0000034332277,2|0,0:0|0:0,0:0:0:0:
55,74,25443,5,6,3:2:0:0:
52,157,25897,2,0,L|34:228,3,45.0000017166138,2|2|2|2,0:3|0:3|0:3|0:3,0:0:0:0:
159,228,26352,2,0,L|311:257,2,135.000005149841,2|2|2,0:1|0:0|0:0,0:0:0:0:
425,328,27454,2,0,L|448:292,2,30.0000011444092,2|2|2,2:3|0:3|0:3,0:0:0:0:
373,334,27683,2,0,L|271:345,1,90.0000034332277,2|2,0:0|0:0,0:0:0:0:
131,304,28170,6,0,L|179:278,1,45.0000017166138,2|2,0:0|0:3,0:0:0:0:
273,259,28397,1,2,0:0:0:0:
421,252,28624,2,0,L|426:156,1,90.0000034332277,2|2,0:0|0:0,0:0:0:0:
103,144,29092,5,4,3:2:0:0:
52,278,29553,2,0,L|26:215,3,60,2|2|2|2,0:3|0:3|0:3|0:3,0:0:0:0:
131,320,30007,2,0,L|305:235,2,180,2|2|2,0:1|0:0|0:0,0:0:0:0:
310,345,30916,6,0,L|439:320,1,120,4|2,3:2|0:3,0:0:0:0:
294,263,31363,1,2,0:3:0:0:
144,222,31587,2,0,L|121:182,2,40,2|2|2,0:3|0:3|0:3,0:0:0:0:
196,227,31811,1,2,0:1:0:0:
325,224,32030,1,2,0:0:0:0:
165,107,32259,2,0,L|39:88,1,120,2|0,0:1|0:0,0:0:0:0:
351,82,32717,5,4,3:2:0:0:
466,144,33171,2,0,L|477:280,1,120,2|2,0:0|0:0,0:0:0:0:
296,315,33626,6,0,L|289:371,1,30,2|0,0:0|0:0,0:0:0:0:
106,315,33967,2,0,L|92:262,1,30,2|0,0:0|0:0,0:0:0:0:
300,217,34307,2,0,L|346:218,1,30,2|0,0:0|0:0,0:0:0:0:
59,226,34762,2,0,L|48:91,1,120,2|2,0:0|0:0,0:0:0:0:
185,79,35217,1,2,0:0:0:0:
366,178,35444,5,2,0:0:0:0:
401,114,35557,1,2,0:3:0:0:
366,178,35671,1,2,0:3:0:0:
295,204,35785,1,2,0:3:0:0:
169,210,35898,1,2,0:1:0:0:
133,269,36012,1,2,0:3:0:0:
169,330,36126,1,2,0:3:0:0:
236,350,36239,1,2,0:3:0:0:
474,352,36353,5,6,3:2:0:0:
476,266,36807,2,0,L|485:196,3,60,2|0|2|0,0:0|0:0|0:0|0:0,0:0:0:0:
389,151,37262,6,0,L|349:148,1,30,2|0,0:0|0:0,0:0:0:0:
167,66,37603,2,0,L|218:68,1,30,2|0,0:0|0:0,0:0:0:0:
397,33,37944,2,0,L|358:31,1,30,2|0,0:0|0:0,0:0:0:0:
104,129,38398,2,0,L|102:264,1,120,2|2,0:0|0:3,0:0:0:0:
272,283,38853,2,0,L|292:248,2,40,2|2|2,0:3|0:3|0:3,0:0:0:0:
181,313,39080,6,0,L|140:315,1,30,2|0,0:0|0:0,0:0:0:0:
41,306,39307,1,2,0:3:0:0:
203,156,39535,2,0,L|244:158,1,30,2|0,0:0|0:0,0:0:0:0:
352,148,39762,1,2,0:3:0:0:
58,74,39989,5,4,3:2:0:0:
45,174,40444,2,0,L|30:256,3,60,2|0|2|0,0:0|0:0|0:0|0:0,0:0:0:0:
134,273,40898,6,0,L|186:287,1,30,2|0,0:0|0:0,0:0:0:0:
379,111,41239,2,0,L|339:100,1,30,2|0,0:0|0:0,0:0:0:0:
135,74,41580,2,0,L|174:78,1,30,2|0,0:0|0:0,0:0:0:0:
437,13,42035,2,0,L|453:169,1,120,2|2,0:0|0:0,0:0:0:0:
271,195,42489,2,0,L|240:241,2,40,2|2|2,0:3|0:3|0:3,0:0:0:0:
359,162,42717,6,0,L|317:162,1,30,2|0,0:0|0:0,0:0:0:0:
203,124,42944,1,0,0:0:0:0:
48,69,43171,2,0,L|89:62,1,30,2|0,0:0|0:0,0:0:0:0:
201,43,43398,1,2,0:0:0:0:
488,224,43626,5,4,3:2:0:0:
482,325,44080,2,0,L|453:251,3,60,2|0|2|0,0:0|0:0|0:0|0:0,0:0:0:0:
365,231,44535,6,0,L|325:228,1,30,2|0,0:0|0:0,0:0:0:0:
131,108,44876,2,0,L|180:94,1,30,2|0,0:0|0:0,0:0:0:0:
375,75,45217,2,0,L|332:72,1,30,2|0,0:0|0:0,0:0:0:0:
79,62,45671,2,0,L|66:188,1,120,2|2,0:0|0:3,0:0:0:0:
236,216,46126,2,0,L|273:157,2,40,2|2|2,0:3|0:3|0:3,0:0:0:0:
145,230,46353,6,0,L|105:235,1,30,2|0,0:0|0:0,0:0:0:0:
250,309,46580,1,2,0:0:0:0:
414,315,46807,2,0,L|455:310,1,30,2|0,0:0|0:0,0:0:0:0:
325,245,47035,1,2,0:3:0:0:
32,260,47262,6,0,P|321:77|152:369,1,924.000028198243,2|0,0:0|0:0,0:0:0:0:
414,26,50898,6,0,P|208:33|454:347,1,866.606457501803,2|2,0:0|0:3,0:0:0:0:
439,218,54080,1,2,0:1:0:0:
147,342,54535,6,0,P|2:173|322:288,1,966.347384308272,2|0,0:0|0:0,0:0:0:0:
36,333,58171,6,0,B|36:55|36:55|37:204,1,414.148878989259,2|0,0:0|0:0,0:0:0:0:
253,73,59989,6,0,B|253:366|253:366|251:236,1,419.760014219166,2|0,0:0|0:0,0:0:0:0:
494,38,61782,5,0,3:1:0:0:
243,79,62247,2,0,L|383:109,1,120,10|2,0:2|0:2,0:0:0:0:
182,196,62712,2,0,L|43:228,1,120,2|0,0:2|3:2,0:0:0:0:
257,320,63177,1,10,0:2:0:0:
300,205,63409,2,0,L|223:193,1,60,10|4,0:3|0:3,0:0:0:0:
128,195,63642,6,0,L|114:39,1,120,2|2,3:0|3:0,0:0:0:0:
310,100,64089,1,10,0:0:0:0:
343,18,64313,2,0,L|251:3,1,60,4|8,0:3|0:3,0:0:0:0:
178,21,64537,2,0,L|158:166,1,120,2|2,3:0|3:0,0:0:0:0:
352,169,64985,1,10,0:0:0:0:
381,282,65209,1,0,3:0:0:0:
93,336,65433,5,0,3:1:0:0:
32,143,65885,2,0,L|181:106,1,120,10|2,0:2|0:2,0:0:0:0:
305,59,66338,2,0,L|150:41,1,120,2|0,0:2|3:2,0:0:0:0:
357,142,66791,1,10,0:2:0:0:
396,238,67017,2,0,L|319:257,1,60,10|4,0:3|0:3,0:0:0:0:
236,279,67256,6,0,L|223:124,1,120,2|2,3:0|3:0,0:0:0:0:
403,130,67708,1,10,0:0:0:0:
442,32,67935,2,0,L|377:28,1,60,4|8,0:3|0:3,0:0:0:0:
268,46,68161,2,0,L|254:192,1,120,2|2,3:0|3:0,0:0:0:0:
69,223,68614,2,0,L|221:276,1,120,10|0,0:0|3:0,0:0:0:0:
488,301,69067,5,0,3:1:0:0:
487,124,69520,2,0,L|331:103,1,120,10|2,0:2|0:2,0:0:0:0:
210,47,69972,2,0,L|349:29,1,120,2|0,0:2|3:2,0:0:0:0:
148,124,70425,1,10,0:2:0:0:
89,235,70652,2,0,L|168:259,1,60,10|4,0:3|0:3,0:0:0:0:
260,275,70878,6,0,L|274:135,1,120,2|2,3:0|3:0,0:0:0:0:
85,128,71331,1,10,0:0:0:0:
30,49,71557,2,0,L|114:38,1,60,4|8,0:3|0:3,0:0:0:0:
210,58,71784,2,0,L|230:212,1,120,2|2,3:0|3:0,0:0:0:0:
396,211,72237,1,10,0:0:0:0:
459,296,72463,2,0,L|390:321,1,60,8|4,3:0|0:3,0:0:0:0:
164,351,72689,5,0,3:1:0:0:
26,200,73142,2,0,L|194:151,1,120,10|2,0:2|0:2,0:0:0:0:
302,106,73583,2,0,L|148:82,1,120,2|0,0:2|3:2,0:0:0:0:
363,28,74066,1,10,0:2:0:0:
415,149,74292,2,0,L|336:173,1,60,10|4,0:3|0:3,0:0:0:0:
130,264,74540,6,0,L|117:121,1,132.00000402832,2|2,3:0|3:0,0:0:0:0:
342,140,74991,1,10,0:0:0:0:
425,35,75216,2,0,L|334:43,1,66.0000020141602,10|8,0:3|0:0,0:0:0:0:
114,46,75442,2,0,L|247:143,1,132.00000402832,10|10,0:0|0:0,0:0:0:0:
416,149,75893,1,10,3:2:0:0:
102,227,76118,1,10,3:2:0:0:
452,276,76344,5,4,3:2:0:0:
457,184,76603,1,2,0:0:0:0:
290,194,76817,1,10,0:0:0:0:
288,84,77031,1,2,0:0:0:0:
115,60,77261,5,2,3:2:0:0:
286,32,77483,2,0,L|198:31,1,60,2|2,0:3|0:0,0:0:0:0:
114,89,77705,1,8,0:0:0:0:
101,193,77957,1,2,0:0:0:0:
281,222,78148,5,2,3:2:0:0:
175,298,78371,1,2,0:3:0:0:
18,208,78595,1,10,0:0:0:0:
137,162,78819,1,2,0:0:0:0:
347,174,79081,5,0,3:0:0:0:
357,42,79311,1,2,0:3:0:0:
152,120,79542,1,8,0:0:0:0:
137,253,79773,1,2,0:0:0:0:
452,307,79994,5,2,3:2:0:0:
451,202,80221,1,2,0:3:0:0:
296,168,80448,1,8,0:0:0:0:
455,109,80668,1,2,0:0:0:0:
286,273,80889,5,0,3:2:0:0:
277,136,81118,1,2,0:0:0:0:
205,96,81232,1,0,0:0:0:0:
105,80,81347,1,8,0:0:0:0:
276,28,81576,1,2,0:0:0:0:
94,56,81805,5,2,3:2:0:0:
77,169,82034,1,2,0:0:0:0:
241,163,82263,1,10,0:2:0:0:
254,275,82492,1,2,0:0:0:0:
422,324,82721,5,2,3:2:0:0:
288,358,82946,1,2,0:3:0:0:
87,303,83172,1,10,0:0:0:0:
207,259,83397,1,2,0:0:0:0:
499,217,83623,5,6,3:2:0:0:
475,108,83851,1,0,0:0:0:0:
303,164,84079,1,8,0:0:0:0:
325,47,84307,1,2,0:3:0:0:
154,50,84535,5,2,3:2:0:0:
327,155,84763,2,0,L|248:183,1,60,2|2,0:3|0:0,0:0:0:0:
150,184,84991,1,8,0:0:0:0:
138,311,85219,1,2,0:0:0:0:
303,332,85448,5,0,3:2:0:0:
166,341,85675,1,2,0:0:0:0:
14,243,85902,1,10,0:0:0:0:
145,206,86129,1,2,0:0:0:0:
334,211,86357,5,2,3:2:0:0:
345,93,86582,1,2,0:3:0:0:
153,102,86808,1,10,0:0:0:0:
143,21,87033,1,2,0:0:0:0:
432,84,87259,5,2,3:2:0:0:
445,200,87484,1,2,0:3:0:0:
279,185,87710,1,8,0:0:0:0:
269,297,87935,1,2,3:3:0:0:
196,322,88048,1,8,0:0:0:0:
421,351,88161,5,2,3:2:0:0:
489,273,88386,1,2,0:3:0:0:
424,237,88499,1,2,0:0:0:0:
318,214,88612,1,8,0:0:0:0:
482,157,88837,1,2,0:0:0:0:
306,131,89063,5,0,3:0:0:0:
294,33,89291,1,2,0:3:0:0:
125,84,89519,1,10,0:0:0:0:
277,173,89747,1,2,0:3:0:0:
341,186,89861,1,10,0:0:0:0:
121,274,89975,6,0,L|45:282,2,60,2|2|12,3:2|3:2|0:0,0:0:0:0:
290,312,90429,1,2,3:2:0:0:
109,372,90656,1,12,0:0:0:0:
439,362,90884,6,0,L|452:233,1,120,4|2,3:2|0:0,0:0:0:0:
282,224,91338,2,0,L|268:98,1,120,10|2,0:0|0:0,0:0:0:0:
448,68,91793,2,0,L|314:44,1,120,2|2,3:2|0:0,0:0:0:0:
238,32,92134,1,2,0:0:0:0:
330,109,92247,1,8,0:0:0:0:
176,176,92474,1,2,0:0:0:0:
15,243,92702,6,0,L|164:266,1,120,0|2,3:0|0:0,0:0:0:0:
291,331,93156,2,0,L|140:363,1,120,10|2,0:0|0:0,0:0:0:0:
340,372,93611,2,0,L|348:233,1,120,2|2,3:2|0:0,0:0:0:0:
163,245,94076,2,0,L|150:118,1,120,8|2,0:0|0:0,0:0:0:0:
444,159,94541,5,0,3:0:0:0:
456,275,94770,1,2,0:0:0:0:
286,317,94999,2,0,L|445:329,1,120,10|2,0:0|0:0,0:0:0:0:
221,367,95457,2,0,L|205:227,1,120,2|2,3:2|0:0,0:0:0:0:
286,211,95792,1,0,0:0:0:0:
379,199,95904,1,10,0:0:0:0:
232,131,96122,1,2,0:0:0:0:
67,167,96341,5,0,3:0:0:0:
62,72,96577,1,2,0:3:0:0:
221,126,96813,1,8,0:0:0:0:
226,28,97049,2,0,L|301:19,1,60,2|8,0:3|0:0,0:0:0:0:
499,209,97285,6,0,L|374:237,1,120,8|6,0:0|3:2,0:0:0:0:
205,290,97722,1,8,0:0:0:0:
386,351,97936,1,6,3:2:0:0:
78,361,98160,6,0,L|62:227,1,120,4|2,3:2|0:3,0:0:0:0:
232,148,98612,2,0,L|85:135,1,120,10|2,0:0|0:0,0:0:0:0:
289,242,99067,2,0,L|413:215,1,120,2|2,3:2|0:0,0:0:0:0:
325,162,99410,1,2,0:0:0:0:
234,148,99525,1,8,0:0:0:0:
393,85,99754,1,2,0:0:0:0:
226,235,99990,6,0,L|210:102,1,120,0|2,3:2|0:0,0:0:0:0:
50,87,100437,2,0,L|183:64,1,120,10|2,0:0|0:0,0:0:0:0:
339,204,100885,2,0,L|193:246,1,120,2|2,3:2|0:3,0:0:0:0:
388,304,101332,2,0,L|507:332,1,120,8|2,0:0|0:3,0:0:0:0:
435,353,101680,1,0,0:0:0:0:
224,368,101797,6,0,L|212:226,1,120,0|2,3:0|0:0,0:0:0:0:
379,235,102251,2,0,L|390:104,1,120,10|2,0:0|0:0,0:0:0:0:
219,79,102706,2,0,L|362:66,1,120,2|2,3:2|0:3,0:0:0:0:
427,83,103047,1,2,0:0:0:0:
341,121,103160,1,8,0:0:0:0:
183,149,103387,1,10,0:0:0:0:
374,242,103615,6,0,L|255:264,1,120,2|2,3:2|0:0,0:0:0:0:
86,288,104073,1,8,0:0:0:0:
260,351,104285,1,2,0:0:0:0:
63,360,104498,2,0,L|25:303,2,60,2|2|2,3:2|0:0|0:0,0:0:0:0:
233,279,104970,1,8,0:0:0:0:
55,213,105206,1,0,3:0:0:0:
378,167,105442,5,4,3:2:0:0:
489,66,105900,2,0,L|363:51,1,120,10|2,0:0|0:0,0:0:0:0:
221,98,106358,2,0,L|213:247,1,120,2|0,0:0|3:0,0:0:0:0:
62,271,106816,2,0,L|191:281,1,120,8|2,0:0|0:0,0:0:0:0:
345,302,107274,6,0,L|357:149,1,120,0|2,0:0|3:2,0:0:0:0:
175,118,107732,2,0,L|301:103,1,120,8|0,0:0|0:0,0:0:0:0:
461,113,108190,2,0,L|473:241,1,120,0|0,0:0|3:0,0:0:0:0:
304,279,108648,1,8,0:0:0:0:
473,320,108877,1,0,3:0:0:0:
154,349,109106,6,0,L|26:333,1,120,0|0,3:0|0:0,0:0:0:0:
197,284,109550,2,0,L|202:132,1,120,10|2,0:0|0:0,0:0:0:0:
357,119,109994,2,0,L|203:97,1,120,2|0,0:0|3:0,0:0:0:0:
71,53,110458,2,0,L|201:37,1,120,10|0,0:0|0:0,0:0:0:0:
347,73,110883,6,0,L|357:201,1,120,0|2,0:0|0:0,0:0:0:0:
193,210,111363,1,8,0:0:0:0:
174,329,111575,1,0,3:0:0:0:
345,354,111805,1,0,0:0:0:0:
369,240,112036,1,0,3:0:0:0:
211,198,112267,1,8,0:0:0:0:
52,167,112498,1,0,3:0:0:0:
353,211,112729,6,0,P|361:149|211:67,1,240,4|8,3:2|0:0,0:0:0:0:
72,62,113400,2,0,L|157:31,1,60,2|0,0:0|0:0,0:0:0:0:
231,71,113624,2,0,L|241:196,1,120,2|0,0:0|3:0,0:0:0:0:
401,188,114072,2,0,L|428:328,1,120,8|2,0:0|0:0,0:0:0:0:
241,349,114544,6,0,L|102:323,1,120,0|0,0:0|3:0,0:0:0:0:
285,258,114991,2,0,L|452:232,1,120,8|0,0:0|0:0,0:0:0:0:
228,253,115439,2,0,L|215:98,1,120,2|0,0:0|3:0,0:0:0:0:
408,153,115887,2,0,L|430:28,1,120,8|0,0:0|0:0,0:0:0:0:
120,44,116360,6,0,L|382:71,1,240,4|8,3:2|0:0,0:0:0:0:
252,126,117041,1,8,0:0:0:0:
366,184,117269,1,8,0:0:0:0:
206,218,117496,1,8,0:0:0:0:
377,311,117723,1,8,0:0:0:0:
169,320,117950,1,8,0:0:0:0:
488,335,118178,5,8,0:0:0:0:
334,336,118401,1,8,0:0:0:0:
160,256,118625,1,8,0:0:0:0:
341,208,118849,1,8,0:0:0:0:
24,204,119073,5,10,0:0:0:0:
60,91,119299,2,0,L|144:68,1,60,0|0,3:0|3:0,0:0:0:0:
335,122,119525,1,8,0:0:0:0:
169,149,119752,1,0,3:0:0:0:
482,53,119978,6,0,L|494:198,1,120,6|0,3:1|3:0,0:0:0:0:
199,264,120432,2,0,L|334:269,1,120,14|2,0:0|3:2,0:0:0:0:
243,309,120773,1,2,0:0:0:0:
322,342,120887,1,6,3:2:0:0:
404,352,121000,1,2,0:0:0:0:
322,342,121114,1,2,3:2:0:0:
38,168,121341,6,0,L|195:141,1,120,14|2,0:0|3:2,0:0:0:0:
242,127,121682,1,2,0:0:0:0:
148,71,121796,1,6,3:2:0:0:
308,35,122018,1,0,3:0:0:0:
483,148,122240,6,0,L|328:181,1,120,14|2,0:0|3:2,0:0:0:0:
194,207,122684,2,0,L|265:269,1,60,6|2,3:2|0:0,0:0:0:0:
321,242,122914,1,2,3:2:0:0:
483,287,123145,1,14,0:0:0:0:
343,361,123376,2,0,L|249:372,1,60,2|2,3:2|0:0,0:0:0:0:
41,303,123597,6,0,L|22:131,1,120,6|0,3:2|3:0,0:0:0:0:
312,116,124055,2,0,L|150:108,1,120,14|2,0:0|3:2,0:0:0:0:
272,78,124398,1,2,3:2:0:0:
182,131,124513,1,6,3:2:0:0:
151,194,124627,1,2,0:0:0:0:
186,255,124742,1,2,3:2:0:0:
257,280,124856,1,0,0:0:0:0:
473,329,124971,6,0,L|477:180,1,120,14|2,0:0|3:2,0:0:0:0:
306,175,125429,2,0,L|433:158,1,120,6|0,3:2|3:0,0:0:0:0:
138,103,125887,2,0,L|-10:74,1,120,14|2,0:0|3:2,0:0:0:0:
88,63,126230,1,2,3:2:0:0:
304,64,126327,6,0,L|169:86,1,120,6|2,3:2|3:2,0:0:0:0:
472,215,126785,2,0,L|483:87,1,120,14|2,0:0|3:2,0:0:0:0:
411,88,127128,1,2,0:0:0:0:
195,244,127256,6,0,L|338:255,1,120,6|0,3:2|3:0,0:0:0:0:
141,329,127710,2,0,L|11:327,1,120,14|2,0:0|3:2,0:0:0:0:
92,289,128051,1,8,3:2:0:0:
308,215,128165,6,0,L|151:198,1,120,6|2,3:2|3:2,0:0:0:0:
357,141,128623,2,0,L|485:138,1,120,14|2,0:0|3:2,0:0:0:0:
413,109,128966,1,2,0:0:0:0:
180,151,129084,6,0,L|172:13,1,120,6|0,3:2|3:0,0:0:0:0:
348,49,129525,2,0,L|208:84,1,120,14|2,0:0|3:2,0:0:0:0:
157,82,129856,1,2,0:2:0:0:
384,180,129966,1,6,3:2:0:0:
449,194,130076,1,2,0:0:0:0:
381,218,130186,1,2,3:2:0:0:
212,267,130407,1,14,0:0:0:0:
386,322,130628,2,0,L|451:329,1,60,2|2,3:2|0:0,0:0:0:0:
231,363,130877,6,0,L|64:318,1,120,14|2,0:0|3:2,0:0:0:0:
297,285,131331,1,6,3:2:0:0:
8,183,131558,2,0,L|161:148,1,120,10|6,0:0|3:2,0:0:0:0:
291,145,132013,1,2,3:2:0:0:
95,72,132240,2,0,L|259:47,1,120,14|2,0:0|3:2,0:0:0:0:
282,45,132581,1,2,3:2:0:0:
487,149,132695,5,6,3:2:0:0:
473,268,132940,2,0,L|394:286,1,60,10|10,0:0|0:0,0:0:0:0:
199,348,133167,2,0,L|260:342,1,60,10|10,0:0|0:0,0:0:0:0:
362,343,133394,1,14,0:0:0:0:
69,272,133621,5,6,3:2:0:0:
25,178,133848,2,0,L|109:157,1,60,10|10,0:0|0:0,0:0:0:0:
292,106,134071,2,0,L|199:100,1,60,10|10,0:0|0:0,0:0:0:0:
129,49,134295,2,0,L|213:37,1,60,10|10,0:0|0:0,0:0:0:0:
450,82,134551,6,0,L|472:245,1,120,6|0,3:1|3:0,0:0:0:0:
168,244,135005,1,14,0:0:0:0:
318,279,135199,1,2,3:2:0:0:
244,320,135324,1,10,0:0:0:0:
40,335,135430,6,0,L|27:190,1,120,6|2,3:2|3:2,0:0:0:0:
308,157,135856,2,0,L|179:142,1,120,14|2,0:0|3:2,0:0:0:0:
120,132,136202,1,10,0:0:0:0:
347,67,136317,2,0,L|504:56,1,120,6|0,3:2|3:0,0:0:0:0:
181,266,136779,6,0,L|168:117,1,120,14|2,0:0|3:2,0:0:0:0:
339,125,137230,1,6,3:2:0:0:
161,64,137455,1,2,3:2:0:0:
445,47,137681,2,0,L|459:218,1,120,14|2,0:0|3:2,0:0:0:0:
387,191,138019,1,2,3:2:0:0:
134,269,138171,6,0,L|271:295,1,120,6|0,3:2|3:0,0:0:0:0:
72,361,138625,2,0,L|61:228,1,120,14|2,0:0|3:2,0:0:0:0:
135,219,138966,1,10,3:2:0:0:
346,138,139080,2,0,L|189:132,1,120,6|2,3:2|3:2,0:0:0:0:
389,226,139531,2,0,L|530:218,1,120,14|2,0:0|3:2,0:0:0:0:
197,349,139982,6,0,L|186:219,1,120,6|0,3:2|3:0,0:0:0:0:
363,182,140426,2,0,L|215:157,1,120,14|2,0:0|3:2,0:0:0:0:
178,153,140759,1,2,3:2:0:0:
368,72,140870,2,0,L|525:55,1,120,6|2,3:2|3:2,0:0:0:0:
191,54,141335,1,14,0:0:0:0:
339,148,141567,2,0,L|242:161,1,60,2|2,3:2|0:0,0:0:0:0:
65,224,141786,6,0,L|48:88,1,120,6|0,3:2|3:0,0:0:0:0:
217,55,142240,2,0,L|75:46,1,120,14|2,0:0|3:2,0:0:0:0:
170,24,142581,1,8,3:2:0:0:
368,141,142695,2,0,L|498:130,1,120,6|2,3:2|3:2,0:0:0:0:
314,226,143146,2,0,L|449:222,1,120,14|2,0:0|3:2,0:0:0:0:
142,317,143587,6,0,L|5:290,1,120,6|0,3:2|3:0,0:0:0:0:
209,253,144041,1,14,0:2:0:0:
25,293,144268,2,0,L|101:284,1,60,2|2,3:2|0:2,0:2:0:0:
356,164,144496,6,0,L|505:146,1,120,6|2,3:2|3:2,0:0:0:0:
174,80,144968,1,14,0:0:0:0:
328,66,145204,1,2,3:2:0:0:
26,251,145440,6,0,L|21:130,1,120,14|2,0:0|3:2,0:0:0:0:
173,96,145891,1,6,3:2:0:0:
373,186,146116,1,10,0:0:0:0:
239,220,146327,1,6,3:2:0:0:
86,224,146554,1,2,3:2:0:0:
397,290,146781,6,0,L|229:330,1,120,14|2,0:0|3:2,0:0:0:0:
117,325,147236,1,6,3:2:0:0:
446,358,147477,2,0,L|481:297,1,60,10|10,0:0|0:0,0:0:0:0:
432,236,147695,2,0,L|354:233,1,60,10|10,0:0|0:0,0:0:0:0:
157,185,147914,5,2,3:2:0:0:
304,90,148162,2,0,L|207:91,1,60,10|8,0:2|0:0,0:0:0:0:
146,36,148385,2,0,L|239:22,1,60,2|2,3:2|3:2,0:0:0:0:
437,53,148609,2,0,L|452:192,1,120,10|2,0:0|3:2,0:0:0:0:
377,190,148945,1,2,3:2:0:0:
147,268,149057,6,0,L|305:297,1,120,6|0,3:1|3:0,0:0:0:0:
80,346,149513,2,0,L|70:216,1,120,14|2,0:0|3:2,0:0:0:0:
141,203,149855,1,10,0:0:0:0:
360,137,149969,2,0,L|231:110,1,120,6|2,3:2|3:2,0:0:0:0:
68,60,150425,2,0,L|194:40,1,120,14|2,0:0|3:2,0:0:0:0:
502,253,150882,6,0,L|328:276,1,120,6|0,3:2|3:0,0:0:0:0:
234,293,151334,1,14,0:0:0:0:
381,315,151561,2,0,L|463:316,1,60,2|10,3:2|0:0,0:0:0:0:
207,367,151787,2,0,L|31:347,1,120,6|2,3:2|3:2,0:0:0:0:
277,212,152240,2,0,L|436:206,1,120,14|2,0:0|3:2,0:0:0:0:
63,228,152693,6,0,L|48:80,1,120,6|0,3:2|3:0,0:0:0:0:
207,81,153132,1,14,0:0:0:0:
45,55,153357,2,0,L|140:35,1,60,2|10,3:2|3:2,0:0:0:0:
316,163,153583,2,0,L|165:184,1,120,6|2,3:2|3:2,0:0:0:0:
373,253,154046,2,0,L|514:266,1,120,14|2,0:0|3:2,0:0:0:0:
189,344,154497,6,0,L|177:196,1,120,6|0,3:2|3:0,0:0:0:0:
252,197,154848,1,0,0:0:0:0:
466,185,154965,2,0,L|478:55,1,120,14|2,0:0|3:2,0:0:0:0:
303,41,155419,2,0,L|451:41,1,120,6|2,3:2|3:2,0:0:0:0:
95,106,155890,2,0,L|76:238,1,120,14|2,0:0|3:2,0:0:0:0:
145,243,156230,1,2,3:2:0:0:
358,309,156349,6,0,L|212:324,1,120,6|0,3:2|3:0,0:0:0:0:
414,368,156810,2,0,L|423:237,1,120,14|2,0:0|3:2,0:0:0:0:
135,167,157262,2,0,L|207:136,1,60,6|2,3:2|0:0,0:0:0:0:
279,128,157486,1,2,3:2:0:0:
449,70,157711,6,0,L|300:64,1,120,14|2,0:0|3:2,0:0:0:0:
259,60,158048,1,2,0:0:0:0:
47,206,158160,2,0,L|25:81,1,120,6|0,3:2|3:0,0:0:0:0:
199,144,158610,2,0,L|59:136,1,120,14|2,0:0|3:2,0:0:0:0:
396,248,159087,6,0,L|478:251,2,60,6|0|2,3:2|0:0|3:2,0:0:0:0:
208,277,159541,1,14,0:0:0:0:
496,346,159768,1,2,3:2:0:0:
159,358,159996,6,0,L|134:290,1,60,14|2,0:0|0:0,0:0:0:0:
222,224,160213,2,0,L|302:201,1,60,2|2,3:2|0:2,0:0:0:0:
374,190,160430,1,6,3:2:0:0:
65,200,160648,6,0,L|36:122,1,60,10|2,0:0|0:0,0:0:0:0:
132,100,160865,2,0,L|219:79,1,60,6|2,3:2|0:0,0:0:0:0:
99,43,161095,1,2,3:2:0:0:
384,73,161326,2,0,L|305:107,1,60,14|0,0:0|0:0,0:0:0:0:
228,128,161557,2,0,L|295:150,1,60,2|2,3:2|0:0,0:0:0:0:
500,224,161788,5,6,3:2:0:0:
443,284,161933,1,10,0:0:0:0:
352,304,162079,1,10,0:0:0:0:
143,361,162225,1,14,0:0:0:0:
227,320,162371,1,10,0:0:0:0:
339,310,162517,1,10,0:0:0:0:
85,266,162671,5,6,3:2:0:0:
179,224,162813,1,10,0:0:0:0:
80,190,162956,1,10,0:0:0:0:
356,153,163134,1,10,0:3:0:0:
256,139,163283,1,6,0:3:0:0:
362,117,163432,1,6,0:3:0:0:
77,69,163595,6,0,P|159:361|92:51,1,1175.99996411133,6|0,0:1|0:0,0:0:0:0:
449,176,167217,5,6,3:2:0:0:
12,220,170885,1,6,3:2:0:0:
384,253,173423,2,0,L|415:214,2,30,0|0|0,3:0|3:0|3:0,0:0:0:0:
148,319,173623,5,8,0:0:0:0:
364,340,173967,1,8,0:3:0:0:
146,352,174312,1,4,0:3:0:0:
477,174,174542,5,6,3:2:0:0:
47,156,176080,2,0,L|19:108,2,30,0|0|0,3:0|3:0|3:0,0:0:0:0:
336,244,176306,5,6,3:2:0:0:
456,167,177003,2,0,L|375:150,1,60,8|8,0:0|0:0,0:0:0:0:
156,138,177207,1,8,0:0:0:0:
337,64,177569,1,8,0:3:0:0:
119,40,177909,1,4,0:3:0:0:
469,202,178137,5,4,3:2:0:0:
256,192,178364,12,0,182228,0:0:0:0:
