osu file format v14

[General]
AudioFilename: audio.mp3
AudioLeadIn: 0
PreviewTime: 79211
Countdown: 0
SampleSet: Soft
StackLeniency: 0.7
Mode: 2
LetterboxInBreaks: 0
WidescreenStoryboard: 1

[Editor]
DistanceSpacing: 1.1
BeatDivisor: 4
GridSize: 32
TimelineZoom: 1.4

[Metadata]
Title:Sex Sells
TitleUnicode:Sex Sells
Artist:Lovejoy
ArtistUnicode:Lovejoy
Creator:Crowley
Version:loved yet lonely
Source:
Tags:Are You Alright? Wilbur Soot Joe Goldsmith Mark Boardman Ash Kabosu LVJY English Indie Rock midorijeon Male Vocals
BeatmapID:3013531
BeatmapSetID:1467467

[Difficulty]
HPDrainRate:5
CircleSize:4
OverallDifficulty:8.6
ApproachRate:8.6
SliderMultiplier:2.1
SliderTickRate:2

[Events]
//Background and Video events
0,0,"94504995_p0.jpg",0,0
//Break Periods
2,161598,170594
//Storyboard Layer 0 (Background)
//Storyboard Layer 1 (Fail)
//Storyboard Layer 2 (Pass)
//Storyboard Layer 3 (Foreground)
//Storyboard Layer 4 (Overlay)
//Storyboard Sound Samples

[TimingPoints]
503,410.958904109589,4,2,1,75,1,0
605,-100,4,2,21,75,0,0
913,-100,4,2,8,75,0,0
1119,-100,4,2,2,75,0,0
1324,-100,4,2,8,75,0,0
1427,-100,4,2,2,75,0,0
1735,402.684563758389,4,2,8,75,1,0
1835,-100,4,2,2,75,0,0
2137,416.666666666667,4,2,8,75,1,0
2241,-100,4,2,2,75,0,0
2553,410.958904109589,4,2,8,75,1,0
2655,-100,4,2,2,75,0,0
2963,-100,4,2,8,75,0,0
3169,-100,4,2,2,75,0,0
3374,-100,4,2,8,75,0,0
3477,-100,4,2,2,75,0,0
3785,413.793103448276,4,2,8,75,1,0
3888,-100,4,2,2,75,0,0
4198,-100,4,2,8,75,0,0
4405,-100,4,2,2,75,0,0
4509,-100,4,2,22,75,0,0
4716,-100,4,2,2,75,0,0
5026,-100,4,2,8,75,0,0
5233,-97.0873786407767,4,2,2,75,0,0
5336,-97.0873786407767,4,2,22,75,0,0
5440,389.61038961039,4,2,22,75,1,0
5537,-100,4,2,2,75,0,0
5829,419.58041958042,4,2,8,75,1,0
5933,-100,4,2,2,75,0,0
6038,-100,4,2,9,75,0,0
6143,-100,4,2,8,75,0,0
6248,-100,4,2,9,75,0,0
6353,-100,4,2,8,75,0,0
6458,405.405405405406,4,2,8,75,1,0
6659,405.405405405406,4,2,8,75,1,0
6861,-100,4,2,12,75,0,0
7066,412.371134020619,4,2,2,75,1,0
7169,-100,4,2,21,75,0,0
7478,-100,4,2,8,75,0,0
7684,-100,4,2,2,75,0,0
7787,-100,4,2,22,75,0,0
7993,-100,4,2,2,75,0,0
8303,-100,4,2,8,75,0,0
8509,-100,4,2,2,75,0,0
8715,408.163265306123,4,2,8,75,1,0
8919,-100,4,2,2,75,0,0
9123,-100,4,2,8,75,0,0
9327,-100,4,2,2,75,0,0
9531,-100,4,2,8,75,0,0
9633,-100,4,2,2,75,0,0
9939,-100,4,2,8,75,0,0
10347,406.77966101695,4,2,8,75,1,0
10448,-100,4,2,21,75,0,0
10753,-100,4,2,8,75,0,0
10957,-101.010101010101,4,2,2,75,0,0
11058,-101.010101010101,4,2,22,75,0,0
11160,419.58041958042,4,2,22,75,1,0
11264,-100,4,2,2,75,0,0
11579,413.793103448276,4,2,8,75,1,0
11785,-100,4,2,2,75,0,0
11991,-100,4,2,8,75,0,0
11992,409.556313993174,4,2,8,75,1,0
12196,-100,4,2,12,75,0,0
12503,-100,4,2,2,75,0,0
12811,-100,4,2,8,75,0,0
13015,-100,4,2,6,75,0,0
13220,425.531914893617,4,2,6,75,1,0
13326,-100,4,2,2,75,0,0
13647,405.405405405406,4,2,2,60,1,0
15268,419.58041958042,4,2,2,60,1,0
15687,-100,4,2,14,60,0,0
16107,413.793103448276,4,2,14,60,1,0
16520,416.666666666667,4,2,14,60,1,0
16936,418.118466898955,4,2,14,60,1,0
18608,389.61038961039,4,2,14,60,1,0
18997,408.163265306123,4,2,14,60,1,0
19405,413.793103448276,4,2,14,60,1,0
19818,402.68456375839,4,2,14,60,1,0
20019,-100,4,2,2,60,0,0
20220,410.958904109589,4,2,2,60,1,0
21452,-100,4,2,14,60,0,0
21863,411.663807890223,4,2,14,60,1,0
23200,-100,4,2,2,60,0,0
23509,408.85860306644,4,2,2,60,1,0
24734,-100,4,2,14,60,0,0
25144,410.958904109589,4,2,14,60,1,0
25657,-100,4,2,2,60,0,0
25863,-100,4,2,14,60,0,0
25965,-100,4,2,2,60,0,0
26376,408.163265306122,4,2,14,60,1,0
26580,-100,4,2,2,60,0,0
26784,408.163265306122,4,2,1,70,1,0
27192,-100,4,2,6,70,0,0
27294,-100,4,2,2,70,0,0
27600,419.58041958042,4,2,6,70,1,0
27809,-99.009900990099,4,2,2,70,0,0
27914,-99.009900990099,4,2,23,70,0,0
28019,413.793103448276,4,2,23,70,1,0
28122,-100,4,2,2,70,0,0
28432,-100,4,2,6,70,0,0
28639,-100,4,2,2,70,0,0
28846,-100,4,2,6,70,0,0
28950,-100,4,2,2,70,0,0
29260,419.58041958042,4,2,6,70,1,0
29469,-100,4,2,2,70,0,0
29679,410.958904109589,4,2,6,70,1,0
29884,-100,4,2,2,70,0,0
30089,408.163265306122,4,2,6,70,1,0
30293,-100,4,2,2,70,0,0
30497,-100,4,2,6,70,0,0
30599,-100,4,2,2,70,0,0
30905,-100,4,2,6,70,0,0
31109,-100,4,2,2,70,0,0
31211,-100,4,2,23,70,0,0
31415,-100,4,2,2,70,0,0
31721,413.793103448276,4,2,6,70,1,0
31824,-100,4,2,2,70,0,0
32134,-100,4,2,6,70,0,0
32341,-100,4,2,2,70,0,0
32548,-100,4,2,6,70,0,0
32652,-100,4,2,2,70,0,0
32962,-100,4,2,6,70,0,0
33065,-100,4,2,2,70,0,0
33479,-100,4,2,21,70,0,0
33789,-100,4,2,6,70,0,0
33996,-100,4,2,2,70,0,0
34203,-100,4,2,6,70,0,0
34410,-100,4,2,2,70,0,0
34616,-100,4,2,6,70,0,0
34824,-99.009900990099,4,2,2,70,0,0
34927,-100,4,2,24,70,0,0
35031,408.163265306122,4,2,24,70,1,0
35133,-100,4,2,2,70,0,0
35439,-100,4,2,6,70,0,0
35643,-100,4,2,2,70,0,0
35847,-100,4,2,6,70,0,0
36051,-100,4,2,2,70,0,0
36255,402.684563758389,4,2,6,70,1,0
36456,-100,4,2,2,70,0,0
36657,410.958904109589,4,2,6,70,1,0
36862,-100,4,2,2,70,0,0
37067,-100,4,2,6,70,0,0
37273,-100,4,2,2,70,0,0
37478,-100,4,2,6,70,0,0
37684,-100,4,2,2,70,0,0
37889,402.684563758389,4,2,6,70,1,0
37989,-100,4,2,2,70,0,0
38291,412.371134020619,4,2,6,70,1,0
38497,-100,4,2,2,70,0,0
38703,-100,4,2,6,70,0,0
38806,-100,4,2,2,70,0,0
39115,-100,4,2,6,70,0,0
39218,-100,4,2,2,70,0,0
39528,-100,4,2,6,70,0,0
39734,-100,4,2,2,70,0,0
39940,408.163265306122,4,2,2,65,1,0
40450,-100,4,2,2,50,0,0
40756,-100,4,2,2,65,0,0
40858,-100,4,2,2,50,0,0
41164,-100,4,2,2,65,0,0
41266,-100,4,2,2,50,0,0
41572,409.556313993174,4,2,2,65,1,0
41674,-100,4,2,2,50,0,0
41981,-100,4,2,2,65,0,0
42083,-100,4,2,2,50,0,0
42391,-100,4,2,2,65,0,0
42493,-100,4,2,2,50,0,0
42800,-100,4,2,2,65,0,0
42903,-100,4,2,2,50,0,0
43210,410.958904109589,4,2,2,65,1,0
43312,-100,4,2,2,50,0,0
43620,-100,4,2,2,65,0,0
43826,-100,4,2,2,50,0,0
44031,416.666666666667,4,2,2,65,1,0
44135,-100,4,2,2,50,0,0
44447,410.958904109589,4,2,2,65,1,0
44549,-100,4,2,2,50,0,0
44857,408.163265306122,4,2,3,65,1,0
44959,-100,4,2,3,50,0,0
45265,412.371134020619,4,2,3,65,1,0
45368,-100,4,2,3,50,0,0
45677,-100,4,2,5,65,0,0
45780,-100,4,2,5,50,0,0
46089,-100,4,2,5,65,0,0
46192,-100,4,2,5,50,0,0
46502,408.163265306122,4,2,2,65,1,0
46604,-100,4,2,2,50,0,0
46910,405.405405405405,4,2,2,65,1,0
47011,-100,4,2,2,50,0,0
47315,-100,4,2,2,65,0,0
47416,-100,4,2,2,50,0,0
47720,419.58041958042,4,2,2,65,1,0
47824,-100,4,2,2,50,0,0
48139,413.793103448276,4,2,2,65,1,0
48242,-100,4,2,2,50,0,0
48552,-100,4,2,2,65,0,0
48655,-100,4,2,2,50,0,0
48966,410.958904109589,4,2,2,65,1,0
49068,-100,4,2,2,50,0,0
49376,-100,4,2,2,65,0,0
49478,-100,4,2,2,50,0,0
49787,410.958904109589,4,2,2,65,1,0
49889,-100,4,2,2,50,0,0
50197,-100,4,2,2,65,0,0
50299,-100,4,2,2,50,0,0
50608,-100,4,2,2,65,0,0
50711,-100,4,2,2,50,0,0
51019,424.028268551237,4,2,2,65,1,0
51125,-100,4,2,2,50,0,0
51443,-100,4,2,2,70,0,0
52281,379.746835443038,4,2,2,70,1,0
52375,-100,4,2,2,50,0,0
52660,408.163265306122,4,2,2,50,1,0
52864,-100,4,2,3,50,0,0
53068,425.531914893617,4,2,1,70,1,1
53493,419.58041958042,4,2,6,70,1,0
53597,-100,4,2,2,70,0,0
53912,416.666666666667,4,2,6,70,1,0
54016,-100,4,2,2,70,0,0
54328,-100,4,2,6,70,0,0
54432,-100,4,2,2,70,0,0
54753,410.958904109589,4,2,6,70,1,0
54855,-100,4,2,2,70,0,0
55163,-100,4,2,6,70,0,0
55369,-100,4,2,2,70,0,0
55574,-100,4,2,6,70,0,0
55677,-100,4,2,2,70,0,0
55985,405.405405405405,4,2,6,70,1,0
56187,-100,4,2,2,70,0,0
56289,-100,4,2,24,70,0,0
56390,400,4,2,24,70,1,0
56590,-100,4,2,2,70,0,0
56790,413.793103448276,4,2,6,70,1,0
56893,-100,4,2,2,70,0,0
57203,408.163265306122,4,2,6,70,1,0
57305,-100,4,2,2,70,0,0
57611,-100,4,2,6,70,0,0
57713,-100,4,2,2,70,0,0
58019,413.793103448276,4,2,3,70,1,0
58432,416.666666666667,4,2,6,70,1,0
58640,-100,4,2,2,70,0,0
58848,408.163265306122,4,2,6,70,1,0
59052,-100,4,2,2,70,0,0
59256,-100,4,2,6,70,0,0
59460,-100,4,2,2,70,0,0
59664,410.958904109589,4,2,2,70,1,0
60074,-100,4,2,6,70,0,0
60280,-100,4,2,2,70,0,0
60383,-100,4,2,24,70,0,0
60588,-100,4,2,2,70,0,0
60896,425.531914893617,4,2,6,70,1,0
61002,-100,4,2,2,70,0,0
61321,416.666666666667,4,2,6,70,1,0
61425,-100,4,2,21,70,0,0
61737,410.958904109589,4,2,6,70,1,0
61942,-100,4,2,2,70,0,0
62147,405.405405405405,4,2,6,70,1,0
62349,-100,4,2,2,70,0,0
62551,-100,4,2,6,70,0,0
62755,-100,4,2,2,70,0,0
62957,-100,4,2,6,70,0,0
63160,-101.010101010101,4,2,2,70,0,0
63261,-101.010101010101,4,2,23,70,0,0
63363,416.666666666667,4,2,23,70,1,0
63467,-100,4,2,2,70,0,0
63779,410.958904109589,4,2,6,70,1,0
63881,-100,4,2,2,70,0,0
64189,-100,4,2,6,70,0,0
64292,-100,4,2,2,70,0,0
64600,408.163265306122,4,2,3,70,1,0
65008,-100,4,2,6,70,0,0
65212,-100,4,2,2,70,0,0
65416,-100,4,2,6,70,0,0
65518,-100,4,2,2,70,0,0
65824,416.666666666667,4,2,6,70,1,0
65928,-100,4,2,2,70,0,0
66240,419.58041958042,4,2,1,65,1,0
66659,413.793103448276,4,2,1,65,1,0
66762,-100,4,2,1,50,0,0
67072,400,4,2,1,65,1,0
67172,-100,4,2,1,50,0,0
67472,389.61038961039,4,2,1,65,1,0
67569,-100,4,2,1,50,0,0
67861,405.405405405405,4,2,1,65,1,0
67962,-100,4,2,1,50,0,0
68266,410.958904109589,4,2,1,65,1,0
68368,-100,4,2,1,50,0,0
68676,-100,4,2,1,65,0,0
68779,-100,4,2,1,50,0,0
69087,-100,4,2,1,65,0,0
69189,-100,4,2,1,50,0,0
69498,422.535211267606,4,2,1,65,1,0
69603,-100,4,2,1,50,0,0
69920,405.405405405405,4,2,1,65,1,0
70021,-100,4,2,1,50,0,0
70325,419.58041958042,4,2,1,65,1,0
70429,-100,4,2,1,50,0,0
70744,-100,4,2,1,65,0,0
70848,-100,4,2,1,50,0,0
71164,410.958904109589,4,2,1,65,1,0
71266,-100,4,2,1,50,0,0
71574,-100,4,2,1,65,0,0
71677,-100,4,2,1,50,0,0
71985,-100,4,2,1,65,0,0
72087,-100,4,2,1,50,0,0
72396,-100,4,2,1,65,0,0
72498,-100,4,2,1,50,0,0
72809,405.405405405405,4,2,1,65,1,0
72910,-100,4,2,2,50,0,0
73214,-100,4,2,2,65,0,0
73315,-100,4,2,2,50,0,0
73619,-100,4,2,2,65,0,0
73721,-100,4,2,2,50,0,0
74025,408.163265306122,4,2,2,65,1,0
74127,-100,4,2,2,50,0,0
74433,410.958904109589,4,2,2,65,1,0
74535,-100,4,2,2,50,0,0
74843,-100,4,2,2,65,0,0
74945,-100,4,2,2,50,0,0
75254,-100,4,2,2,65,0,0
75357,-100,4,2,2,50,0,0
75665,-100,4,2,2,65,0,0
75768,-100,4,2,2,50,0,0
76076,408.163265306122,4,2,2,65,1,0
76178,-100,4,2,2,50,0,0
76484,-100,4,2,2,65,0,0
76586,-100,4,2,2,50,0,0
76892,416.666666666667,4,2,2,65,1,0
76996,-100,4,2,2,50,0,0
77308,408.163265306122,4,2,2,65,1,0
77410,-100,4,2,2,50,0,0
77716,408.163265306122,4,2,2,70,1,0
77920,405.405405405405,4,2,2,70,1,0
78528,458.015267175573,4,2,2,70,1,0
79385,419.58041958042,4,2,1,80,1,1
79804,-100,4,2,10,80,0,1
79909,-100,4,2,21,80,0,1
80118,-100,4,2,2,80,0,1
80224,-100,4,2,10,80,0,1
80329,-100,4,2,2,80,0,1
80643,408.163265306122,4,2,10,80,1,1
80847,-100,4,2,2,80,0,1
81051,402.684563758389,4,2,10,80,1,1
81252,-100,4,2,2,80,0,1
81453,-100,4,2,10,80,0,1
81554,-100,4,2,2,80,0,1
81856,-100,4,2,10,80,0,1
81957,-100,4,2,2,80,0,1
82259,-100,4,2,10,80,0,1
82359,-100,4,2,2,80,0,1
82661,422.535211267606,4,2,2,80,1,1
83083,416.666666666667,4,2,10,80,1,1
83187,-100,4,2,2,80,0,1
83499,-100,4,2,10,80,0,1
83603,-100,4,2,21,80,0,1
83916,410.958904109589,4,2,10,80,1,1
84121,-100,4,2,2,80,0,1
84326,410.958904109589,4,2,10,80,1,1
84531,-100,4,2,2,80,0,1
84736,-100,4,2,10,80,0,1
84839,-100,4,2,2,80,0,1
85147,425.531914893617,4,2,2,80,1,0
85997,402.684563758389,4,2,5,80,1,1
86399,-100,4,2,10,80,0,1
86601,-100,4,2,2,80,0,1
86802,-100,4,2,10,80,0,1
86903,-100,4,2,2,80,0,1
87204,-100,4,2,10,80,0,1
87406,-100,4,2,2,80,0,1
87607,413.793103448276,4,2,10,80,1,1
87813,-100,4,2,2,80,0,1
88019,-100,4,2,10,80,0,1
88227,-100,4,2,2,80,0,1
88434,-100,4,2,10,80,0,1
88641,-100,4,2,2,80,0,1
88847,-100,4,2,10,80,0,1
88848,422.535211267606,4,2,10,80,1,1
89059,-100,4,2,2,80,0,1
89270,416.666666666667,4,2,3,80,1,1
89686,419.58041958042,4,2,10,80,1,1
89895,-100,4,2,2,80,0,1
90105,405.405405405405,4,2,10,80,1,1
90307,-100,4,2,2,80,0,1
90510,410.958904109589,4,2,10,80,1,1
90715,-100,4,2,2,80,0,1
90920,-100,4,2,5,80,0,1
91334,416.666666666667,4,2,5,80,1,1
91750,428.571428571429,4,2,2,80,1,1
92178,408.163265306122,4,2,2,80,1,1
92382,-100,4,2,5,80,0,0
92586,410.958904109589,4,2,1,80,1,1
92996,-100,4,2,10,80,0,1
93099,-100,4,2,21,80,0,1
93304,-100,4,2,2,80,0,1
93407,-100,4,2,10,80,0,1
93510,-100,4,2,2,80,0,1
93817,-100,4,2,10,80,0,1
94024,-100,4,2,2,80,0,1
94229,413.793103448276,4,2,10,80,1,1
94435,-100,4,2,2,80,0,1
94642,-100,4,2,10,80,0,1
94746,-100,4,2,2,80,0,1
95056,400,4,2,10,80,1,1
95156,-100,4,2,2,80,0,1
95456,405.405405405405,4,2,10,80,1,1
95557,-100,4,2,2,80,0,1
95861,405.405405405405,4,2,2,80,1,1
96266,-100,4,2,10,80,0,1
96367,-100,4,2,2,80,0,1
96671,-100,4,2,10,80,0,1
96773,-100,4,2,2,80,0,1
97076,-100,4,2,10,80,0,1
97077,402.684563758389,4,2,10,80,1,1
97278,-100,4,2,2,80,0,1
97479,410.958904109589,4,2,10,80,1,1
97684,-100,4,2,2,80,0,1
97889,-100,4,2,10,80,0,1
97992,-100,4,2,2,80,0,1
98300,416.666666666667,4,2,2,80,1,0
99133,410.958904109589,4,2,3,80,1,1
99543,-100,4,2,10,80,0,1
99749,-100,4,2,2,80,0,1
99954,-100,4,2,10,80,0,1
100057,-100,4,2,2,80,0,1
100365,-100,4,2,10,80,0,1
100571,-100,4,2,2,80,0,1
100776,409.556313993174,4,2,10,80,1,1
100980,-100,4,2,2,80,0,1
101184,-100,4,2,10,80,0,1
101390,-100,4,2,2,80,0,1
101594,-100,4,2,10,80,0,1
101799,-100,4,2,2,80,0,1
102003,-100,4,2,10,80,0,1
102209,-100,4,2,2,80,0,1
102414,408.163265306122,4,2,10,80,1,1
102618,-100,4,2,2,80,0,1
103026,-100,4,2,10,80,0,1
103230,419.58041958042,4,2,2,80,1,1
103649,-100,4,2,10,80,0,1
103859,-100,4,2,2,80,0,1
104069,410.958904109589,4,2,2,80,1,1
104274,400,4,2,2,80,1,1
104674,400,4,2,6,80,1,1
104874,400,4,2,2,80,1,1
105477,433.996383363472,4,2,3,80,1,1
105693,408.163265306122,4,2,1,70,1,0
106101,-100,4,2,6,70,0,0
106203,-100,4,2,2,70,0,0
106509,416.666666666667,4,2,6,70,1,0
106613,-100,4,2,2,70,0,0
106925,-100,4,2,6,70,0,0
107029,-100,4,2,2,70,0,0
107336,416.666666666667,4,2,6,70,1,0
107440,-100,4,2,2,70,0,0
107752,402.684563758389,4,2,6,70,1,0
107953,-100,4,2,2,70,0,0
108154,-100,4,2,6,70,0,0
108356,-100,4,2,2,70,0,0
108557,-100,4,2,6,70,0,0
108758,-100,4,2,2,70,0,0
108960,405.405405405405,4,2,6,70,1,0
109061,-100,4,2,2,70,0,0
109365,-100,4,2,6,70,0,0
109568,-100,4,2,2,70,0,0
109770,437.956204379562,4,2,6,70,1,0
109879,-100,4,2,2,70,0,0
110207,413.793103448276,4,2,6,70,1,0
110310,-100,4,2,2,70,0,0
110620,-100,4,2,6,70,0,0
110724,-100,4,2,2,70,0,0
111033,-100,4,2,6,70,0,0
111241,-100,4,2,2,70,0,0
111459,410.958904109589,4,2,2,50,1,0
111869,-100,4,2,3,50,0,0
112282,413.793103448276,4,2,2,50,1,0
112592,-100,4,2,23,70,0,0
112799,-100,4,2,2,70,0,0
113109,-100,4,2,6,70,0,0
113316,-100,4,2,2,70,0,0
113522,-100,4,2,6,70,0,0
113730,-99.009900990099,4,2,2,70,0,0
113833,-100,4,2,24,70,0,0
113937,408.163265306122,4,2,24,70,1,0
114039,-100,4,2,2,70,0,0
114345,-100,4,2,6,70,0,0
114549,-100,4,2,2,70,0,0
114753,422.535211267606,4,2,6,70,1,0
114964,-100,4,2,2,70,0,0
115175,-100,4,2,6,70,0,0
115386,-100,4,2,2,70,0,0
115598,402.684563758389,4,2,2,70,1,0
116000,-100,4,2,6,70,0,0
116202,-100,4,2,2,70,0,0
116403,422.535211267606,4,2,6,70,1,0
116614,-100,4,2,2,70,0,0
116825,410.958904109589,4,2,6,70,1,0
117030,-100,4,2,2,70,0,0
117235,-100,4,2,6,70,0,0
117544,-100,4,2,2,70,0,0
117646,402.684563758389,4,2,6,70,1,0
117847,-100,4,2,2,70,0,0
118048,-100,4,2,6,70,0,0
118149,-100,4,2,2,70,0,0
118451,389.610389610389,4,2,6,70,1,0
118645,-100,4,2,2,70,0,0
118840,431.654676258993,4,2,2,70,1,0
118947,-100,4,2,21,70,0,0
119271,413.793103448276,4,2,6,70,1,0
119477,-100,4,2,2,70,0,0
119684,-100,4,2,6,70,0,0
119788,-100,4,2,2,70,0,0
120098,-100,4,2,6,70,0,0
120202,-100,4,2,2,70,0,0
120512,397.350993377483,4,2,6,70,1,0
120611,-100,4,2,2,70,0,0
120909,-100,4,2,6,70,0,0
121008,-100,4,2,2,70,0,0
121306,410.958904109589,4,2,6,70,1,0
121408,-100,4,2,2,70,0,0
121716,-100,4,2,6,70,0,0
121819,-100,4,2,2,70,0,0
122127,-100,4,2,6,70,0,0
122230,-100,4,2,2,70,0,0
122537,-100,4,2,6,70,0,0
122538,408.163265306122,4,2,6,70,1,0
122742,-100,4,2,2,70,0,0
122946,-100,4,2,6,70,0,0
123048,-100,4,2,2,70,0,0
123354,-100,4,2,6,70,0,0
123456,-100,4,2,2,70,0,0
123762,418.118466898954,4,2,6,70,1,0
123866,-100,4,2,2,70,0,0
124180,-100,4,2,6,70,0,0
124284,-100,4,2,2,70,0,0
124598,-100,4,2,6,70,0,0
124807,-100,4,2,2,70,0,0
125016,-100,4,2,3,70,0,0
125434,410.958904109589,4,2,2,70,1,0
125536,-100,4,2,21,70,0,0
125844,-100,4,2,6,70,0,0
126050,-100,4,2,2,70,0,0
126255,-100,4,2,6,70,0,0
126461,-100,4,2,2,70,0,0
126666,-100,4,2,6,70,0,0
126872,-100,4,2,2,70,0,0
126975,-100,4,2,24,70,0,0
127180,-100,4,2,2,70,0,0
127488,-100,4,2,6,70,0,0
127694,-100,4,2,2,70,0,0
127899,-100,4,2,6,70,0,0
128002,-100,4,2,2,70,0,0
128310,405.405405405405,4,2,6,70,1,0
128512,-100,4,2,2,70,0,0
128715,416.666666666666,4,2,2,70,1,0
129131,-100,4,2,6,70,0,0
129340,-100,4,2,2,70,0,0
129548,422.535211267605,4,2,6,70,1,0
129759,-100,4,2,2,70,0,0
129970,394.736842105263,4,2,6,70,1,0
130068,-100,4,2,2,70,0,0
130364,413.793103448276,4,2,6,70,1,0
130570,-100,4,2,2,70,0,0
130777,392.156862745098,4,2,6,70,1,0
130875,-100,4,2,2,70,0,0
131169,397.350993377483,4,2,6,70,1,0
131268,-100,4,2,2,70,0,0
131566,406.779661016949,4,2,6,70,1,0
131667,-100,4,2,2,70,0,0
131972,419.580419580419,4,2,2,70,1,0
132391,416.666666666667,4,2,6,70,1,0
132599,-100,4,2,2,70,0,0
132807,-100,4,2,6,70,0,0
132911,-100,4,2,2,70,0,0
133224,410.958904109589,4,2,6,70,1,0
133326,-100,4,2,2,70,0,0
133634,-100,4,2,6,70,0,0
133737,-100,4,2,2,70,0,0
134045,-100,4,2,6,70,0,0
134148,-100,4,2,2,70,0,0
134456,400,4,2,6,70,1,0
134556,-100,4,2,2,70,0,0
134856,410.958904109589,4,2,6,70,1,0
134958,-100,4,2,2,70,0,0
135266,431.654676258993,4,2,3,70,1,0
135697,-100,4,2,6,70,0,0
135913,-100,4,2,2,70,0,0
136129,392.156862745098,4,2,6,70,1,0
136227,-100,4,2,2,70,0,0
136521,416.666666666667,4,2,6,70,1,0
136625,-100,4,2,2,70,0,0
136937,-100,4,2,6,70,0,0
137041,-100,4,2,2,70,0,0
137353,-100,4,2,6,70,0,0
137562,-100,4,2,2,70,0,0
137771,408.163265306122,4,2,6,70,1,0
137873,-100,4,2,2,70,0,0
138587,408.163265306122,4,2,2,70,1,0
138689,-100,4,2,21,70,0,0
138995,-100,4,2,6,70,0,0
139199,-100,4,2,2,70,0,0
139403,-100,4,2,6,70,0,0
139505,-100,4,2,2,70,0,0
139811,-100,4,2,6,70,0,0
139913,-100,4,2,2,70,0,0
140219,-100,4,2,6,70,0,0
140321,-100,4,2,2,70,0,0
140627,-100,4,2,6,70,0,0
140729,-100,4,2,2,70,0,0
141035,431.654676258993,4,2,6,70,1,0
141250,-100,4,2,2,70,0,0
141466,409.556313993174,4,2,6,70,1,0
141670,-100,4,2,2,70,0,0
142284,-100,4,2,6,70,0,0
142489,-100,4,2,2,70,0,0
142694,418.118466898955,4,2,6,70,1,0
142798,-100,4,2,2,70,0,0
143112,-100,4,2,6,70,0,0
143216,-100,4,2,2,70,0,0
143530,-100,4,2,6,70,0,0
143634,-100,4,2,2,70,0,0
143948,419.580419580419,4,2,6,70,1,0
144052,-100,4,2,2,70,0,0
144367,408.163265306122,4,2,6,70,1,0
144469,-100,4,2,2,70,0,0
144775,-100,4,2,6,70,0,0
144877,-100,4,2,2,70,0,0
145183,406.091370558376,4,2,2,70,1,0
145183,-90.9090909090909,4,2,2,70,0,0
145284,-90.9090909090909,4,2,21,70,0,0
145589,-90.9090909090909,4,2,6,70,0,0
145792,-90.9090909090909,4,2,2,70,0,0
145995,-90.9090909090909,4,2,6,70,0,0
146096,-90.9090909090909,4,2,2,70,0,0
146401,-90.9090909090909,4,2,6,70,0,0
146502,-90.9090909090909,4,2,2,70,0,0
146807,419.580419580419,4,2,6,70,1,0
146807,-90.9090909090909,4,2,6,70,0,0
146911,-90.9090909090909,4,2,2,70,0,0
147226,410.958904109589,4,2,6,70,1,0
147431,-90.9090909090909,4,2,2,70,0,0
147636,-90.9090909090909,4,2,6,70,0,0
147738,-90.9090909090909,4,2,2,70,0,0
148047,413.793103448276,4,2,6,70,1,0
148047,-90.9090909090909,4,2,6,70,0,0
148253,-90.9090909090909,4,2,2,70,0,0
148460,-90.9090909090909,4,2,3,70,0,0
148873,-90.9090909090909,4,2,6,70,0,0
148874,400,4,2,6,70,1,0
149074,-100,4,2,2,70,0,0
149274,-90.9090909090909,4,2,6,70,0,0
149374,-90.9090909090909,4,2,2,70,0,0
149674,-90.9090909090909,4,2,6,70,0,0
149774,-90.9090909090909,4,2,2,70,0,0
150074,410.958904109589,4,2,6,70,1,0
150074,-90.9090909090909,4,2,6,70,0,0
150176,-90.9090909090909,4,2,2,70,0,0
150484,-90.9090909090909,4,2,6,70,0,0
150690,-90.9090909090909,4,2,2,70,0,0
150895,-90.9090909090909,4,2,6,70,0,0
151101,-90.9090909090909,4,2,2,70,0,0
151306,416.666666666667,4,2,6,70,1,0
151306,-90.9090909090909,4,2,6,70,0,0
151410,-90.9090909090909,4,2,2,70,0,0
151722,415.22491349481,4,2,2,70,1,0
151825,-100,4,2,21,70,0,0
152137,-100,4,2,6,70,0,0
152344,-100,4,2,2,70,0,0
152552,-90.9090909090909,4,2,6,70,0,0
152656,-90.9090909090909,4,2,2,70,0,0
152967,-90.9090909090909,4,2,6,70,0,0
153071,-90.9090909090909,4,2,2,70,0,0
153382,419.580419580419,4,2,6,70,1,0
153382,-90.9090909090909,4,2,6,70,0,0
153486,-90.9090909090909,4,2,21,70,0,0
153801,402.684563758389,4,2,6,70,1,0
154002,-90.9090909090909,4,2,2,70,0,0
154203,-90.9090909090909,4,2,6,70,0,0
154405,-90.9090909090909,4,2,2,70,0,0
154606,416.666666666667,4,2,6,70,1,0
154606,-90.9090909090909,4,2,6,70,0,0
154710,-90.9090909090909,4,2,2,70,0,0
155022,409.556313993174,4,2,6,70,1,0
155022,-90.9090909090909,4,2,6,70,0,0
155124,-90.9090909090909,4,2,2,70,0,0
155431,-90.9090909090909,4,2,6,70,0,0
155533,-90.9090909090909,4,2,2,70,0,0
155841,-90.9090909090909,4,2,6,70,0,0
156045,-90.9090909090909,4,2,2,70,0,0
156250,-90.9090909090909,4,2,6,70,0,0
156353,-90.9090909090909,4,2,2,70,0,0
156660,-90.9090909090909,4,2,6,70,0,0
156865,-90.9090909090909,4,2,2,70,0,0
157069,-90.9090909090909,4,2,6,70,0,0
157172,-90.9090909090909,4,2,2,70,0,0
157479,419.580419580419,4,2,6,70,1,0
157479,-90.9090909090909,4,2,6,70,0,0
157583,-90.9090909090909,4,2,2,70,0,0
157898,410.958904109589,4,2,6,70,1,0
158103,-100,4,2,2,70,0,0
158308,410.958904109589,4,2,1,60,1,0
171253,-90.9090909090909,4,2,1,60,0,0
171456,408.163265306122,4,2,1,60,1,0
171558,-100,4,2,1,45,0,0
171864,-100,4,2,1,60,0,0
171966,-100,4,2,1,45,0,0
172272,-100,4,2,1,60,0,0
172374,-100,4,2,1,45,0,0
172680,400,4,2,1,60,1,0
172780,-100,4,2,1,45,0,0
173080,405.405405405405,4,2,1,60,1,0
173181,-100,4,2,1,45,0,0
173485,-100,4,2,1,60,0,0
173586,-100,4,2,1,45,0,0
173890,-100,4,2,1,60,0,0
173992,-100,4,2,2,45,0,0
174295,-100,4,2,2,60,0,0
174498,-100,4,2,2,45,0,0
174701,422.535211267606,4,2,2,60,1,0
174806,-100,4,2,2,45,0,0
175123,-100,4,2,2,60,0,0
175228,-100,4,2,2,45,0,0
175546,408.163265306122,4,2,2,60,1,0
175648,-100,4,2,2,45,0,0
175954,-100,4,2,2,60,0,0
176056,-100,4,2,2,45,0,0
176362,-100,4,2,2,60,0,0
176464,-100,4,2,2,45,0,0
176770,-100,4,2,2,60,0,0
176872,-100,4,2,2,45,0,0
177178,410.958904109589,4,2,2,60,1,0
177280,-100,4,2,2,45,0,0
177588,-100,4,2,2,60,0,0
177691,-100,4,2,2,45,0,0
177999,405.405405405405,4,2,2,60,1,0
178100,-100,4,2,2,45,0,0
178404,-100,4,2,2,60,0,0
178505,-100,4,2,2,45,0,0
178809,-100,4,2,2,60,0,0
178911,-100,4,2,2,45,0,0
179215,419.58041958042,4,2,2,60,1,0
179319,-100,4,2,2,45,0,0
179634,-100,4,2,2,60,0,0
179739,-100,4,2,2,45,0,0
180054,422.535211267606,4,2,2,60,1,0
180159,-100,4,2,2,45,0,0
180476,409.556313993174,4,2,2,60,1,0
180578,-100,4,2,2,45,0,0
180885,-100,4,2,2,60,0,0
180987,-100,4,2,2,45,0,0
181295,-100,4,2,2,60,0,0
181397,-100,4,2,2,45,0,0
181704,434.782608695652,4,2,2,60,1,0
181812,-100,4,2,2,45,0,0
182138,422.535211267606,4,2,2,60,1,0
182243,-100,4,2,2,45,0,0
182560,402.684563758389,4,2,2,60,1,0
182660,-100,4,2,2,45,0,0
182962,424.028268551237,4,2,2,75,1,0
183386,402.684563758389,4,2,2,75,1,0
184191,401.33779264214,4,2,2,75,1,0
184592,428.571428571429,4,2,1,80,1,1
185020,-100,4,2,10,80,0,1
185127,-100,4,2,21,80,0,1
185341,-100,4,2,2,80,0,1
185449,-100,4,2,10,80,0,1
185556,-100,4,2,2,80,0,1
185877,413.793103448276,4,2,10,80,1,1
186083,-100,4,2,2,80,0,1
186289,-100,4,2,10,80,0,1
186290,400,4,2,10,80,1,1
186490,-100,4,2,2,80,0,1
186690,-100,4,2,10,80,0,1
186790,-100,4,2,2,80,0,1
187090,-100,4,2,10,80,0,1
187190,-100,4,2,2,80,0,1
187490,410.958904109589,4,2,10,80,1,1
187592,-100,4,2,2,80,0,1
187900,413.793103448276,4,2,3,80,1,1
188313,-100,4,2,10,80,0,1
188417,-100,4,2,2,80,0,1
188727,-100,4,2,10,80,0,1
188831,-100,4,2,2,80,0,1
189140,-100,4,2,10,80,0,1
189141,397.350993377483,4,2,10,80,1,1
189339,-100,4,2,2,80,0,1
189538,410.958904109589,4,2,10,80,1,1
189640,-100,4,2,2,80,0,1
189948,-100,4,2,10,80,0,1
190051,-100,4,2,2,80,0,1
190359,-100,4,2,2,80,0,0
191181,409.556313993174,4,2,5,80,1,1
191590,-100,4,2,10,80,0,1
191795,-100,4,2,2,80,0,1
191999,-100,4,2,10,80,0,1
192204,-100,4,2,2,80,0,1
192409,-100,4,2,10,80,0,1
192512,-100,4,2,2,80,0,1
192819,416.666666666667,4,2,10,80,1,1
193027,-100,4,2,2,80,0,1
193235,-100,4,2,10,80,0,1
193444,-100,4,2,2,80,0,1
193652,-100,4,2,10,80,0,1
193860,-100,4,2,2,80,0,1
194068,-100,4,2,10,80,0,1
194069,405.405405405405,4,2,10,80,1,1
194271,-100,4,2,2,80,0,1
194474,413.793103448276,4,2,10,80,1,1
194577,-100,4,2,2,80,0,1
194887,-100,4,2,10,80,0,1
195094,-100,4,2,2,80,0,1
195300,-100,4,2,10,80,0,1
195508,-100,4,2,2,80,0,1
195715,408.163265306122,4,2,10,80,1,1
195919,-100,4,2,2,80,0,1
196123,406.779661016949,4,2,2,80,1,1
196529,-100,4,2,10,80,0,1
196733,-100,4,2,2,80,0,1
196936,-100,4,2,10,80,0,1
197038,-100,4,2,2,80,0,1
197343,-100,4,2,10,80,0,1
197445,-100,4,2,2,80,0,1
197546,-100,4,2,2,80,0,0
197750,416.666666666667,4,2,1,80,1,1
198166,-100,4,2,10,80,0,1
198270,-100,4,2,21,80,0,1
198478,-100,4,2,2,80,0,1
198583,-100,4,2,10,80,0,1
198687,-100,4,2,2,80,0,1
198999,-100,4,2,10,80,0,1
199000,400,4,2,10,80,1,1
199200,-100,4,2,2,80,0,1
199400,413.793103448276,4,2,10,80,1,1
199606,-100,4,2,2,80,0,1
199813,-100,4,2,10,80,0,1
199917,-100,4,2,2,80,0,1
200227,-100,4,2,10,80,0,1
200331,-100,4,2,2,80,0,1
200641,408.163265306122,4,2,10,80,1,1
200743,-100,4,2,2,80,0,1
201049,428.571428571429,4,2,3,80,1,1
201477,-100,4,2,10,80,0,1
201584,-100,4,2,2,80,0,1
201906,-100,4,2,10,80,0,1
202013,-100,4,2,2,80,0,1
202334,402.684563758389,4,2,10,80,1,1
202535,-100,4,2,2,80,0,1
202635,-100,4,2,3,80,0,1
202736,416.666666666667,4,2,2,80,1,1
203152,-100,4,2,10,80,0,1
203256,-100,4,2,2,80,0,1
203569,394.736842105263,4,2,2,80,1,0
204358,419.58041958042,4,2,5,80,1,1
204777,394.736842105263,4,2,10,80,1,1
204974,-100,4,2,2,80,0,1
205171,408.163265306122,4,2,10,80,1,1
205375,-100,4,2,2,80,0,1
205579,387.096774193548,4,2,10,80,1,1
205675,-100,4,2,2,80,0,1
205966,431.654676258993,4,2,10,80,1,1
206181,-100,4,2,2,80,0,1
206396,-100,4,2,10,80,0,1
206397,402.684563758389,4,2,10,80,1,1
206598,-100,4,2,11,80,0,1
206698,-100,4,2,10,80,0,1
207202,402.684563758389,4,2,10,80,1,1
207403,-100,4,2,11,80,0,1
207503,-100,4,2,10,80,0,1
207604,412.371134020619,4,2,3,80,1,1
208016,-100,4,2,10,80,0,1
208222,-100,4,2,2,80,0,1
208428,-100,4,2,10,80,0,1
208634,-100,4,2,2,80,0,1
208840,-100,4,2,10,80,0,1
208841,402.684563758389,4,2,10,80,1,1
209042,-100,4,2,2,80,0,1
209243,421.052631578947,4,2,10,80,1,1
209453,-100,4,2,2,80,0,1
209663,-100,4,2,10,80,0,1
209874,-100,4,2,2,80,0,1
210085,410.958904109589,4,2,2,80,1,0
210495,405.405405405405,4,2,2,80,1,0
210900,410.958904109589,4,2,1,80,1,1
210900,-90.9090909090909,4,2,1,80,0,1
211310,-90.9090909090909,4,2,15,80,0,1
211413,-90.9090909090909,4,2,21,80,0,1
211618,-90.9090909090909,4,2,15,80,0,1
211721,425.531914893617,4,2,15,80,1,1
211721,-90.9090909090909,4,2,15,80,0,1
211827,-90.9090909090909,4,2,2,80,0,1
212146,408.163265306122,4,2,15,80,1,1
212350,-90.9090909090909,4,2,2,80,0,1
212554,431.654676258993,4,2,15,80,1,1
212554,-90.9090909090909,4,2,15,80,0,1
212661,-90.9090909090909,4,2,2,80,0,1
212985,402.68456375839,4,2,15,80,1,1
212985,-90.9090909090909,4,2,15,80,0,1
213085,-90.9090909090909,4,2,2,80,0,1
213387,410.958904109589,4,2,15,80,1,1
213489,-100,4,2,2,80,0,1
213797,419.58041958042,4,2,15,80,1,1
214006,-90.9090909090909,4,2,2,80,0,1
214216,-90.9090909090909,4,2,15,80,0,1
214321,-90.9090909090909,4,2,2,80,0,1
214636,405.405405405406,4,2,15,80,1,1
214636,-90.9090909090909,4,2,15,80,0,1
214737,-90.9090909090909,4,2,2,80,0,1
215041,434.782608695653,4,2,15,80,1,1
215041,-90.9090909090909,4,2,15,80,0,1
215149,-90.9090909090909,4,2,2,80,0,1
215475,408.163265306123,4,2,15,80,1,1
215679,-100,4,2,2,80,0,1
215883,-100,4,2,15,80,0,1
216087,-90.9090909090909,4,2,2,80,0,1
216291,416.666666666667,4,2,15,80,1,1
216499,-90.9090909090909,4,2,2,80,0,1
216707,419.58041958042,4,2,15,80,1,0
216707,-90.9090909090909,4,2,15,80,0,0
216811,-90.9090909090909,4,2,2,80,0,0
217546,406.77966101695,4,2,1,80,1,1
217546,-90.9090909090909,4,2,1,80,0,1
217952,-90.9090909090909,4,2,15,80,0,1
218156,-90.9090909090909,4,2,2,80,0,1
218358,-90.9090909090909,4,2,15,80,0,1
218562,-90.9090909090909,4,2,2,80,0,1
218766,-90.9090909090909,4,2,15,80,0,1
218868,-90.9090909090909,4,2,2,80,0,1
219173,400.000000000001,4,2,15,80,1,1
219373,-90.9090909090909,4,2,2,80,0,1
219573,408.163265306123,4,2,15,80,1,1
219777,-100,4,2,2,80,0,1
219879,-90.9090909090909,4,2,2,80,0,1
219981,416.666666666667,4,2,15,80,1,1
220189,-90.9090909090909,4,2,2,80,0,1
220397,-90.9090909090909,4,2,15,80,0,1
220606,-90.9090909090909,4,2,2,80,0,1
220803,402.684563758389,4,2,15,80,1,1
220803,-83.3333333333333,4,2,15,80,0,1
220903,-83.3333333333333,4,2,2,80,0,1
221205,387.096774193548,4,2,15,80,1,1
221205,-83.3333333333333,4,2,15,80,0,1
221394,-83.3333333333333,4,2,2,80,0,1
221629,408.163265306122,4,2,15,80,1,1
221731,-100,4,2,2,80,0,1
222037,389.61038961039,4,2,15,80,1,1
222231,-90.9090909090909,4,2,2,80,0,1
222425,-90.9090909090909,4,2,15,80,0,1
222426,405.405405405405,4,2,15,80,1,1
222628,-90.9090909090909,4,2,2,80,0,1
222830,-90.9090909090909,4,2,15,80,0,1
223034,-90.9090909090909,4,2,2,80,0,1
223236,419.58041958042,4,2,15,80,1,1
223445,-90.9090909090909,4,2,2,80,0,1
223655,410.958904109589,4,2,2,80,1,0
223860,-90.9090909090909,4,2,2,80,0,0
224065,422.535211267606,4,2,1,75,1,1
224487,-100,4,2,15,75,0,1
224698,-100,4,2,2,75,0,1
224910,413.793103448276,4,2,15,75,1,1
225013,-100,4,2,2,75,0,1
225323,-100,4,2,15,75,0,1
225530,-100,4,2,2,75,0,1
225736,-100,4,2,15,75,0,1
225944,-100,4,2,2,75,0,1
226150,-100,4,2,15,75,0,1
226151,377.358490566038,4,2,15,75,1,1
226339,-100,4,2,2,75,0,1
226528,419.58041958042,4,2,15,75,1,1
226632,-100,4,2,2,75,0,1
226947,-100,4,2,15,75,0,1
227052,-100,4,2,2,75,0,1
227367,-100,4,2,15,75,0,1
227472,-100,4,2,2,75,0,1
227786,394.736842105263,4,2,15,75,1,1
227983,-100,4,2,2,75,0,1
228180,431.654676258993,4,2,15,75,1,1
228395,-100,4,2,2,75,0,1
228610,-100,4,2,15,75,0,1
228611,387.096774193548,4,2,15,75,1,1
228804,-100,4,2,2,75,0,1
228997,-100,4,2,15,75,0,1
228998,425.531914893617,4,2,15,75,1,1
229210,-100,4,2,2,75,0,1
229422,-100,4,2,15,75,0,1
229423,392.156862745098,4,2,15,75,1,1
229619,-100,4,2,2,75,0,1
229815,419.58041958042,4,2,15,75,1,1
230234,-100,4,2,2,75,0,0
230654,410.958904109589,4,2,1,75,1,1
230756,-100,4,2,21,75,0,1
231064,-100,4,2,15,75,0,1
231270,-100,4,2,2,75,0,1
231475,-100,4,2,15,75,0,1
231681,-100,4,2,2,75,0,1
231886,-100,4,2,15,75,0,1
232092,-100,4,2,2,75,0,1
232297,413.793103448276,4,2,15,75,1,1
232503,-100,4,2,2,75,0,1
232709,-100,4,2,15,75,0,1
232917,-100,4,2,2,75,0,1
233124,-100,4,2,15,75,0,1
233331,-100,4,2,2,75,0,1
233537,-100,4,2,15,75,0,1
233538,400,4,2,15,75,1,1
233738,-100,4,2,2,75,0,1
233938,408.163265306122,4,2,15,75,1,1
234142,-100,4,2,2,75,0,1
234346,-100,4,2,15,75,0,1
234550,-100,4,2,2,75,0,1
234754,410.958904109589,4,2,15,75,1,1
234856,-100,4,2,2,75,0,1
235164,-100,4,2,15,75,0,1
235370,-100,4,2,2,75,0,1
235575,-100,4,2,15,75,0,1
235781,-100,4,2,2,75,0,1
235986,422.535211267606,4,2,15,75,1,1
236197,-100,4,2,2,75,0,1
236408,-100,4,2,15,75,0,1
236619,-100,4,2,2,75,0,1
236831,428.571428571429,4,2,15,75,1,1
236938,-100,4,2,2,75,0,1
237259,410.958904109589,4,2,1,80,1,0
238902,-100,4,2,1,30,0,0
240546,-100,4,2,1,20,0,0
242190,-100,4,2,1,10,0,0
243834,-100,4,2,1,5,0,0

[Colours]
Combo1 : 255,255,128
Combo2 : 128,255,128

[HitObjects]
89,269,503,6,0,P|74:259|166:175,1,210,14|8,2:1|2:0,2:0:0:0:
285,161,1119,1,10,2:1:0:0:
88,157,1324,2,0,L|84:39,1,105,10|10,2:1|2:1,2:0:0:0:
229,328,1735,2,0,L|233:210,1,105,8|10,2:0|2:1,2:0:0:0:
24,220,2137,6,0,L|143:221,1,105,10|10,2:1|2:1,2:0:0:0:
265,320,2553,2,0,L|138:321,1,105,8|10,2:0|2:1,2:0:0:0:
363,243,2963,1,10,2:1:0:0:
497,244,3169,1,10,2:1:0:0:
363,243,3374,2,0,L|363:135,1,105,10|8,2:0|2:1,2:0:0:0:
433,146,3683,1,8,2:0:0:0:
241,345,3785,6,0,L|114:346,2,105,10|10|8,2:1|2:1|2:0,2:0:0:0:
60,275,4405,2,0,P|30:251|121:173,1,210,10|10,2:1|2:1,2:0:0:0:
231,167,5026,1,8,2:0:0:0:
440,167,5233,6,0,L|216:166,1,210,10|10,2:1|2:1,2:0:0:0:
375,156,5829,2,0,L|375:43,1,105,8|2,2:0|2:3,2:0:0:0:
300,56,6143,1,2,2:3:0:0:
134,186,6248,1,2,2:3:0:0:
191,187,6353,1,2,2:3:0:0:
249,187,6458,1,10,2:1:0:0:
54,140,6659,1,10,2:0:0:0:
201,140,6861,1,8,2:1:0:0:
495,278,7066,6,0,L|281:277,1,210,12|8,2:1|2:0,2:0:0:0:
456,268,7684,2,0,P|483:226|368:175,1,210,10|10,2:1|2:1,2:0:0:0:
270,164,8303,1,8,2:0:0:0:
467,160,8509,6,0,L|484:44,1,105,10|10,2:1|2:1,2:0:0:0:
344,63,8919,2,0,L|334:-54,1,105,10|8,2:1|2:0,2:0:0:0:
193,195,9327,1,10,2:1:0:0:
387,275,9531,2,0,L|261:275,2,105,10|10|10,2:1|2:1|2:0,2:0:0:0:
220,196,10143,2,0,L|304:195,1,52.5,8|2,2:1|2:3,2:0:0:0:
452,196,10347,6,0,P|477:175|379:95,1,210,10|8,2:1|2:0,2:0:0:0:
225,66,10957,2,0,L|437:66,1,210,10|10,2:1|2:1,2:0:0:0:
280,173,11579,1,8,2:0:0:0:
435,66,11785,6,0,L|435:197,1,105,10|10,2:1|2:1,2:0:0:0:
168,330,12196,1,10,2:0:0:0:
433,333,12401,2,0,L|309:333,1,105,10|8,2:0|2:1,2:0:0:0:
46,228,12811,1,10,2:1:0:0:
167,230,13015,1,10,2:0:0:0:
450,232,13220,2,0,L|459:106,1,105,10|8,2:0|2:1,2:0:0:0:
410,124,13539,1,0,2:0:0:0:
206,122,13647,6,0,L|85:117,1,105,14|0,2:1|2:0,2:0:0:0:
356,41,14255,1,0,2:0:0:0:
334,138,14457,2,0,L|224:129,1,105,0|0,2:0|2:0,2:0:0:0:
485,46,15065,1,0,2:0:0:0:
289,204,15268,6,0,L|506:204,1,210,2|10,2:0|2:0,2:0:0:0:
292,320,16002,1,0,2:0:0:0:
221,319,16107,2,0,L|211:211,1,105,2|2,2:0|2:0,2:0:0:0:
460,214,16728,1,2,2:0:0:0:
268,215,16936,6,0,L|393:215,1,105,0|0,2:0|2:0,2:0:0:0:
390,134,17354,1,8,2:0:0:0:
222,133,17563,1,0,2:0:0:0:
202,59,17772,2,0,L|330:58,1,105,0|0,2:0|2:0,2:0:0:0:
65,133,18399,1,2,2:0:0:0:
204,138,18608,6,0,P|214:201|94:234,1,210,2|10,2:0|2:0,2:0:0:0:
374,360,19405,2,0,P|446:344|445:216,1,210,2|10,2:0|2:0,2:0:0:0:
343,218,20019,1,8,2:1:0:0:
157,360,20220,6,0,L|32:359,1,105,8|2,2:1|2:0,2:0:0:0:
299,248,20836,1,0,2:0:0:0:
175,249,21041,1,2,2:0:0:0:
318,242,21247,2,0,L|326:129,1,105,2|8,2:0|2:0,2:0:0:0:
128,137,21658,1,2,2:0:0:0:
86,62,21863,6,0,L|222:58,1,105,0|0,2:0|2:0,2:0:0:0:
406,134,22480,1,0,2:0:0:0:
448,59,22686,2,0,L|312:55,1,105,0|0,2:0|2:0,2:0:0:0:
490,23,23097,2,0,L|495:152,1,105,10|10,2:0|2:1,2:0:0:0:
304,187,23509,6,0,L|144:222,1,157.5,10|2,2:1|2:0,2:0:0:0:
307,275,24122,1,2,2:0:0:0:
147,293,24326,2,0,P|134:250|255:177,1,210,2|10,2:0|2:0,2:0:0:0:
106,174,24940,2,0,L|88:110,1,52.5,0|0,2:0|2:0,2:0:0:0:
115,186,25144,6,0,L|288:186,1,157.5,2|0,2:0|2:0,2:0:0:0:
192,158,25554,2,0,L|65:157,1,105,10|0,2:0|2:0,2:0:0:0:
154,145,25863,1,8,2:0:0:0:
242,153,25965,1,10,2:1:0:0:
300,236,26171,1,10,2:1:0:0:
243,334,26376,1,8,2:0:0:0:
124,357,26580,1,10,2:1:0:0:
392,356,26784,6,0,L|403:239,1,105,14|10,2:1|2:1,2:0:0:0:
244,238,27192,2,0,L|382:237,1,105,8|10,2:0|2:1,2:0:0:0:
474,235,27600,1,10,2:1:0:0:
279,347,27809,2,0,P|262:316|375:251,1,210,10|10,2:1|2:1,2:0:0:0:
303,244,28329,1,0,2:0:0:0:
121,242,28432,5,10,2:1:0:0:
12,242,28639,1,10,2:1:0:0:
143,186,28846,2,0,L|143:319,1,105,10|8,2:0|2:1,2:0:0:0:
299,355,29260,1,10,2:1:0:0:
158,355,29469,1,8,2:1:0:0:
18,355,29679,1,10,2:0:0:0:
289,266,29884,6,0,L|404:266,1,105,10|8,2:1|2:1,2:0:0:0:
207,201,30293,1,10,2:1:0:0:
90,199,30497,2,0,L|90:73,1,105,8|8,2:0|2:1,2:0:0:0:
278,94,30905,1,8,2:1:0:0:
148,97,31109,2,0,P|115:137|221:207,1,210,8|10,2:1|2:1,2:0:0:0:
387,228,31721,6,0,L|262:226,2,105,10|10|10,2:1|2:1|2:0,2:0:0:0:
387,228,32341,1,10,2:1:0:0:
119,341,32548,2,0,L|5:335,1,105,10|10,2:1|2:0,2:0:0:0:
287,285,32962,2,0,P|336:269|314:182,1,157.5,8|0,2:0|2:0,2:0:0:0:
108,76,33376,6,0,L|318:98,1,210,12|8,2:1|2:0,2:0:0:0:
187,180,33996,2,0,L|109:198,1,52.5,10|0,2:1|2:0,2:0:0:0:
187,180,34203,1,10,2:1:0:0:
346,170,34410,2,0,L|468:167,1,105,10|8,2:1|2:0,2:0:0:0:
235,249,34824,6,0,L|21:280,1,210,10|10,2:1|2:1,2:0:0:0:
144,298,35439,1,8,2:0:0:0:
354,362,35643,2,0,L|370:253,1,105,10|8,2:1|2:1,2:0:0:0:
225,259,36051,2,0,L|213:149,1,105,10|8,2:1|2:0,2:0:0:0:
368,141,36456,1,10,2:1:0:0:
95,266,36657,5,8,2:0:0:0:
217,268,36862,1,10,2:1:0:0:
95,266,37067,1,8,2:1:0:0:
291,347,37273,1,10,2:0:0:0:
169,349,37478,1,8,2:1:0:0:
291,347,37684,1,10,2:1:0:0:
98,315,37889,2,0,L|97:189,1,105,8|10,2:0|2:1,2:0:0:0:
365,208,38291,5,8,2:1:0:0:
231,211,38497,1,10,2:0:0:0:
497,107,38703,2,0,L|498:275,1,157.5,10|0,2:0|2:0,2:0:0:0:
294,318,39115,2,0,L|172:340,1,105,10|8,2:0|2:1,2:0:0:0:
336,230,39528,1,10,2:0:0:0:
65,202,39734,1,10,2:1:0:0:
353,155,39940,6,0,P|380:193|293:260,1,157.5,12|0,2:1|2:0,2:0:0:0:
244,265,40348,5,8,2:1:0:0:
214,227,40450,1,8,2:1:0:0:
231,182,40552,1,8,2:1:0:0:
277,172,40654,1,8,2:1:0:0:
350,168,40756,1,8,2:1:0:0:
380,130,40858,1,8,2:1:0:0:
363,85,40960,1,8,2:1:0:0:
317,75,41062,1,8,2:1:0:0:
238,73,41164,2,0,L|167:73,1,52.5,8|8,2:1|2:1,2:0:0:0:
253,145,41368,2,0,L|324:144,1,52.5,10|8,2:1|2:1,2:0:0:0:
141,222,41572,5,10,2:1:0:0:
95,206,41674,1,8,2:1:0:0:
78,160,41776,1,8,2:1:0:0:
101,118,41879,1,8,2:1:0:0:
184,115,41981,2,0,L|269:116,1,52.5,8|8,2:1|2:1,2:0:0:0:
236,115,42186,2,0,L|184:115,1,52.5,8|8,2:1|2:1,2:0:0:0:
101,118,42391,2,0,L|22:118,1,52.5,10|8,2:1|2:1,2:0:0:0:
210,92,42595,5,8,2:1:0:0:
233,134,42698,1,10,2:1:0:0:
216,180,42800,1,8,2:1:0:0:
170,196,42903,1,8,2:1:0:0:
246,224,43005,2,0,L|305:224,1,52.5,10|8,2:1|2:1,2:0:0:0:
108,323,43210,5,12,2:1:0:0:
68,294,43312,1,8,2:1:0:0:
61,246,43415,1,10,2:1:0:0:
90,208,43518,1,8,2:1:0:0:
139,203,43620,1,10,2:1:0:0:
38,202,43826,1,8,2:1:0:0:
224,192,44031,6,0,L|299:194,1,52.5,8|8,2:1|2:1,2:0:0:0:
224,192,44239,2,0,L|171:190,1,52.5,8|8,2:1|2:1,2:0:0:0:
224,192,44447,1,8,2:1:0:0:
242,237,44549,1,8,2:1:0:0:
219,282,44652,1,10,2:1:0:0:
165,301,44755,1,8,2:1:0:0:
364,355,44857,6,0,L|435:355,1,52.5,14|8,2:1|2:1,2:0:0:0:
342,289,45061,2,0,L|271:289,1,52.5,8|8,2:1|2:1,2:0:0:0:
370,270,45265,1,10,2:1:0:0:
393,228,45368,1,8,2:1:0:0:
376,182,45471,1,8,2:1:0:0:
330,166,45574,1,8,2:1:0:0:
166,165,45677,6,0,L|92:163,1,52.5,14|8,2:1|2:1,2:0:0:0:
180,86,45883,2,0,L|254:84,1,52.5,10|8,2:1|2:1,2:0:0:0:
409,81,46089,1,12,2:1:0:0:
429,124,46192,1,8,2:1:0:0:
409,168,46295,1,8,2:1:0:0:
362,181,46399,1,8,2:1:0:0:
180,331,46502,5,12,2:1:0:0:
122,311,46604,1,8,2:1:0:0:
103,254,46706,1,8,2:1:0:0:
136,204,46808,1,10,2:1:0:0:
193,194,46910,1,8,2:1:0:0:
253,190,47011,1,8,2:1:0:0:
286,139,47112,1,8,2:1:0:0:
267,82,47214,1,8,2:1:0:0:
104,75,47315,6,0,L|43:89,1,52.5,10|8,2:1|2:1,2:0:0:0:
232,135,47518,2,0,L|286:145,1,52.5,10|8,2:1|2:1,2:0:0:0:
283,144,47720,2,0,L|232:135,1,52.5,8|8,2:1|2:1,2:0:0:0:
47,141,47929,5,10,2:1:0:0:
17,179,48034,1,8,2:1:0:0:
28,226,48139,1,8,2:1:0:0:
72,248,48242,1,8,2:1:0:0:
161,251,48345,2,0,L|221:251,1,52.5,10|8,2:1|2:1,2:0:0:0:
161,251,48552,2,0,L|108:251,1,52.5,8|8,2:1|2:1,2:0:0:0:
285,248,48759,5,10,2:1:0:0:
329,226,48863,1,8,2:1:0:0:
340,179,48966,1,8,2:1:0:0:
310,141,49068,1,8,2:1:0:0:
218,128,49171,2,0,L|128:128,1,52.5,10|8,2:1|2:1,2:0:0:0:
218,128,49376,2,0,L|283:128,1,52.5,8|8,2:1|2:1,2:0:0:0:
436,122,49582,2,0,L|436:67,1,52.5,10|8,2:1|2:1,2:0:0:0:
212,52,49787,5,12,2:1:0:0:
178,86,49889,1,8,2:1:0:0:
181,135,49992,1,8,2:1:0:0:
220,164,50095,1,8,2:1:0:0:
274,160,50197,2,0,L|200:177,1,52.5,8|8,2:1|2:1,2:0:0:0:
153,221,50403,2,0,L|227:238,1,52.5,8|8,2:1|2:1,2:0:0:0:
405,318,50608,5,8,2:1:0:0:
429,276,50711,1,8,2:1:0:0:
414,229,50814,1,8,2:1:0:0:
370,210,50917,1,8,2:1:0:0:
208,200,51019,2,8,L|135:199,1,52.5,8|8,2:1|2:1,2:1:0:0:
258,272,51231,2,8,L|341:270,1,52.5,10|8,2:1|2:1,2:1:0:0:
119,357,51443,6,0,L|10:357,1,105,10|10,2:0|2:0,2:0:0:0:
94,360,51761,1,8,2:0:0:0:
165,357,51867,2,0,L|220:358,1,52.5,6|8,2:3|2:3,2:0:0:0:
54,175,52079,1,8,2:0:0:0:
153,264,52281,1,10,2:0:0:0:
194,264,52375,1,8,2:0:0:0:
153,264,52470,1,4,2:3:0:0:
83,263,52565,1,8,2:0:0:0:
248,193,52660,2,0,L|381:194,1,105,10|8,2:0|2:3,2:0:0:0:
297,189,52966,1,8,2:3:0:0:
111,183,53068,6,0,P|92:146|193:98,1,157.5,12|0,2:1|2:0,2:0:0:0:
363,111,53493,2,0,L|482:113,1,105,10|10,2:0|2:1,2:0:0:0:
408,115,53807,1,0,2:0:0:0:
294,177,53912,2,0,L|170:177,1,105,10|8,2:1|2:1,2:0:0:0:
383,109,54328,2,0,L|383:240,1,105,10|10,2:0|2:1,2:0:0:0:
312,217,54641,1,0,2:0:0:0:
126,324,54753,6,0,L|8:324,1,105,10|8,2:1|2:1,2:0:0:0:
206,243,55163,1,10,2:0:0:0:
58,244,55369,1,10,2:1:0:0:
322,177,55574,2,0,L|429:177,1,105,10|10,2:1|2:1,2:0:0:0:
265,112,55883,2,0,L|197:112,1,52.5,2|8,2:0|2:0,2:0:0:0:
265,112,56086,1,2,2:0:0:0:
387,115,56187,2,0,L|205:114,1,157.5,10|0,2:1|2:0,2:0:0:0:
156,113,56590,1,10,2:1:0:0:
431,384,56790,6,0,L|430:246,1,105,10|10,2:0|2:1,2:0:0:0:
367,275,57100,1,0,2:0:0:0:
185,311,57203,2,0,P|158:282|247:217,1,157.5,10|0,2:1|2:0,2:0:0:0:
305,207,57611,2,0,L|149:205,1,105,10|10,2:0|2:1,2:0:0:0:
262,179,57917,1,0,2:0:0:0:
446,35,58019,6,0,L|453:148,1,105,14|8,2:1|2:1,2:0:0:0:
296,204,58432,1,10,2:0:0:0:
447,185,58640,1,10,2:1:0:0:
167,338,58848,2,0,L|105:331,1,52.5,10|0,2:1|2:0,2:0:0:0:
167,338,59052,1,10,2:1:0:0:
289,338,59256,1,10,2:0:0:0:
88,280,59460,2,0,L|76:171,1,105,10|12,2:1|2:1,2:0:0:0:
340,162,59869,5,10,2:1:0:0:
197,161,60074,1,10,2:0:0:0:
462,97,60280,2,0,P|490:144|385:211,1,210,10|8,2:1|2:1,2:0:0:0:
195,198,60896,2,0,L|201:335,1,105,8|8,2:0|2:1,2:0:0:0:
476,359,61321,6,0,L|256:346,1,210,10|8,2:1|2:0,2:0:0:0:
383,333,61942,1,8,2:1:0:0:
113,316,62147,1,10,2:1:0:0:
287,320,62349,2,0,L|303:200,1,105,8|8,2:1|2:0,2:0:0:0:
33,198,62755,2,0,L|25:130,1,52.5,10|0,2:1|2:0,2:0:0:0:
219,117,62957,5,8,2:1:0:0:
103,118,63160,2,0,P|56:151|165:217,1,210,8|8,2:1|2:1,2:0:0:0:
279,246,63779,2,0,L|135:242,1,105,8|8,2:1|2:1,2:0:0:0:
381,168,64189,2,0,L|503:173,1,105,10|10,2:0|2:1,2:0:0:0:
222,354,64600,6,0,L|106:346,1,105,14|8,2:1|2:1,2:0:0:0:
248,288,64906,2,0,L|341:285,1,52.5,2|8,2:0|2:0,2:0:0:0:
176,217,65212,1,10,2:1:0:0:
440,219,65416,2,0,L|455:94,1,105,10|8,2:1|2:1,2:0:0:0:
155,360,65824,2,0,L|140:235,1,105,10|10,2:0|2:1,2:0:0:0:
469,245,66240,6,0,P|501:215|421:165,1,157.5,12|0,2:1|2:0,2:0:0:0:
235,211,66659,1,10,2:1:0:0:
207,168,66762,1,8,2:1:0:0:
225,121,66865,1,10,2:1:0:0:
274,110,66969,1,8,2:1:0:0:
351,110,67072,2,0,L|277:102,1,52.5,10|8,2:1|2:1,2:0:0:0:
204,190,67272,2,0,L|141:180,1,52.5,10|8,2:1|2:1,2:0:0:0:
204,190,67472,2,0,L|270:188,1,52.5,10|8,2:1|2:1,2:0:0:0:
188,171,67666,2,0,L|188:102,1,52.5,10|8,2:1|2:1,2:0:0:0:
293,108,67861,6,0,L|363:109,1,52.5,10|8,2:1|2:1,2:0:0:0:
256,188,68063,2,0,L|203:187,1,52.5,10|8,2:1|2:1,2:0:0:0:
314,286,68266,2,0,L|314:208,1,52.5,10|8,2:1|2:1,2:0:0:0:
236,223,68471,2,0,L|236:145,1,52.5,10|8,2:1|2:1,2:0:0:0:
150,163,68676,1,10,2:1:0:0:
125,118,68779,1,8,2:1:0:0:
144,71,68882,1,10,2:1:0:0:
193,57,68985,1,8,2:1:0:0:
125,58,69087,2,0,L|54:49,1,52.5,10|8,2:1|2:1,2:0:0:0:
163,130,69293,2,0,L|215:136,1,52.5,10|8,2:1|2:1,2:0:0:0:
32,312,69498,6,0,L|21:249,1,52.5,10|8,2:1|2:1,2:0:0:0:
32,312,69709,2,0,L|21:249,1,52.5,8|8,2:1|2:1,2:0:0:0:
192,373,69920,2,0,L|203:310,1,52.5,10|8,2:1|2:1,2:0:0:0:
192,373,70122,2,0,L|203:310,1,52.5,8|8,2:1|2:1,2:0:0:0:
128,306,70325,2,0,L|64:298,1,52.5,8|8,2:1|2:1,2:0:0:0:
249,249,70534,6,0,L|238:186,1,52.5,10|8,2:1|2:1,2:0:0:0:
249,249,70744,2,0,L|238:186,1,52.5,8|8,2:1|2:1,2:0:0:0:
405,313,70954,2,0,L|416:250,1,52.5,10|8,2:1|2:1,2:0:0:0:
405,313,71164,2,0,L|416:250,1,52.5,8|8,2:1|2:1,2:0:0:0:
249,249,71369,2,0,L|176:250,1,52.5,10|8,2:1|2:1,2:0:0:0:
397,176,71574,5,10,2:1:0:0:
431,138,71677,1,8,2:1:0:0:
424,88,71780,1,10,2:1:0:0:
381,61,71883,1,8,2:1:0:0:
311,57,71985,2,0,L|380:57,1,52.5,10|8,2:1|2:1,2:0:0:0:
412,123,72191,2,0,L|359:123,1,52.5,10|8,2:1|2:1,2:0:0:0:
195,199,72396,2,0,L|127:199,1,52.5,10|8,2:1|2:1,2:0:0:0:
195,199,72602,2,0,L|276:200,1,52.5,10|8,2:1|2:1,2:0:0:0:
81,362,72809,6,0,P|39:333|108:246,1,157.5,10|8,2:1|2:1,2:0:0:0:
117,226,73214,1,8,2:1:0:0:
135,178,73315,1,8,2:1:0:0:
113,132,73417,1,8,2:1:0:0:
65,115,73518,1,8,2:1:0:0:
255,30,73619,1,10,2:1:0:0:
280,73,73721,1,8,2:1:0:0:
261,120,73822,1,8,2:1:0:0:
212,134,73923,1,8,2:1:0:0:
159,142,74025,1,8,2:1:0:0:
133,185,74127,1,8,2:1:0:0:
152,232,74229,1,8,2:1:0:0:
201,246,74331,1,8,2:1:0:0:
377,324,74433,6,0,L|444:320,1,52.5,10|8,2:1|2:1,2:0:0:0:
429,320,74638,2,0,L|377:324,1,52.5,8|8,2:1|2:1,2:0:0:0:
305,325,74843,2,0,L|304:247,1,52.5,8|8,2:1|2:1,2:0:0:0:
374,235,75049,2,0,L|466:235,1,52.5,8|8,2:1|2:1,2:0:0:0:
243,175,75254,2,0,L|115:174,1,105,10|8,2:1|2:1,2:0:0:0:
193,164,75563,1,8,2:1:0:0:
381,149,75665,1,8,2:1:0:0:
413,110,75768,1,8,2:1:0:0:
399,61,75871,1,8,2:1:0:0:
352,45,75974,1,8,2:1:0:0:
178,47,76076,5,10,2:1:0:0:
153,90,76178,1,8,2:1:0:0:
172,137,76280,1,8,2:1:0:0:
221,151,76382,1,8,2:1:0:0:
274,159,76484,1,8,2:1:0:0:
300,202,76586,1,8,2:1:0:0:
281,249,76688,1,8,2:1:0:0:
232,263,76790,1,8,2:1:0:0:
397,348,76892,2,0,L|486:348,1,52.5,10|8,2:1|2:1,2:0:0:0:
449,348,77100,2,0,L|397:348,1,52.5,8|8,2:1|2:1,2:0:0:0:
305,347,77308,2,0,L|222:348,1,52.5,8|8,2:1|2:1,2:0:0:0:
252,347,77512,2,0,L|305:346,1,52.5,8|8,2:1|2:1,2:0:0:0:
480,257,77716,5,10,2:0:0:0:
494,133,77920,1,10,2:0:0:0:
133,235,78528,5,10,2:0:0:0:
470,237,78757,1,10,2:0:0:0:
133,235,79385,6,0,L|9:235,1,105,14|10,2:1|2:1,2:0:0:0:
92,226,79699,1,0,2:0:0:0:
276,332,79804,2,0,P|319:304|278:204,1,157.5,10|8,2:0|2:0,2:0:0:0:
128,200,80224,2,0,L|14:200,2,105,10|8|10,2:1|2:1|2:0,2:0:0:0:
393,320,80847,6,0,L|393:181,1,105,10|8,2:1|2:1,2:0:0:0:
213,209,81252,1,10,2:1:0:0:
476,207,81453,2,0,L|475:97,1,105,10|10,2:0|2:1,2:0:0:0:
295,95,81755,1,8,2:0:0:0:
218,95,81856,2,0,L|366:95,1,105,10|8,2:1|2:1,2:0:0:0:
139,206,82259,2,0,L|-9:206,1,105,10|8,2:0|2:1,2:0:0:0:
302,334,82661,5,14,2:1:0:0:
155,333,82872,1,10,2:1:0:0:
332,265,83083,2,0,L|331:149,1,105,10|8,2:0|2:1,2:0:0:0:
164,154,83395,1,8,2:0:0:0:
90,153,83499,2,0,P|55:126|141:55,1,157.5,10|0,2:1|2:0,2:0:0:0:
270,45,83916,5,10,2:0:0:0:
146,193,84121,2,0,L|282:193,1,105,10|8,2:1|2:1,2:0:0:0:
398,191,84531,1,10,2:1:0:0:
125,340,84736,2,0,L|-15:340,1,105,10|10,2:0|2:1,2:0:0:0:
96,335,85045,1,0,2:0:0:0:
314,319,85147,6,0,L|323:208,1,105,10|8,2:0|2:1,2:0:0:0:
39,208,85572,6,0,L|30:97,1,105,10|8,2:0|2:1,2:0:0:0:
344,64,85997,6,0,L|205:64,2,105,14|8|8,2:1|2:1|2:0,2:0:0:0:
167,163,86601,2,0,L|257:162,1,52.5,10|8,2:1|2:0,2:0:0:0:
398,282,86802,2,0,L|534:282,2,105,10|8|8,2:1|2:1|2:0,2:0:0:0:
250,282,87406,1,10,2:1:0:0:
416,282,87507,1,8,2:0:0:0:
465,282,87607,1,10,2:1:0:0:
366,198,87813,6,0,L|486:198,1,105,10|8,2:1|2:0,2:0:0:0:
201,347,88227,2,0,L|107:348,1,52.5,10|8,2:1|2:0,2:0:0:0:
201,347,88434,1,8,2:1:0:0:
355,348,88641,2,0,L|354:219,1,105,10|8,2:1|2:0,2:0:0:0:
209,229,89059,1,10,2:1:0:0:
479,149,89270,6,0,L|347:148,2,105,12|10|8,2:1|2:1|2:0,2:0:0:0:
317,71,89895,1,8,2:1:0:0:
153,73,90000,1,8,2:0:0:0:
101,73,90105,1,8,2:1:0:0:
290,157,90307,1,10,2:1:0:0:
421,159,90510,1,10,2:0:0:0:
145,351,90715,5,10,2:1:0:0:
145,351,90920,1,12,2:1:0:0:
325,244,91126,1,14,2:1:0:0:
42,234,91334,2,0,L|156:234,1,105,8|10,2:0|2:1,2:0:0:0:
211,234,91646,1,0,2:0:0:0:
396,321,91750,2,0,L|246:322,1,105,14|8,2:1|2:1,2:0:0:0:
124,326,92178,1,10,2:0:0:0:
396,321,92382,1,12,2:1:0:0:
114,322,92586,6,0,L|114:209,1,105,14|10,2:1|2:1,2:0:0:0:
185,219,92894,1,0,2:0:0:0:
383,218,92996,2,0,P|425:192|370:98,1,157.5,10|8,2:0|2:0,2:0:0:0:
185,102,93407,2,0,L|70:102,2,105,10|8|10,2:1|2:1|2:0,2:0:0:0:
463,129,94024,6,0,L|320:128,1,105,10|8,2:1|2:1,2:0:0:0:
496,47,94435,1,10,2:1:0:0:
232,235,94642,2,0,L|358:235,1,105,10|10,2:0|2:1,2:0:0:0:
171,161,94953,1,8,2:0:0:0:
113,161,95056,2,0,L|232:161,1,105,10|8,2:1|2:1,2:0:0:0:
57,97,95456,2,0,L|57:-17,1,105,10|8,2:0|2:1,2:0:0:0:
324,220,95861,5,14,2:1:0:0:
185,221,96063,1,10,2:1:0:0:
355,159,96266,2,0,L|464:159,1,105,10|8,2:0|2:1,2:0:0:0:
291,291,96570,1,8,2:0:0:0:
216,291,96671,2,0,L|69:291,2,105,10|8|10,2:1|2:1|2:0,2:0:0:0:
387,359,97278,6,0,L|387:241,1,105,10|8,2:1|2:1,2:0:0:0:
233,242,97684,2,0,L|320:241,1,52.5,10|0,2:1|2:0,2:0:0:0:
459,304,97889,2,0,L|333:304,1,105,10|10,2:0|2:1,2:0:0:0:
62,362,98300,6,0,L|53:251,1,105,10|8,2:0|2:1,2:0:0:0:
337,251,98716,6,0,L|346:140,1,105,10|8,2:0|2:1,2:0:0:0:
26,119,99133,6,0,L|147:119,2,105,14|8|8,2:1|2:1|2:0,2:0:0:0:
181,48,99749,2,0,L|252:48,1,52.5,10|8,2:1|2:0,2:0:0:0:
63,246,99954,2,0,L|63:133,1,105,10|8,2:1|2:1,2:0:0:0:
198,124,100365,1,8,2:0:0:0:
65,126,100571,1,10,2:1:0:0:
329,206,100776,5,10,2:1:0:0:
177,206,100980,2,0,L|300:206,1,105,10|8,2:1|2:0,2:0:0:0:
132,122,101390,1,10,2:1:0:0:
316,123,101492,2,0,L|414:124,1,52.5,8|8,2:0|2:1,2:0:0:0:
215,282,101799,2,0,L|215:173,1,105,10|8,2:1|2:0,2:0:0:0:
410,169,102209,1,10,2:1:0:0:
146,366,102414,5,12,2:0:0:0:
410,169,102618,2,0,L|272:168,1,105,10|8,2:1|2:1,2:0:0:0:
134,169,103026,1,8,2:0:0:0:
410,169,103230,1,8,2:0:0:0:
134,169,103439,1,10,2:1:0:0:
305,168,103649,1,10,2:0:0:0:
37,332,103859,6,0,L|37:217,1,105,10|12,2:1|2:1,2:0:0:0:
190,223,104274,2,0,L|268:224,1,52.5,10|8,2:0|2:0,2:0:0:0:
71,126,104474,2,0,L|-3:126,1,52.5,8|8,2:0|2:0,2:0:0:0:
71,126,104674,1,10,2:1:0:0:
268,127,104874,5,10,2:0:0:0:
222,126,104974,1,8,2:0:0:0:
50,206,105074,2,0,L|124:206,1,52.5,8|8,2:1|2:0,2:0:0:0:
268,278,105274,1,10,2:0:0:0:
407,277,105477,2,0,L|328:276,1,52.5,4|4,2:3|2:3,2:0:0:0:
113,349,105693,6,0,L|247:349,1,105,14|10,2:1|2:1,2:0:0:0:
47,280,106101,2,0,L|43:161,1,105,8|10,2:0|2:1,2:0:0:0:
104,171,106407,1,0,2:0:0:0:
215,165,106509,2,0,L|105:160,1,105,10|10,2:1|2:1,2:0:0:0:
281,83,106925,2,0,L|404:79,1,105,8|10,2:0|2:1,2:0:0:0:
122,290,107336,6,0,L|-9:290,2,105,10|8|10,2:1|2:1|2:0,2:0:0:0:
267,292,107953,1,8,2:1:0:0:
95,358,108154,1,10,2:1:0:0:
358,347,108356,2,0,L|247:347,1,105,10|8,2:1|2:0,2:0:0:0:
355,270,108758,1,10,2:1:0:0:
65,233,108960,6,0,L|194:233,1,105,12|10,2:1|2:1,2:0:0:0:
301,233,109365,1,8,2:0:0:0:
170,233,109568,1,8,2:1:0:0:
352,166,109770,2,0,L|356:293,1,105,8|8,2:1|2:1,2:0:0:0:
214,316,110207,2,0,L|345:316,1,105,8|10,2:0|2:1,2:0:0:0:
24,218,110620,6,0,L|151:219,2,105,10|10|10,2:1|2:1|2:0,2:0:0:0:
168,153,111241,2,0,L|247:153,1,52.5,8|8,2:1|2:1,2:0:0:0:
401,149,111459,1,14,2:0:0:0:
273,233,111664,2,8,L|220:233,2,35,8|8|8,2:1|2:1|2:1,2:1:0:0:
410,233,111869,2,0,L|519:233,1,105,14|10,2:0|2:1,2:0:0:0:
229,353,112282,5,12,2:1:0:0:
393,354,112488,2,0,P|432:324|337:234,1,210,8|8,2:1|2:1,2:0:0:0:
194,227,113109,1,10,2:1:0:0:
357,226,113316,2,0,L|357:111,1,105,10|8,2:1|2:0,2:0:0:0:
80,107,113730,6,0,L|297:106,1,210,10|10,2:1|2:1,2:0:0:0:
163,94,114345,1,8,2:0:0:0:
357,75,114549,2,0,L|356:203,1,105,10|8,2:1|2:1,2:0:0:0:
175,236,114964,2,0,L|314:238,1,105,10|8,2:1|2:0,2:0:0:0:
428,243,115386,1,10,2:1:0:0:
145,340,115598,5,12,2:0:0:0:
278,327,115799,1,10,2:1:0:0:
411,314,116000,1,8,2:1:0:0:
184,250,116202,1,8,2:0:0:0:
317,237,116403,1,8,2:1:0:0:
450,224,116614,1,10,2:1:0:0:
129,165,116825,1,8,2:0:0:0:
327,151,117030,1,10,2:1:0:0:
195,115,117235,5,10,2:1:0:0:
468,66,117441,2,0,L|329:66,1,105,8|8,2:0|2:0,2:0:0:0:
472,71,117847,2,0,L|402:71,1,52.5,8|8,2:1|2:1,2:0:0:0:
242,343,118048,2,0,L|124:344,1,105,8|8,2:0|2:1,2:0:0:0:
184,333,118317,1,8,2:1:0:0:
230,327,118384,1,8,2:1:0:0:
369,313,118451,1,8,2:0:0:0:
470,313,118645,2,0,L|394:312,1,52.5,8|8,2:0|2:0,2:0:0:0:
224,360,118840,6,0,P|203:337|306:246,1,210,14|8,2:1|2:0,2:0:0:0:
150,228,119477,2,0,L|68:232,1,52.5,10|0,2:1|2:0,2:0:0:0:
150,228,119684,2,0,L|281:210,1,105,10|10,2:1|2:1,2:0:0:0:
72,42,120098,2,0,L|70:152,1,105,8|10,2:0|2:1,2:0:0:0:
338,165,120512,6,0,L|140:209,1,157.5,10|0,2:1|2:0,2:0:0:0:
280,214,120909,2,0,L|405:234,1,105,10|8,2:0|2:1,2:0:0:0:
211,353,121306,2,0,L|199:241,1,105,10|10,2:1|2:1,2:0:0:0:
362,247,121716,2,0,L|372:127,1,105,8|10,2:0|2:1,2:0:0:0:
84,109,122127,6,0,L|207:109,2,105,8|10|8,2:1|2:1|2:0,2:0:0:0:
253,43,122742,2,0,L|346:39,1,52.5,8|0,2:1|2:0,2:0:0:0:
235,123,122946,2,0,L|120:127,1,105,8|8,2:1|2:1,2:0:0:0:
304,214,123354,2,0,L|319:96,1,105,8|10,2:0|2:1,2:0:0:0:
257,101,123660,1,0,2:0:0:0:
74,99,123762,6,0,P|34:129|103:195,1,157.5,10|0,2:1|2:0,2:0:0:0:
186,198,124180,2,0,L|71:231,1,105,10|8,2:0|2:1,2:0:0:0:
148,229,124493,1,8,2:1:0:0:
326,271,124598,1,14,2:0:0:0:
195,332,124807,2,0,L|285:332,1,52.5,10|8,2:1|2:1,2:0:0:0:
442,330,125016,2,0,L|449:208,1,105,12|8,2:0|2:1,2:0:0:0:
173,209,125434,6,0,P|142:176|254:91,1,210,12|8,2:1|2:0,2:0:0:0:
353,79,126050,1,8,2:1:0:0:
174,216,126255,1,10,2:1:0:0:
333,217,126461,2,0,L|336:104,1,105,10|8,2:1|2:0,2:0:0:0:
69,110,126872,6,0,P|29:156|146:229,1,210,10|10,2:1|2:1,2:0:0:0:
257,249,127488,1,8,2:0:0:0:
100,351,127694,2,0,L|94:291,1,52.5,10|8,2:1|2:1,2:0:0:0:
279,278,127899,1,8,2:1:0:0:
326,235,128002,1,8,2:1:0:0:
329,171,128105,1,10,2:1:0:0:
284,126,128207,1,8,2:1:0:0:
221,126,128310,1,8,2:0:0:0:
402,123,128512,1,8,2:1:0:0:
137,223,128715,5,12,2:0:0:0:
286,222,128923,1,8,2:1:0:0:
137,223,129131,1,8,2:1:0:0:
349,329,129340,1,8,2:0:0:0:
200,328,129548,1,8,2:1:0:0:
349,329,129759,1,8,2:1:0:0:
74,353,129970,2,0,L|71:235,1,105,8|8,2:0|2:1,2:0:0:0:
354,226,130364,5,10,2:0:0:0:
217,224,130570,1,10,2:1:0:0:
396,172,130777,2,0,L|527:175,1,105,10|8,2:1|2:0,2:0:0:0:
219,339,131169,2,0,L|353:339,1,105,10|8,2:1|2:1,2:0:0:0:
390,337,131467,1,8,2:1:0:0:
219,259,131566,2,0,L|86:257,1,105,10|10,2:0|2:1,2:0:0:0:
377,163,131972,6,0,L|252:161,2,105,14|10|8,2:1|2:1|2:0,2:0:0:0:
243,247,132599,2,0,L|172:252,1,52.5,10|8,2:1|2:1,2:0:0:0:
367,315,132807,2,0,L|425:326,1,52.5,10|8,2:1|2:1,2:0:0:0:
345,356,133016,2,0,L|290:364,1,52.5,10|8,2:1|2:1,2:0:0:0:
489,312,133224,2,0,L|495:201,1,105,8|10,2:0|2:1,2:0:0:0:
221,206,133634,6,0,L|338:208,1,105,10|10,2:1|2:1,2:0:0:0:
266,200,133943,1,0,2:0:0:0:
132,288,134045,2,0,L|19:286,1,105,10|10,2:0|2:1,2:0:0:0:
326,241,134456,2,0,P|357:210|276:141,1,157.5,10|0,2:1|2:0,2:0:0:0:
202,144,134856,2,0,L|329:139,1,105,10|10,2:0|2:1,2:0:0:0:
33,261,135266,6,0,L|154:263,2,105,12|10|8,2:1|2:1|2:0,2:0:0:0:
214,215,135913,2,0,L|221:130,1,52.5,10|8,2:1|2:1,2:0:0:0:
121,137,136129,2,0,L|12:119,1,105,8|8,2:1|2:1,2:0:0:0:
289,64,136521,2,0,L|407:53,1,105,8|8,2:0|2:1,2:0:0:0:
103,298,136937,6,0,L|-11:266,2,105,10|10|10,2:1|2:1|2:0,2:0:0:0:
269,301,137562,2,0,L|174:287,1,52.5,8|8,2:0|2:0,2:0:0:0:
27,262,137771,2,0,L|39:143,1,105,10|8,2:0|2:1,2:0:0:0:
102,158,138077,1,0,2:0:0:0:
268,149,138179,2,0,L|382:144,1,105,10|10,2:0|2:1,2:0:0:0:
58,49,138587,6,0,L|49:283,1,210,14|8,2:1|2:0,2:0:0:0:
155,288,139199,1,10,2:1:0:0:
323,302,139403,2,0,L|215:320,1,105,10|10,2:1|2:1,2:0:0:0:
409,369,139811,2,0,L|527:387,1,105,8|10,2:0|2:1,2:0:0:0:
457,369,140117,1,8,2:1:0:0:
291,348,140219,5,10,2:1:0:0:
270,301,140321,1,8,2:1:0:0:
293,256,140423,1,10,2:1:0:0:
342,245,140525,1,8,2:1:0:0:
156,244,140627,2,0,L|17:245,1,105,10|10,2:0|2:1,2:0:0:0:
243,151,141035,1,10,2:1:0:0:
114,149,141250,1,10,2:1:0:0:
293,184,141466,1,10,2:0:0:0:
12,237,141670,1,10,2:1:0:0:
330,282,141875,5,14,2:0:0:0:
196,357,142080,2,0,L|328:357,1,105,8|8,2:1|2:1,2:0:0:0:
30,280,142489,1,8,2:0:0:0:
186,218,142694,2,0,L|54:218,1,105,8|8,2:1|2:1,2:0:0:0:
358,147,143112,2,0,L|506:148,1,105,8|10,2:0|2:1,2:0:0:0:
414,164,143425,1,2,2:0:0:0:
195,284,143530,6,0,L|182:159,1,105,10|10,2:1|2:0,2:0:0:0:
375,204,143948,2,0,L|244:187,1,105,10|10,2:0|2:1,2:0:0:0:
229,184,144227,1,8,2:1:0:0:
270,190,144297,1,8,2:1:0:0:
411,107,144367,2,0,L|424:232,1,105,10|8,2:0|2:1,2:0:0:0:
124,238,144775,2,0,L|111:363,1,105,10|10,2:0|2:1,2:0:0:0:
430,369,145183,6,0,P|457:338|348:241,1,231.000007049561,14|8,2:1|2:0,2:0:0:0:
488,229,145792,2,0,L|392:228,1,57.7500017623902,10|8,2:1|2:1,2:0:0:0:
312,294,145995,2,0,L|451:297,1,115.50000352478,10|10,2:1|2:1,2:0:0:0:
241,364,146401,2,0,L|94:364,1,115.50000352478,8|10,2:0|2:1,2:0:0:0:
452,213,146807,6,0,L|298:214,2,115.50000352478,10|10|10,2:1|2:1|2:0,2:0:0:0:
303,135,147431,2,0,L|215:135,1,57.7500017623902,8|8,2:1|2:1,2:0:0:0:
445,31,147636,2,0,L|440:111,3,57.7500017623902,10|8|8|8,2:1|2:1|2:1|2:1,2:0:0:0:
260,217,148047,2,0,L|179:223,1,57.7500017623902,10|0,2:0|2:0,2:0:0:0:
272,291,148253,2,0,L|336:301,1,57.7500017623902,10|8,2:1|2:1,2:0:0:0:
137,354,148460,6,0,L|-12:360,2,115.50000352478,14|10|8,2:1|2:1|2:0,2:0:0:0:
283,357,149074,1,10,2:1:0:0:
107,316,149274,2,0,P|81:284|183:236,1,173.250005287171,10|0,2:1|2:0,2:0:0:0:
356,215,149674,2,0,L|493:211,1,115.50000352478,8|10,2:0|2:1,2:0:0:0:
412,204,149974,1,0,2:0:0:0:
215,202,150074,6,0,L|92:200,1,115.50000352478,10|10,2:1|2:1,2:0:0:0:
164,186,150382,1,0,2:0:0:0:
232,176,150484,1,10,2:0:0:0:
39,93,150690,2,0,L|112:94,1,57.7500017623902,8|8,2:1|2:1,2:0:0:0:
259,201,150895,1,10,2:0:0:0:
113,201,151101,1,8,2:1:0:0:
380,330,151306,2,0,L|381:208,1,115.50000352478,10|8,2:0|2:1,2:0:0:0:
350,214,151566,1,0,2:0:0:0:
103,354,151722,6,0,L|340:353,1,210,12|10,2:1|2:0,2:0:0:0:
172,341,152344,1,10,2:1:0:0:
48,342,152552,2,0,L|30:212,1,115.50000352478,8|8,2:1|2:1,2:0:0:0:
180,202,152967,2,0,L|32:202,1,115.50000352478,8|10,2:0|2:1,2:0:0:0:
343,104,153382,6,0,P|389:144|291:228,1,231.000007049561,8|8,2:1|2:0,2:0:0:0:
464,239,154002,2,0,L|470:108,1,115.50000352478,10|10,2:1|2:1,2:0:0:0:
345,117,154405,1,10,2:1:0:0:
497,36,154606,2,0,L|354:25,1,115.50000352478,10|8,2:0|2:1,2:0:0:0:
102,201,155022,6,0,P|70:173|149:98,1,173.250005287171,10|0,2:1|2:0,2:0:0:0:
271,89,155431,2,0,L|112:93,1,115.50000352478,10|8,2:0|2:1,2:0:0:0:
13,96,155841,1,8,2:1:0:0:
316,199,156045,1,8,2:0:0:0:
46,342,156250,2,0,L|33:211,1,115.50000352478,8|10,2:0|2:1,2:0:0:0:
100,218,156557,1,0,2:0:0:0:
312,235,156660,2,0,L|395:236,1,57.7500017623902,10|0,2:0|2:0,2:0:0:0:
283,321,156865,2,0,L|213:321,1,57.7500017623902,8|0,2:1|2:0,2:0:0:0:
429,362,157069,6,0,P|457:329|393:278,1,115.50000352478,10|8,2:0|2:1,2:0:0:0:
138,269,157479,2,0,L|292:269,1,115.50000352478,10|8,2:0|2:1,2:0:0:0:
111,182,157898,1,8,2:0:0:0:
380,180,158103,1,10,2:1:0:0:
66,82,158308,5,14,2:1:0:0:
123,362,171253,6,0,L|117:291,1,57.7500017623902,0|0,2:0|2:0,2:0:0:0:
286,295,171456,5,10,2:1:0:0:
328,267,171558,1,8,2:1:0:0:
336,217,171660,1,8,2:1:0:0:
303,178,171762,1,8,2:1:0:0:
252,177,171864,1,10,2:1:0:0:
201,176,171966,1,8,2:1:0:0:
168,137,172068,1,8,2:1:0:0:
175,87,172170,1,8,2:1:0:0:
218,59,172272,1,10,2:1:0:0:
275,56,172374,2,0,L|266:133,1,52.5,8|10,2:1|2:1,2:0:0:0:
218,131,172578,1,8,2:1:0:0:
137,136,172680,2,0,L|199:135,1,52.5,8|8,2:1|2:1,2:0:0:0:
245,193,172880,2,0,L|321:192,1,52.5,10|8,2:1|2:1,2:0:0:0:
196,326,173080,5,8,2:1:0:0:
173,280,173181,1,8,2:1:0:0:
194,234,173282,1,10,2:1:0:0:
243,222,173384,1,8,2:1:0:0:
315,222,173485,2,0,L|235:222,1,52.5,10|8,2:1|2:1,2:0:0:0:
190,278,173688,2,0,L|265:277,1,52.5,10|8,2:1|2:1,2:0:0:0:
343,329,173890,2,0,P|394:308|328:205,1,210,10|10,2:1|2:1,2:0:0:0:
460,184,174498,2,0,L|377:183,1,52.5,10|8,2:1|2:1,2:0:0:0:
207,309,174701,5,10,2:1:0:0:
166,257,174806,1,8,2:1:0:0:
198,199,174912,1,8,2:1:0:0:
262,199,175017,1,8,2:1:0:0:
172,190,175123,2,0,L|88:188,1,52.5,10|8,2:1|2:1,2:0:0:0:
186,118,175334,2,0,L|246:118,1,52.5,8|8,2:1|2:1,2:0:0:0:
155,45,175546,1,10,2:1:0:0:
93,61,175648,1,8,2:1:0:0:
67,119,175750,1,10,2:1:0:0:
95,176,175852,1,8,2:1:0:0:
157,190,175954,1,8,2:1:0:0:
218,204,176056,1,8,2:1:0:0:
247,260,176158,1,10,2:1:0:0:
220,318,176260,1,8,2:1:0:0:
158,333,176362,6,0,L|152:261,1,52.5,8|8,2:1|2:1,2:0:0:0:
228,261,176566,2,0,L|222:189,1,52.5,8|8,2:1|2:1,2:0:0:0:
153,190,176770,2,0,L|159:118,1,52.5,10|8,2:1|2:1,2:0:0:0:
83,118,176974,2,0,L|89:46,1,52.5,10|8,2:1|2:1,2:0:0:0:
169,60,177178,2,0,L|241:51,1,52.5,8|8,2:1|2:1,2:0:0:0:
169,60,177383,2,0,L|241:51,1,52.5,10|8,2:1|2:1,2:0:0:0:
273,89,177588,1,8,2:1:0:0:
279,152,177691,1,8,2:1:0:0:
234,196,177794,1,10,2:1:0:0:
170,189,177897,1,8,2:1:0:0:
355,338,177999,6,0,P|390:312|319:241,1,157.5,10|8,2:1|2:1,2:0:0:0:
232,235,178404,2,0,L|330:235,1,52.5,8|8,2:1|2:1,2:0:0:0:
360,281,178607,2,0,L|283:281,1,52.5,8|8,2:1|2:1,2:0:0:0:
223,282,178809,5,10,2:1:0:0:
193,240,178911,1,8,2:1:0:0:
207,191,179012,1,10,2:1:0:0:
254,173,179113,1,8,2:1:0:0:
337,168,179215,2,0,L|412:171,1,52.5,8|8,2:1|2:1,2:0:0:0:
318,95,179424,2,0,L|246:97,1,52.5,10|8,2:1|2:1,2:0:0:0:
369,29,179634,5,8,2:1:0:0:
410,80,179739,1,8,2:1:0:0:
382,141,179844,1,10,2:1:0:0:
316,143,179949,1,8,2:1:0:0:
198,134,180054,1,8,2:1:0:0:
156,185,180159,1,8,2:1:0:0:
184,246,180265,1,10,2:1:0:0:
250,248,180370,1,8,2:1:0:0:
179,315,180476,6,0,L|111:315,1,52.5,8|8,2:1|2:1,2:0:0:0:
224,255,180680,2,0,L|308:256,1,52.5,10|8,2:1|2:1,2:0:0:0:
174,224,180885,1,8,2:1:0:0:
144,163,180987,1,8,2:1:0:0:
181,108,181090,1,10,2:1:0:0:
248,112,181192,1,8,2:1:0:0:
454,115,181295,6,0,L|445:195,1,52.5,8|8,2:1|2:1,2:0:0:0:
383,210,181499,2,0,L|301:210,1,52.5,10|8,2:1|2:1,2:0:0:0:
404,286,181704,2,0,L|486:286,1,52.5,8|8,2:1|2:1,2:0:0:0:
382,275,181921,1,10,2:1:0:0:
347,217,182030,1,8,2:1:0:0:
377,158,182138,5,8,2:1:0:0:
431,155,182243,1,8,2:1:0:0:
485,154,182349,1,10,2:1:0:0:
431,155,182454,1,8,2:1:0:0:
253,232,182560,2,0,L|170:235,1,52.5,8|8,2:1|2:1,2:0:0:0:
276,313,182761,2,0,L|344:310,1,52.5,10|8,2:1|2:1,2:0:0:0:
100,375,182962,6,0,L|90:252,1,105,10|10,2:0|2:0,2:0:0:0:
361,250,183386,1,8,2:1:0:0:
79,196,183788,5,10,2:0:0:0:
352,195,183990,1,10,2:0:0:0:
77,197,184191,1,8,2:1:0:0:
19,196,184291,1,8,2:1:0:0:
77,197,184391,1,8,2:0:0:0:
384,65,184592,6,0,L|372:212,1,105,14|10,2:1|2:1,2:0:0:0:
301,55,184913,1,0,2:0:0:0:
94,235,185020,2,0,P|73:204|177:148,1,157.5,10|8,2:0|2:0,2:0:0:0:
336,134,185449,2,0,L|468:135,1,105,10|8,2:1|2:1,2:0:0:0:
336,134,185877,1,10,2:0:0:0:
64,315,186083,6,0,L|201:314,1,105,10|8,2:1|2:1,2:0:0:0:
314,318,186490,1,10,2:1:0:0:
49,235,186690,2,0,L|49:105,1,105,10|10,2:0|2:1,2:0:0:0:
243,134,186990,1,8,2:0:0:0:
320,139,187090,2,0,L|183:139,1,105,10|8,2:1|2:1,2:0:0:0:
14,232,187490,2,0,L|151:232,1,105,10|8,2:0|2:1,2:0:0:0:
404,361,187900,5,14,2:1:0:0:
259,363,188106,2,0,L|326:364,1,52.5,10|0,2:1|2:0,2:0:0:0:
477,365,188313,2,0,L|489:238,1,105,10|8,2:0|2:1,2:0:0:0:
304,255,188624,1,8,2:0:0:0:
221,251,188727,2,0,L|347:252,2,105,10|8|10,2:1|2:1|2:0,2:0:0:0:
486,158,189339,1,10,2:1:0:0:
372,154,189538,2,0,L|484:154,1,105,8|10,2:1|2:1,2:0:0:0:
214,319,189948,2,0,L|98:319,1,105,10|10,2:0|2:1,2:0:0:0:
397,263,190359,6,0,L|407:147,1,105,10|8,2:0|2:1,2:0:0:0:
134,126,190770,6,0,L|124:10,1,105,10|8,2:0|2:1,2:0:0:0:
404,41,191181,6,0,L|279:41,2,105,14|8|8,2:1|2:1|2:0,2:0:0:0:
232,197,191795,1,10,2:1:0:0:
425,200,191897,2,0,L|495:199,1,52.5,8|10,2:0|2:1,2:0:0:0:
308,292,192204,1,8,2:1:0:0:
469,292,192409,2,0,L|468:177,1,105,8|10,2:0|2:1,2:0:0:0:
402,187,192716,1,0,2:0:0:0:
202,184,192819,5,10,2:1:0:0:
306,183,193027,2,0,L|189:184,1,105,10|8,2:1|2:0,2:0:0:0:
25,183,193444,1,10,2:1:0:0:
202,184,193548,1,8,2:3:0:0:
259,185,193652,1,8,2:1:0:0:
128,189,193860,2,0,L|127:52,1,105,10|8,2:1|2:0,2:0:0:0:
300,84,194271,2,0,L|377:84,1,52.5,10|8,2:1|2:1,2:0:0:0:
169,299,194474,6,0,L|37:300,2,105,8|10|8,2:1|2:1|2:0,2:0:0:0:
354,299,195094,2,0,L|359:232,2,52.5,8|8|8,2:1|2:3|2:1,2:0:0:0:
209,296,195508,1,10,2:1:0:0:
476,296,195715,1,10,2:0:0:0:
207,370,195919,6,0,L|122:369,2,52.5,10|8|12,2:1|2:1|2:1,2:0:0:0:
472,315,196326,2,0,L|324:316,1,105,10|8,2:1|2:0,2:0:0:0:
492,243,196733,2,0,L|414:243,1,52.5,10|8,2:1|2:3,2:0:0:0:
257,299,196936,2,0,L|394:300,1,105,10|8,2:1|2:1,2:0:0:0:
77,354,197343,2,0,L|77:231,1,105,10|8,2:0|2:1,2:0:0:0:
348,189,197750,6,0,L|203:189,1,105,14|10,2:1|2:1,2:0:0:0:
301,177,198062,1,0,2:0:0:0:
481,169,198166,2,0,P|494:220|406:257,1,157.5,10|8,2:0|2:0,2:0:0:0:
211,332,198583,2,0,L|98:332,2,105,10|8|10,2:1|2:1|2:0,2:0:0:0:
486,337,199200,6,0,L|484:209,1,105,10|8,2:1|2:1,2:0:0:0:
345,232,199606,1,10,2:1:0:0:
80,223,199813,2,0,L|217:224,1,105,10|10,2:0|2:1,2:0:0:0:
349,217,200124,1,8,2:0:0:0:
413,209,200227,2,0,L|289:208,1,105,10|8,2:1|2:1,2:0:0:0:
490,140,200641,2,0,L|491:28,1,105,10|8,2:0|2:1,2:0:0:0:
195,36,201049,5,14,2:1:0:0:
326,36,201263,2,0,L|397:36,1,52.5,10|0,2:1|2:0,2:0:0:0:
326,36,201477,2,0,L|192:32,1,105,10|8,2:0|2:1,2:0:0:0:
391,146,201799,1,8,2:3:0:0:
448,147,201906,2,0,L|310:146,2,105,10|8|10,2:1|2:1|2:0,2:0:0:0:
179,278,202535,2,0,L|90:277,1,52.5,10|8,2:1|2:3,2:0:0:0:
179,278,202736,5,12,2:1:0:0:
330,281,202944,2,0,L|396:282,1,52.5,10|0,2:1|2:0,2:0:0:0:
202,353,203152,2,0,L|83:353,1,105,10|10,2:0|2:1,2:0:0:0:
159,347,203465,1,8,2:3:0:0:
385,302,203569,6,0,L|395:186,1,105,10|8,2:0|2:1,2:0:0:0:
104,166,203963,6,0,L|94:50,1,105,10|8,2:0|2:1,2:0:0:0:
394,61,204358,6,0,L|251:60,2,105,14|8|8,2:1|2:1|2:0,2:0:0:0:
258,195,204974,1,10,2:1:0:0:
431,198,205073,1,8,2:0:0:0:
489,199,205171,1,10,2:1:0:0:
357,197,205375,1,8,2:1:0:0:
493,194,205579,2,0,L|493:326,1,105,8|10,2:0|2:1,2:0:0:0:
305,329,205869,1,8,2:0:0:0:
241,330,205966,5,10,2:1:0:0:
408,277,206181,2,0,L|408:159,1,105,10|8,2:1|2:0,2:0:0:0:
250,167,206598,2,0,L|327:166,1,52.5,2|2,2:3|2:3,2:0:0:0:
216,79,206799,2,0,L|136:78,2,52.5,2|2|10,2:3|2:3|2:1,2:0:0:0:
491,77,207202,1,8,2:0:0:0:
367,174,207403,2,0,L|294:173,1,52.5,2|2,2:3|2:3,2:0:0:0:
103,271,207604,6,0,L|257:271,2,105,12|10|8,2:1|2:1|2:0,2:0:0:0:
294,209,208222,1,8,2:1:0:0:
20,200,208428,1,8,2:0:0:0:
294,209,208634,2,0,L|295:355,1,105,10|10,2:1|2:1,2:0:0:0:
22,352,209042,6,0,L|22:230,1,105,10|8,2:0|2:1,2:0:0:0:
329,337,209453,2,0,L|176:337,1,105,10|8,2:0|2:0,2:0:0:0:
336,276,209874,1,10,2:1:0:0:
47,230,210085,2,0,L|128:230,1,52.5,10|8,2:0|2:0,2:0:0:0:
316,155,210290,2,0,L|250:155,1,52.5,8|8,2:0|2:0,2:0:0:0:
46,158,210495,1,10,2:0:0:0:
11,100,210596,1,8,2:0:0:0:
40,40,210697,1,8,2:0:0:0:
108,28,210799,1,8,2:0:0:0:
297,33,210900,6,0,L|136:30,1,115.50000352478,14|10,2:1|2:1,2:0:0:0:
252,69,211208,1,0,2:0:0:0:
453,75,211310,2,0,P|482:135|376:173,1,173.250005287171,10|8,2:0|2:0,2:0:0:0:
235,275,211721,2,0,L|377:274,1,115.50000352478,10|8,2:1|2:1,2:0:0:0:
235,275,212146,1,10,2:0:0:0:
407,196,212350,2,0,L|334:197,1,57.7500017623902,10|0,2:1|2:0,2:0:0:0:
146,359,212554,6,0,L|8:358,1,115.50000352478,8|10,2:1|2:1,2:0:0:0:
94,342,212877,1,0,2:0:0:0:
293,329,212985,2,0,L|426:329,1,115.50000352478,10|10,2:0|2:1,2:0:0:0:
106,256,213387,1,10,2:1:0:0:
75,209,213489,1,8,2:1:0:0:
94,158,213592,1,8,2:1:0:0:
148,144,213695,1,8,2:1:0:0:
358,147,213797,1,10,2:0:0:0:
214,199,214006,2,0,L|291:199,1,57.7500017623902,8|0,2:1|2:0,2:0:0:0:
472,278,214216,6,0,L|321:278,1,115.50000352478,14|10,2:1|2:1,2:0:0:0:
302,277,214531,1,0,2:0:0:0:
475,182,214636,2,0,L|474:315,1,115.50000352478,10|8,2:0|2:1,2:0:0:0:
296,350,214940,1,8,2:0:0:0:
212,349,215041,6,0,L|76:349,2,115.50000352478,10|8|10,2:1|2:1|2:0,2:0:0:0:
47,278,215679,1,10,2:1:0:0:
47,278,215883,1,8,2:1:0:0:
329,279,216087,2,0,L|420:277,2,57.7500017623902,10|0|10,2:1|2:0|2:0,2:0:0:0:
152,297,216499,2,0,L|95:297,2,38.5000011749268,10|8|8,2:1|2:1|2:1,2:0:0:0:
337,297,216707,6,0,L|339:150,1,115.50000352478,10|8,2:0|2:1,2:0:0:0:
283,181,217021,1,0,2:0:0:0:
81,181,217126,5,10,2:0:0:0:
81,181,217336,1,0,0:0:0:0:
375,272,217546,6,0,L|227:272,2,115.50000352478,14|8|8,2:1|2:1|2:0,2:0:0:0:
180,183,218156,1,10,2:1:0:0:
346,182,218257,2,0,L|346:99,1,57.7500017623902,8|10,2:0|2:1,2:0:0:0:
180,183,218562,1,8,2:1:0:0:
461,109,218766,2,0,L|463:253,1,115.50000352478,8|10,2:0|2:1,2:0:0:0:
172,349,219173,5,10,2:1:0:0:
336,353,219373,2,0,L|337:198,1,115.50000352478,10|8,2:1|2:0,2:0:0:0:
170,233,219777,1,10,2:1:0:0:
356,236,219879,2,0,L|463:236,1,57.7500017623902,8|8,2:0|2:1,2:0:0:0:
290,335,220189,2,0,L|447:337,1,115.50000352478,10|8,2:1|2:0,2:0:0:0:
128,266,220606,1,10,2:1:0:0:
254,267,220803,6,0,L|119:266,1,125.999996154785,12|10,2:1|2:1,2:0:0:0:
448,211,221205,2,0,L|448:75,1,125.999996154785,8|8,2:0|2:1,2:0:0:0:
151,83,221629,2,0,L|296:82,1,105,8|10,2:0|2:1,2:0:0:0:
151,83,222037,1,10,0:1:0:0:
431,185,222231,6,0,L|281:182,1,115.50000352478,10|8,2:0|2:1,2:0:0:0:
26,287,222628,2,0,L|157:286,1,115.50000352478,10|8,2:1|2:0,2:0:0:0:
292,285,223034,1,10,2:1:0:0:
22,364,223236,1,10,2:1:0:0:
288,353,223445,2,0,L|159:353,1,115.50000352478,8|10,2:0|2:0,2:0:0:0:
232,344,223757,1,8,2:0:0:0:
395,339,223860,2,0,L|302:340,1,57.7500017623902,8|8,2:0|2:0,2:0:0:0:
113,225,224065,5,14,2:1:0:0:
257,224,224276,2,0,L|257:88,1,105,10|10,2:1|2:0,2:0:0:0:
107,114,224698,1,8,2:1:0:0:
281,111,224804,1,8,2:0:0:0:
343,112,224910,2,0,L|194:114,1,105,10|8,2:1|2:1,2:0:0:0:
365,38,225323,1,10,2:0:0:0:
91,206,225530,6,0,L|218:206,1,105,10|8,2:1|2:1,2:0:0:0:
348,327,225944,2,0,L|221:327,1,105,10|10,2:1|2:0,2:0:0:0:
103,331,226339,2,0,L|194:331,1,52.5,10|8,2:1|2:0,2:0:0:0:
356,360,226528,2,0,L|372:242,1,105,10|8,2:1|2:1,2:0:0:0:
174,254,226947,2,0,L|154:147,1,105,10|8,2:0|2:1,2:0:0:0:
438,162,227367,6,0,L|288:159,2,105,14|10|10,2:1|2:1|2:0,2:0:0:0:
275,85,227983,1,8,2:1:0:0:
477,86,228082,2,0,L|478:178,1,52.5,8|10,2:0|2:1,2:0:0:0:
324,196,228395,2,0,L|448:198,1,105,8|10,2:1|2:0,2:0:0:0:
130,333,228804,6,0,L|-4:335,1,105,10|8,2:1|2:1,2:0:0:0:
217,258,229210,2,0,L|217:125,1,105,10|10,2:1|2:0,2:0:0:0:
9,186,229619,1,10,2:1:0:0:
290,186,229815,5,10,2:1:0:0:
9,186,230234,5,10,2:0:0:0:
486,186,230654,6,0,P|494:243|365:306,1,210,14|8,2:1|2:0,2:0:0:0:
236,309,231270,1,10,2:1:0:0:
402,307,231373,2,0,L|490:308,1,52.5,8|10,2:0|2:1,2:0:0:0:
275,222,231681,2,0,L|408:223,1,105,8|8,2:1|2:0,2:0:0:0:
218,160,232092,1,10,2:1:0:0:
499,161,232297,5,10,2:1:0:0:
360,165,232503,2,0,L|361:44,1,105,10|8,2:1|2:0,2:0:0:0:
501,60,232917,1,10,2:1:0:0:
340,219,233021,2,0,L|244:218,1,52.5,8|8,2:0|2:1,2:0:0:0:
468,320,233331,2,0,L|326:321,1,105,10|8,2:1|2:0,2:0:0:0:
468,320,233738,1,10,2:1:0:0:
155,360,233938,5,12,2:1:0:0:
426,366,234142,2,0,L|426:245,1,105,10|8,2:0|2:0,2:0:0:0:
298,257,234550,1,8,2:1:0:0:
31,242,234754,2,0,L|172:242,1,105,8|10,2:0|2:1,2:0:0:0:
420,240,235164,1,10,2:1:0:0:
121,349,235370,6,0,L|267:349,1,105,10|8,2:0|2:1,2:0:0:0:
496,244,235781,2,0,L|358:244,1,105,10|8,2:0|2:0,2:0:0:0:
236,240,236197,2,0,L|235:164,1,52.5,10|8,2:1|2:1,2:0:0:0:
398,153,236408,1,10,2:0:0:0:
507,154,236619,1,8,2:1:0:0:
444,154,236725,1,8,2:1:0:0:
262,153,236831,2,0,L|136:153,1,105,10|8,2:0|2:1,2:0:0:0:
504,5,237259,5,14,2:1:0:0:
256,192,237464,12,0,245478,2:0:0:0:
