osu file format v14

[General]
AudioFilename: audio.mp3
AudioLeadIn: 0
PreviewTime: 79211
Countdown: 0
SampleSet: Soft
StackLeniency: 0.7
Mode: 2
LetterboxInBreaks: 0
WidescreenStoryboard: 1

[Editor]
DistanceSpacing: 1.1
BeatDivisor: 4
GridSize: 32
TimelineZoom: 1.6

[Metadata]
Title:Sex Sells
TitleUnicode:Sex Sells
Artist:Lovejoy
ArtistUnicode:Lovejoy
Creator:Crowley
Version:platter
Source:
Tags:Are You Alright? Wilbur Soot Joe Goldsmith Mark Boardman Ash Kabosu LVJY English Indie Rock midorijeon Male Vocals
BeatmapID:3200425
BeatmapSetID:1467467

[Difficulty]
HPDrainRate:5
CircleSize:3.8
OverallDifficulty:7.8
ApproachRate:7.8
SliderMultiplier:1.9
SliderTickRate:2

[Events]
//Background and Video events
0,0,"94504995_p0.jpg",0,0
//Break Periods
2,15304,26005
2,161598,170474
//Storyboard Layer 0 (Background)
//Storyboard Layer 1 (Fail)
//Storyboard Layer 2 (Pass)
//Storyboard Layer 3 (Foreground)
//Storyboard Layer 4 (Overlay)
//Storyboard Sound Samples

[TimingPoints]
503,410.958904109589,4,2,1,75,1,0
605,-100,4,2,21,75,0,0
913,-100,4,2,8,75,0,0
1119,-100,4,2,2,75,0,0
1324,-100,4,2,8,75,0,0
1530,-100,4,2,2,75,0,0
1633,-100,4,2,25,75,0,0
1735,402.684563758389,4,2,25,75,1,0
1835,-100,4,2,2,75,0,0
2137,416.666666666667,4,2,8,75,1,0
2345,-100,4,2,2,75,0,0
2449,-100,4,2,25,75,0,0
2553,410.958904109589,4,2,25,75,1,0
2655,-100,4,2,2,75,0,0
2963,-100,4,2,8,75,0,0
3066,-100,4,2,2,75,0,0
3373,-100,4,2,8,75,0,0
3580,-100,4,2,2,75,0,0
3785,413.793103448276,4,2,8,75,1,0
3888,-100,4,2,21,75,0,0
4198,-100,4,2,8,75,0,0
4405,-100,4,2,2,75,0,0
4612,-100,4,2,8,75,0,0
4819,-100,4,2,2,75,0,0
4922,-100,4,2,25,75,0,0
5129,-100,4,2,2,75,0,0
5440,389.61038961039,4,2,8,75,1,0
5634,-100,4,2,2,75,0,0
5829,419.58041958042,4,2,25,75,1,0
5933,-100,4,2,2,75,0,0
6248,-100,4,2,9,75,0,0
6352,-100,4,2,8,75,0,0
6458,405.405405405406,4,2,8,75,1,0
6659,405.405405405406,4,2,8,75,1,0
6760,-100,4,2,2,75,0,0
6861,-100,4,2,12,75,0,0
7066,412.371134020619,4,2,2,75,1,0
7169,-100,4,2,21,75,0,0
7478,-100,4,2,8,75,0,0
7684,-100,4,2,2,75,0,0
7890,-100,4,2,8,75,0,0
8096,-100,4,2,2,75,0,0
8200,-100,4,2,25,75,0,0
8406,-100,4,2,2,75,0,0
8715,408.163265306123,4,2,8,75,1,0
8919,-100,4,2,2,75,0,0
9021,-100,4,2,25,75,0,0
9225,-100,4,2,2,75,0,0
9531,-100,4,2,8,75,0,0
9633,-100,4,2,2,75,0,0
9939,-100,4,2,8,75,0,0
10347,406.77966101695,4,2,8,75,1,0
10448,-100,4,2,21,75,0,0
10753,-100,4,2,8,75,0,0
10957,-100,4,2,2,75,0,0
11160,419.58041958042,4,2,8,75,1,0
11369,-100,4,2,2,75,0,0
11474,-100,4,2,25,75,0,0
11579,413.793103448276,4,2,25,75,1,0
11682,-100,4,2,2,75,0,0
11992,409.556313993174,4,2,8,75,1,0
12196,-100,4,2,12,75,0,0
12299,-100,4,2,2,75,0,0
12400,-100,4,2,12,75,0,0
12503,-100,4,2,2,75,0,0
12811,-100,4,2,8,75,0,0
13015,-100,4,2,6,75,0,0
13118,-100,4,2,2,75,0,0
13220,425.531914893617,4,2,6,75,1,0
13432,-100,4,2,2,75,0,0
13647,405.405405405406,4,2,2,60,1,0
15268,419.58041958042,4,2,2,60,1,0
16107,413.793103448276,4,2,2,60,1,0
16520,416.666666666667,4,2,2,60,1,0
16936,418.118466898955,4,2,2,60,1,0
18608,389.61038961039,4,2,2,60,1,0
18997,408.163265306123,4,2,2,60,1,0
19405,413.793103448276,4,2,2,60,1,0
19818,402.68456375839,4,2,2,60,1,0
20220,410.958904109589,4,2,2,60,1,0
21863,411.663807890223,4,2,2,60,1,0
23509,408.85860306644,4,2,2,60,1,0
25144,410.958904109589,4,2,2,60,1,0
26376,408.163265306122,4,2,2,60,1,0
26784,408.163265306122,4,2,1,70,1,0
26886,-100,4,2,21,70,0,0
27192,-100,4,2,6,70,0,0
27396,-100,4,2,2,70,0,0
27600,419.58041958042,4,2,6,70,1,0
27809,-100,4,2,2,70,0,0
27914,-100,4,2,23,70,0,0
28019,413.793103448276,4,2,23,70,1,0
28122,-100,4,2,2,70,0,0
28432,-100,4,2,6,70,0,0
28536,-100,4,2,2,70,0,0
28846,-100,4,2,6,70,0,0
28950,-100,4,2,2,70,0,0
29260,419.58041958042,4,2,6,70,1,0
29364,-100,4,2,2,70,0,0
29679,410.958904109589,4,2,6,70,1,0
29884,-100,4,2,2,70,0,0
30089,408.163265306122,4,2,6,70,1,0
30293,-100,4,2,2,70,0,0
30497,-100,4,2,6,70,0,0
30599,-100,4,2,21,70,0,0
30905,-100,4,2,6,70,0,0
31109,-100,4,2,2,70,0,0
31313,-100,4,2,6,70,0,0
31415,-100,4,2,2,70,0,0
31721,413.793103448276,4,2,6,70,1,0
31927,-100,4,2,2,70,0,0
32134,-100,4,2,6,70,0,0
32341,-100,4,2,2,70,0,0
32548,-100,4,2,6,70,0,0
32755,-100,4,2,2,70,0,0
32961,-100,4,2,6,70,0,0
33065,-100,4,2,2,70,0,0
33479,-100,4,2,21,70,0,0
33789,-100,4,2,6,70,0,0
33996,-100,4,2,2,70,0,0
34203,-100,4,2,6,70,0,0
34410,-100,4,2,2,70,0,0
34616,-100,4,2,6,70,0,0
34824,-100,4,2,2,70,0,0
34927,-100,4,2,24,70,0,0
35031,408.163265306122,4,2,24,70,1,0
35133,-100,4,2,2,70,0,0
35439,-100,4,2,6,70,0,0
35643,-100,4,2,2,70,0,0
35847,-100,4,2,6,70,0,0
36051,-100,4,2,2,70,0,0
36255,402.684563758389,4,2,6,70,1,0
36456,-100,4,2,2,70,0,0
36657,410.958904109589,4,2,6,70,1,0
36862,-100,4,2,2,70,0,0
37067,-100,4,2,6,70,0,0
37273,-100,4,2,2,70,0,0
37376,-100,4,2,24,70,0,0
37581,-100,4,2,2,70,0,0
37889,402.684563758389,4,2,6,70,1,0
38090,-100,4,2,2,70,0,0
38291,412.371134020619,4,2,6,70,1,0
38497,-100,4,2,2,70,0,0
38703,-100,4,2,6,70,0,0
38806,-100,4,2,2,70,0,0
39115,-100,4,2,6,70,0,0
39218,-100,4,2,2,70,0,0
39528,-100,4,2,6,70,0,0
39734,-100,4,2,2,70,0,0
39940,408.163265306122,4,2,2,65,1,0
40450,-100,4,2,2,50,0,0
40756,-100,4,2,2,65,0,0
40858,-100,4,2,2,50,0,0
41164,-100,4,2,2,65,0,0
41266,-100,4,2,2,50,0,0
41572,409.556313993174,4,2,2,65,1,0
41674,-100,4,2,2,50,0,0
41981,-100,4,2,2,65,0,0
42083,-100,4,2,2,50,0,0
42391,-100,4,2,2,65,0,0
42595,-100,4,2,2,50,0,0
42799,-100,4,2,2,65,0,0
43005,-100,4,2,2,50,0,0
43210,410.958904109589,4,2,2,65,1,0
43312,-100,4,2,2,50,0,0
43620,-100,4,2,2,65,0,0
43723,-100,4,2,2,50,0,0
44031,416.666666666667,4,2,2,65,1,0
44135,-100,4,2,2,50,0,0
44447,410.958904109589,4,2,2,65,1,0
44549,-100,4,2,2,50,0,0
44857,408.163265306122,4,2,3,65,1,0
44959,-100,4,2,2,50,0,0
45265,412.371134020619,4,2,2,65,1,0
45368,-100,4,2,2,50,0,0
45677,-100,4,2,5,65,0,0
45780,-100,4,2,5,50,0,0
46089,-100,4,2,5,65,0,0
46192,-100,4,2,5,50,0,0
46502,408.163265306122,4,2,2,65,1,0
46604,-100,4,2,2,50,0,0
46910,405.405405405405,4,2,2,65,1,0
47011,-100,4,2,2,50,0,0
47315,-100,4,2,2,65,0,0
47416,-100,4,2,2,50,0,0
47720,419.58041958042,4,2,2,65,1,0
47929,-100,4,2,2,50,0,0
48139,413.793103448276,4,2,2,65,1,0
48345,-100,4,2,2,50,0,0
48552,-100,4,2,2,65,0,0
48759,-100,4,2,2,50,0,0
48966,410.958904109589,4,2,2,65,1,0
49171,-100,4,2,2,50,0,0
49376,-100,4,2,2,65,0,0
49582,-100,4,2,2,50,0,0
49787,410.958904109589,4,2,2,65,1,0
49889,-100,4,2,2,50,0,0
50197,-100,4,2,2,65,0,0
50403,-100,4,2,2,50,0,0
50608,-100,4,2,2,65,0,0
50711,-100,4,2,2,50,0,0
51019,424.028268551237,4,2,2,65,1,0
51125,-100,4,2,2,50,0,0
51443,-100,4,2,2,70,0,0
52281,379.746835443038,4,2,2,70,1,0
52375,-100,4,2,2,50,0,0
52660,408.163265306122,4,2,2,50,1,0
52864,-100,4,2,3,50,0,0
53068,425.531914893617,4,2,1,70,1,1
53068,-106.382978723404,4,2,1,70,0,1
53174,-106.382978723404,4,2,21,70,0,1
53387,-106.382978723404,4,2,1,70,0,1
53493,419.58041958042,4,2,6,70,1,0
53702,-100,4,2,2,70,0,0
53912,416.666666666667,4,2,6,70,1,0
54016,-100,4,2,21,70,0,0
54328,-100,4,2,6,70,0,0
54537,-100,4,2,2,70,0,0
54753,410.958904109589,4,2,6,70,1,0
54855,-100,4,2,21,70,0,0
55163,-100,4,2,6,70,0,0
55369,-100,4,2,2,70,0,0
55574,-100,4,2,6,70,0,0
55677,-100,4,2,2,70,0,0
55985,405.405405405405,4,2,6,70,1,0
56187,-100,4,2,2,70,0,0
56390,400,4,2,6,70,1,0
56590,-100,4,2,2,70,0,0
56790,413.793103448276,4,2,6,70,1,0
56893,-100,4,2,2,70,0,0
57203,408.163265306122,4,2,6,70,1,0
57305,-100,4,2,21,70,0,0
57611,-100,4,2,6,70,0,0
57815,-100,4,2,2,70,0,0
58019,413.793103448276,4,2,3,70,1,0
58122,-100,4,2,21,70,0,0
58432,416.666666666667,4,2,6,70,1,0
58640,-100,4,2,2,70,0,0
58848,408.163265306122,4,2,6,70,1,0
59052,-100,4,2,2,70,0,0
59256,-100,4,2,6,70,0,0
59358,-100,4,2,2,70,0,0
59664,410.958904109589,4,2,2,70,1,0
60074,-100,4,2,6,70,0,0
60280,-100,4,2,2,70,0,0
60383,-100,4,2,24,70,0,0
60588,-100,4,2,2,70,0,0
60896,425.531914893617,4,2,6,70,1,0
61002,-100,4,2,2,70,0,0
61321,416.666666666667,4,2,6,70,1,0
61425,-100,4,2,21,70,0,0
61737,410.958904109589,4,2,6,70,1,0
61942,-100,4,2,2,70,0,0
62147,405.405405405405,4,2,6,70,1,0
62349,-100,4,2,2,70,0,0
62451,-100,4,2,23,70,0,0
62653,-100,4,2,2,70,0,0
62957,-100,4,2,6,70,0,0
63059,-100,4,2,21,70,0,0
63363,416.666666666667,4,2,6,70,1,0
63571,-100,4,2,2,70,0,0
63779,410.958904109589,4,2,6,70,1,0
63881,-100,4,2,2,70,0,0
64189,-100,4,2,6,70,0,0
64292,-100,4,2,2,70,0,0
64600,408.163265306122,4,2,3,70,1,0
65008,-100,4,2,6,70,0,0
65110,-100,4,2,2,70,0,0
65416,-100,4,2,6,70,0,0
65518,-100,4,2,2,70,0,0
65824,416.666666666667,4,2,6,70,1,0
65928,-100,4,2,2,70,0,0
66240,419.58041958042,4,2,1,65,1,0
66659,413.793103448276,4,2,1,65,1,0
66762,-100,4,2,1,50,0,0
67072,400,4,2,1,65,1,0
67172,-100,4,2,1,50,0,0
67472,389.61038961039,4,2,1,65,1,0
67666,-100,4,2,1,50,0,0
67861,405.405405405405,4,2,1,65,1,0
68063,-100,4,2,1,50,0,0
68266,410.958904109589,4,2,1,65,1,0
68471,-100,4,2,1,50,0,0
68676,-100,4,2,1,65,0,0
68779,-100,4,2,2,50,0,0
69087,-100,4,2,2,65,0,0
69189,-100,4,2,2,50,0,0
69498,422.535211267606,4,2,2,65,1,0
69603,-100,4,2,2,50,0,0
69920,405.405405405405,4,2,2,65,1,0
70021,-100,4,2,2,50,0,0
70325,419.58041958042,4,2,2,65,1,0
70534,-100,4,2,2,50,0,0
70744,-100,4,2,2,65,0,0
70954,-100,4,2,2,50,0,0
71164,410.958904109589,4,2,2,65,1,0
71369,-100,4,2,2,50,0,0
71574,-100,4,2,2,65,0,0
71676,-100,4,2,2,50,0,0
71985,-100,4,2,2,65,0,0
72087,-100,4,2,2,50,0,0
72396,-100,4,2,2,65,0,0
72498,-100,4,2,2,50,0,0
72809,405.405405405405,4,2,2,65,1,0
72910,-100,4,2,2,50,0,0
73214,-100,4,2,2,65,0,0
73417,-100,4,2,2,50,0,0
73619,-100,4,2,2,65,0,0
73720,-100,4,2,2,50,0,0
74025,408.163265306122,4,2,2,65,1,0
74127,-100,4,2,2,50,0,0
74433,410.958904109589,4,2,2,65,1,0
74535,-100,4,2,2,50,0,0
74843,-100,4,2,2,65,0,0
75049,-100,4,2,2,50,0,0
75254,-100,4,2,2,65,0,0
75356,-100,4,2,2,50,0,0
75665,-100,4,2,2,65,0,0
75768,-100,4,2,2,50,0,0
76076,408.163265306122,4,2,2,65,1,0
76178,-100,4,2,2,50,0,0
76484,-100,4,2,2,65,0,0
76688,-100,4,2,2,50,0,0
76892,416.666666666667,4,2,2,65,1,0
76996,-100,4,2,2,50,0,0
77308,408.163265306122,4,2,2,65,1,0
77410,-100,4,2,2,50,0,0
77716,408.163265306122,4,2,2,70,1,0
77920,405.405405405405,4,2,2,70,1,0
78528,458.015267175573,4,2,2,70,1,0
79385,419.58041958042,4,2,1,80,1,1
79804,-100,4,2,10,80,0,1
79909,-100,4,2,21,80,0,1
80118,-100,4,2,2,80,0,1
80224,-100,4,2,10,80,0,1
80329,-100,4,2,21,80,0,1
80643,408.163265306122,4,2,10,80,1,1
80847,-100,4,2,2,80,0,1
81051,402.684563758389,4,2,10,80,1,1
81252,-100,4,2,2,80,0,1
81453,-100,4,2,10,80,0,1
81554,-100,4,2,2,80,0,1
81856,-100,4,2,10,80,0,1
81957,-100,4,2,21,80,0,1
82258,-100,4,2,10,80,0,1
82661,422.535211267606,4,2,2,80,1,1
83083,416.666666666667,4,2,10,80,1,1
83187,-100,4,2,21,80,0,1
83395,-100,4,2,2,80,0,1
83499,-100,4,2,10,80,0,1
83603,-100,4,2,21,80,0,1
83916,410.958904109589,4,2,10,80,1,1
84121,-100,4,2,2,80,0,1
84326,410.958904109589,4,2,10,80,1,1
84531,-100,4,2,2,80,0,1
84736,-100,4,2,10,80,0,1
84839,-100,4,2,2,80,0,1
85147,425.531914893617,4,2,2,80,1,0
85997,402.684563758389,4,2,5,80,1,1
86097,-100,4,2,21,80,0,1
86399,-100,4,2,10,80,0,1
86601,-100,4,2,2,80,0,1
86802,-100,4,2,10,80,0,1
86903,-100,4,2,21,80,0,1
87204,-100,4,2,10,80,0,1
87406,-100,4,2,2,80,0,1
87607,413.793103448276,4,2,10,80,1,1
87813,-100,4,2,2,80,0,1
88019,-100,4,2,10,80,0,1
88227,-100,4,2,2,80,0,1
88434,-100,4,2,10,80,0,1
88641,-100,4,2,2,80,0,1
88848,422.535211267606,4,2,10,80,1,1
89059,-100,4,2,2,80,0,1
89270,416.666666666667,4,2,3,80,1,1
89686,419.58041958042,4,2,10,80,1,1
89790,-100,4,2,21,80,0,1
90000,-100,4,2,2,80,0,1
90105,405.405405405405,4,2,10,80,1,1
90206,-100,4,2,2,80,0,1
90510,410.958904109589,4,2,10,80,1,1
90715,-100,4,2,2,80,0,1
90920,-100,4,2,5,80,0,1
91334,416.666666666667,4,2,5,80,1,1
91750,428.571428571429,4,2,2,80,1,1
92178,408.163265306122,4,2,2,80,1,1
92382,-100,4,2,5,80,0,0
92586,410.958904109589,4,2,1,80,1,1
92996,-100,4,2,10,80,0,1
93099,-100,4,2,21,80,0,1
93304,-100,4,2,2,80,0,1
93407,-100,4,2,10,80,0,1
93510,-100,4,2,21,80,0,1
93817,-100,4,2,10,80,0,1
94024,-100,4,2,2,80,0,1
94229,413.793103448276,4,2,10,80,1,1
94435,-100,4,2,2,80,0,1
94642,-100,4,2,10,80,0,1
94746,-100,4,2,2,80,0,1
95056,400,4,2,10,80,1,1
95156,-100,4,2,21,80,0,1
95456,405.405405405405,4,2,10,80,1,1
95861,405.405405405405,4,2,2,80,1,1
96266,-100,4,2,10,80,0,1
96367,-100,4,2,21,80,0,1
96570,-100,4,2,2,80,0,1
96671,-100,4,2,10,80,0,1
96773,-100,4,2,21,80,0,1
97077,402.684563758389,4,2,10,80,1,1
97278,-100,4,2,2,80,0,1
97479,410.958904109589,4,2,10,80,1,1
97684,-100,4,2,2,80,0,1
97889,-100,4,2,10,80,0,1
97992,-100,4,2,2,80,0,1
98300,416.666666666667,4,2,2,80,1,0
99133,410.958904109589,4,2,3,80,1,1
99235,-100,4,2,21,80,0,1
99543,-100,4,2,10,80,0,1
99749,-100,4,2,2,80,0,1
99954,-100,4,2,10,80,0,1
100057,-100,4,2,21,80,0,1
100364,-100,4,2,10,80,0,1
100571,-100,4,2,2,80,0,1
100776,409.556313993174,4,2,10,80,1,1
100980,-100,4,2,2,80,0,1
101184,-100,4,2,10,80,0,1
101390,-100,4,2,2,80,0,1
101595,-100,4,2,10,80,0,1
101799,-100,4,2,2,80,0,1
102003,-100,4,2,10,80,0,1
102209,-100,4,2,2,80,0,1
102414,408.163265306122,4,2,10,80,1,1
102618,-100,4,2,2,80,0,1
103026,-100,4,2,10,80,0,1
103230,419.58041958042,4,2,2,80,1,1
103649,-100,4,2,10,80,0,1
103859,-100,4,2,2,80,0,1
104069,410.958904109589,4,2,2,80,1,1
104274,400,4,2,2,80,1,1
104674,400,4,2,6,80,1,1
104874,400,4,2,2,80,1,1
105477,433.996383363472,4,2,3,80,1,1
105693,408.163265306122,4,2,1,70,1,0
105999,-100,4,2,23,70,0,0
106203,-100,4,2,2,70,0,0
106509,416.666666666667,4,2,6,70,1,0
106613,-100,4,2,2,70,0,0
106925,-100,4,2,6,70,0,0
107029,-100,4,2,2,70,0,0
107336,416.666666666667,4,2,6,70,1,0
107440,-100,4,2,21,70,0,0
107752,402.684563758389,4,2,6,70,1,0
108356,-100,4,2,2,70,0,0
108557,-100,4,2,6,70,0,0
108758,-100,4,2,2,70,0,0
108960,405.405405405405,4,2,6,70,1,0
109162,-100,4,2,2,70,0,0
109364,-100,4,2,6,70,0,0
109568,-100,4,2,2,70,0,0
109770,437.956204379562,4,2,6,70,1,0
109988,-100,4,2,2,70,0,0
110098,-100,4,2,23,70,0,0
110207,413.793103448276,4,2,23,70,1,0
110310,-100,4,2,2,70,0,0
110620,-100,4,2,6,70,0,0
110724,-100,4,2,2,70,0,0
111033,-100,4,2,6,70,0,0
111241,-100,4,2,2,70,0,0
111459,410.958904109589,4,2,2,50,1,0
111869,-100,4,2,3,50,0,0
112282,413.793103448276,4,2,2,50,1,0
112592,-100,4,2,23,70,0,0
112799,-100,4,2,2,70,0,0
113109,-100,4,2,6,70,0,0
113316,-100,4,2,2,70,0,0
113522,-100,4,2,6,70,0,0
113730,-100,4,2,2,70,0,0
113833,-100,4,2,24,70,0,0
113937,408.163265306122,4,2,24,70,1,0
114039,-100,4,2,2,70,0,0
114345,-100,4,2,6,70,0,0
114549,-100,4,2,2,70,0,0
114753,422.535211267606,4,2,6,70,1,0
114964,-100,4,2,2,70,0,0
115175,-100,4,2,6,70,0,0
115386,-100,4,2,2,70,0,0
115598,402.684563758389,4,2,2,70,1,0
116000,-100,4,2,6,70,0,0
116202,-100,4,2,2,70,0,0
116403,422.535211267606,4,2,6,70,1,0
116614,-100,4,2,2,70,0,0
116825,410.958904109589,4,2,6,70,1,0
116927,-100,4,2,2,70,0,0
117235,-100,4,2,6,70,0,0
117338,-100,4,2,2,70,0,0
117440,-100,4,2,6,70,0,0
117544,-100,4,2,2,70,0,0
117646,402.684563758389,4,2,6,70,1,0
117847,-100,4,2,2,70,0,0
118048,-100,4,2,6,70,0,0
118149,-100,4,2,2,70,0,0
118451,389.610389610389,4,2,6,70,1,0
118548,-100,4,2,2,70,0,0
118840,431.654676258993,4,2,2,70,1,0
118947,-100,4,2,21,70,0,0
119271,413.793103448276,4,2,6,70,1,0
119477,-100,4,2,2,70,0,0
119684,-100,4,2,6,70,0,0
119891,-100,4,2,2,70,0,0
119995,-100,4,2,23,70,0,0
120202,-100,4,2,2,70,0,0
120512,397.350993377483,4,2,6,70,1,0
120611,-100,4,2,2,70,0,0
120909,-100,4,2,6,70,0,0
121008,-100,4,2,2,70,0,0
121306,410.958904109589,4,2,6,70,1,0
121511,-100,4,2,2,70,0,0
121716,-100,4,2,6,70,0,0
121819,-100,4,2,2,70,0,0
122127,-100,4,2,6,70,0,0
122230,-100,4,2,2,70,0,0
122538,408.163265306122,4,2,6,70,1,0
122640,-100,4,2,2,70,0,0
122946,-100,4,2,6,70,0,0
123150,-100,4,2,2,70,0,0
123252,-100,4,2,23,70,0,0
123456,-100,4,2,2,70,0,0
123762,418.118466898954,4,2,6,70,1,0
123866,-100,4,2,2,70,0,0
124180,-100,4,2,6,70,0,0
124284,-100,4,2,2,70,0,0
124598,-100,4,2,6,70,0,0
124702,-100,4,2,2,70,0,0
125016,-100,4,2,3,70,0,0
125434,410.958904109589,4,2,2,70,1,0
125536,-100,4,2,21,70,0,0
125844,-100,4,2,6,70,0,0
126050,-100,4,2,2,70,0,0
126255,-100,4,2,6,70,0,0
126461,-100,4,2,2,70,0,0
126666,-100,4,2,6,70,0,0
126872,-100,4,2,2,70,0,0
126975,-100,4,2,24,70,0,0
127180,-100,4,2,2,70,0,0
127488,-100,4,2,6,70,0,0
127694,-100,4,2,2,70,0,0
127899,-100,4,2,6,70,0,0
128002,-100,4,2,2,70,0,0
128310,405.405405405405,4,2,6,70,1,0
128411,-100,4,2,2,70,0,0
128715,416.666666666666,4,2,2,70,1,0
129131,-100,4,2,6,70,0,0
129340,-100,4,2,2,70,0,0
129548,422.535211267605,4,2,6,70,1,0
129759,-100,4,2,2,70,0,0
129970,394.736842105263,4,2,6,70,1,0
130068,-100,4,2,2,70,0,0
130364,413.793103448276,4,2,6,70,1,0
130467,-100,4,2,2,70,0,0
130777,392.156862745098,4,2,6,70,1,0
130875,-100,4,2,2,70,0,0
131169,397.350993377483,4,2,6,70,1,0
131268,-100,4,2,21,70,0,0
131566,406.779661016949,4,2,6,70,1,0
131769,-100,4,2,2,70,0,0
131972,419.580419580419,4,2,2,70,1,0
132076,-100,4,2,21,70,0,0
132391,416.666666666667,4,2,6,70,1,0
132599,-100,4,2,2,70,0,0
132807,-100,4,2,6,70,0,0
132911,-100,4,2,2,70,0,0
133224,410.958904109589,4,2,6,70,1,0
133326,-100,4,2,2,70,0,0
133634,-100,4,2,6,70,0,0
133737,-100,4,2,2,70,0,0
134044,-100,4,2,6,70,0,0
134251,-100,4,2,2,70,0,0
134456,400,4,2,6,70,1,0
134556,-100,4,2,21,70,0,0
134856,410.958904109589,4,2,6,70,1,0
135061,-100,4,2,2,70,0,0
135266,431.654676258993,4,2,3,70,1,0
135373,-100,4,2,21,70,0,0
135697,-100,4,2,6,70,0,0
135913,-100,4,2,2,70,0,0
136129,392.156862745098,4,2,6,70,1,0
136227,-100,4,2,2,70,0,0
136521,416.666666666667,4,2,6,70,1,0
136625,-100,4,2,2,70,0,0
136937,-100,4,2,6,70,0,0
137041,-100,4,2,2,70,0,0
137353,-100,4,2,6,70,0,0
137562,-100,4,2,2,70,0,0
137771,408.163265306122,4,2,6,70,1,0
137873,-100,4,2,2,70,0,0
138587,408.163265306122,4,2,2,70,1,0
138689,-100,4,2,21,70,0,0
138995,-100,4,2,6,70,0,0
139199,-100,4,2,2,70,0,0
139403,-100,4,2,6,70,0,0
139505,-100,4,2,21,70,0,0
139811,-100,4,2,6,70,0,0
140015,-100,4,2,2,70,0,0
140219,-100,4,2,6,70,0,0
140321,-100,4,2,2,70,0,0
140627,-100,4,2,6,70,0,0
140831,-100,4,2,2,70,0,0
141035,431.654676258993,4,2,6,70,1,0
141142,-100,4,2,2,70,0,0
141466,409.556313993174,4,2,6,70,1,0
141568,-100,4,2,2,70,0,0
141977,-100,4,2,21,70,0,0
142284,-100,4,2,6,70,0,0
142489,-100,4,2,2,70,0,0
142694,418.118466898955,4,2,6,70,1,0
142798,-100,4,2,2,70,0,0
143112,-100,4,2,6,70,0,0
143321,-100,4,2,2,70,0,0
143530,-100,4,2,6,70,0,0
143634,-100,4,2,2,70,0,0
143948,419.580419580419,4,2,6,70,1,0
144157,-100,4,2,2,70,0,0
144367,408.163265306122,4,2,6,70,1,0
144469,-100,4,2,21,70,0,0
144775,-100,4,2,6,70,0,0
144979,-100,4,2,2,70,0,0
145183,406.091370558376,4,2,2,70,1,0
145284,-100,4,2,21,70,0,0
145589,-100,4,2,6,70,0,0
145792,-100,4,2,2,70,0,0
145995,-100,4,2,6,70,0,0
146096,-100,4,2,2,70,0,0
146401,-100,4,2,6,70,0,0
146502,-100,4,2,2,70,0,0
146807,419.580419580419,4,2,6,70,1,0
146911,-100,4,2,2,70,0,0
147226,410.958904109589,4,2,6,70,1,0
147328,-100,4,2,2,70,0,0
147636,-100,4,2,6,70,0,0
147739,-100,4,2,21,70,0,0
148047,413.793103448276,4,2,6,70,1,0
148253,-100,4,2,2,70,0,0
148460,-100,4,2,3,70,0,0
148564,-100,4,2,21,70,0,0
148874,400,4,2,6,70,1,0
149074,-100,4,2,2,70,0,0
149274,-100,4,2,6,70,0,0
149374,-100,4,2,2,70,0,0
149674,-100,4,2,6,70,0,0
149774,-100,4,2,2,70,0,0
150074,410.958904109589,4,2,6,70,1,0
150176,-100,4,2,2,70,0,0
150484,-100,4,2,6,70,0,0
150587,-100,4,2,2,70,0,0
150895,-100,4,2,6,70,0,0
150998,-100,4,2,2,70,0,0
151306,416.666666666667,4,2,6,70,1,0
151410,-100,4,2,2,70,0,0
151722,415.22491349481,4,2,2,70,1,0
151825,-100,4,2,21,70,0,0
152137,-100,4,2,6,70,0,0
152344,-100,4,2,2,70,0,0
152552,-100,4,2,6,70,0,0
152656,-100,4,2,21,70,0,0
152967,-100,4,2,6,70,0,0
153175,-100,4,2,2,70,0,0
153382,419.580419580419,4,2,6,70,1,0
153486,-100,4,2,21,70,0,0
153801,402.684563758389,4,2,6,70,1,0
154002,-100,4,2,2,70,0,0
154203,-100,4,2,6,70,0,0
154304,-100,4,2,2,70,0,0
154606,416.666666666667,4,2,6,70,1,0
154710,-100,4,2,2,70,0,0
155022,409.556313993174,4,2,6,70,1,0
155124,-100,4,2,2,70,0,0
155431,-100,4,2,6,70,0,0
155533,-100,4,2,21,70,0,0
155840,-100,4,2,6,70,0,0
156045,-100,4,2,2,70,0,0
156250,-100,4,2,6,70,0,0
156353,-100,4,2,2,70,0,0
156660,-100,4,2,6,70,0,0
156762,-100,4,2,2,70,0,0
157069,-100,4,2,6,70,0,0
157172,-100,4,2,2,70,0,0
157479,419.580419580419,4,2,6,70,1,0
157688,-100,4,2,2,70,0,0
157898,410.958904109589,4,2,6,70,1,0
158103,-100,4,2,2,70,0,0
158308,410.958904109589,4,2,1,60,1,0
171456,408.163265306122,4,2,1,60,1,0
171558,-100,4,2,2,45,0,0
171864,-100,4,2,2,60,0,0
171966,-100,4,2,2,45,0,0
172272,-100,4,2,2,60,0,0
172374,-100,4,2,2,45,0,0
172680,400,4,2,2,60,1,0
172780,-100,4,2,2,45,0,0
173080,405.405405405405,4,2,2,60,1,0
173181,-100,4,2,2,45,0,0
173485,-100,4,2,2,60,0,0
173586,-100,4,2,2,45,0,0
173890,-100,4,2,2,60,0,0
173992,-100,4,2,2,45,0,0
174295,-100,4,2,2,60,0,0
174498,-100,4,2,2,45,0,0
174701,422.535211267606,4,2,2,60,1,0
174806,-100,4,2,2,45,0,0
175123,-100,4,2,2,60,0,0
175229,-100,4,2,2,45,0,0
175546,408.163265306122,4,2,2,60,1,0
175750,-100,4,2,2,45,0,0
175954,-100,4,2,2,60,0,0
176056,-100,4,2,2,45,0,0
176362,-100,4,2,2,60,0,0
176566,-100,4,2,2,45,0,0
176770,-100,4,2,2,60,0,0
176974,-100,4,2,2,45,0,0
177178,410.958904109589,4,2,2,60,1,0
177280,-100,4,2,2,45,0,0
177588,-100,4,2,2,60,0,0
177690,-100,4,2,2,45,0,0
177999,405.405405405405,4,2,2,60,1,0
178100,-100,4,2,2,45,0,0
178404,-100,4,2,2,60,0,0
178505,-100,4,2,2,45,0,0
178809,-100,4,2,2,60,0,0
178911,-100,4,2,2,45,0,0
179215,419.58041958042,4,2,2,60,1,0
179319,-100,4,2,2,45,0,0
179634,-100,4,2,2,60,0,0
179739,-100,4,2,2,45,0,0
180054,422.535211267606,4,2,2,60,1,0
180265,-100,4,2,2,45,0,0
180476,409.556313993174,4,2,2,60,1,0
180578,-100,4,2,2,45,0,0
180885,-100,4,2,2,60,0,0
180987,-100,4,2,2,45,0,0
181295,-100,4,2,2,60,0,0
181397,-100,4,2,2,45,0,0
181704,434.782608695652,4,2,2,60,1,0
181921,-100,4,2,2,45,0,0
182138,422.535211267606,4,2,2,60,1,0
182243,-100,4,2,2,45,0,0
182560,402.684563758389,4,2,2,60,1,0
182660,-100,4,2,2,45,0,0
182962,424.028268551237,4,2,2,75,1,0
183386,402.684563758389,4,2,2,75,1,0
184191,401.33779264214,4,2,2,75,1,0
184592,428.571428571429,4,2,1,80,1,1
185020,-100,4,2,10,80,0,1
185127,-100,4,2,21,80,0,1
185341,-100,4,2,2,80,0,1
185449,-100,4,2,10,80,0,1
185556,-100,4,2,21,80,0,1
185877,413.793103448276,4,2,10,80,1,1
186083,-100,4,2,2,80,0,1
186187,-100,4,2,26,80,0,1
186290,400,4,2,26,80,1,1
186390,-100,4,2,2,80,0,1
186690,-100,4,2,10,80,0,1
186790,-100,4,2,2,80,0,1
187090,-100,4,2,10,80,0,1
187190,-100,4,2,21,80,0,1
187490,410.958904109589,4,2,10,80,1,1
187900,413.793103448276,4,2,3,80,1,1
188313,-100,4,2,10,80,0,1
188417,-100,4,2,21,80,0,1
188623,-100,4,2,2,80,0,1
188727,-100,4,2,10,80,0,1
188831,-100,4,2,21,80,0,1
189141,397.350993377483,4,2,10,80,1,1
189339,-100,4,2,2,80,0,1
189538,410.958904109589,4,2,10,80,1,1
189743,-100,4,2,2,80,0,1
189948,-100,4,2,10,80,0,1
190051,-100,4,2,2,80,0,1
190359,-100,4,2,2,80,0,0
191181,409.556313993174,4,2,5,80,1,1
191283,-100,4,2,21,80,0,1
191590,-100,4,2,10,80,0,1
191795,-100,4,2,2,80,0,1
192000,-100,4,2,10,80,0,1
192102,-100,4,2,21,80,0,1
192409,-100,4,2,10,80,0,1
192614,-100,4,2,2,80,0,1
192819,416.666666666667,4,2,10,80,1,1
193027,-100,4,2,2,80,0,1
193235,-100,4,2,10,80,0,1
193444,-100,4,2,2,80,0,1
193652,-100,4,2,10,80,0,1
193860,-100,4,2,2,80,0,1
194069,405.405405405405,4,2,10,80,1,1
194271,-100,4,2,2,80,0,1
194474,413.793103448276,4,2,10,80,1,1
194577,-100,4,2,2,80,0,1
194887,-100,4,2,10,80,0,1
195094,-100,4,2,2,80,0,1
195301,-100,4,2,10,80,0,1
195508,-100,4,2,2,80,0,1
195715,408.163265306122,4,2,10,80,1,1
195919,-100,4,2,2,80,0,1
196123,406.779661016949,4,2,2,80,1,1
196529,-100,4,2,10,80,0,1
196733,-100,4,2,2,80,0,1
196936,-100,4,2,10,80,0,1
197038,-100,4,2,2,80,0,1
197343,-100,4,2,10,80,0,1
197445,-100,4,2,2,80,0,1
197546,-100,4,2,2,80,0,0
197750,416.666666666667,4,2,1,80,1,1
198166,-100,4,2,10,80,0,1
198270,-100,4,2,21,80,0,1
198478,-100,4,2,2,80,0,1
198583,-100,4,2,10,80,0,1
198687,-100,4,2,21,80,0,1
199000,400,4,2,10,80,1,1
199200,-100,4,2,2,80,0,1
199300,-100,4,2,26,80,0,1
199400,413.793103448276,4,2,26,80,1,1
199503,-100,4,2,2,80,0,1
199813,-100,4,2,10,80,0,1
199917,-100,4,2,2,80,0,1
200227,-100,4,2,10,80,0,1
200331,-100,4,2,21,80,0,1
200641,408.163265306122,4,2,10,80,1,1
201049,428.571428571429,4,2,3,80,1,1
201477,-100,4,2,10,80,0,1
201584,-100,4,2,21,80,0,1
201798,-100,4,2,2,80,0,1
201906,-100,4,2,10,80,0,1
202013,-100,4,2,21,80,0,1
202334,402.684563758389,4,2,10,80,1,1
202535,-100,4,2,2,80,0,1
202636,-100,4,2,3,80,0,1
202736,416.666666666667,4,2,2,80,1,1
203152,-100,4,2,10,80,0,1
203256,-100,4,2,2,80,0,1
203569,394.736842105263,4,2,2,80,1,0
204358,419.58041958042,4,2,5,80,1,1
204462,-100,4,2,21,80,0,1
204777,394.736842105263,4,2,10,80,1,1
204974,-100,4,2,2,80,0,1
205171,408.163265306122,4,2,10,80,1,1
205273,-100,4,2,21,80,0,1
205579,387.096774193548,4,2,10,80,1,1
205772,-100,4,2,2,80,0,1
205966,431.654676258993,4,2,10,80,1,1
206181,-100,4,2,2,80,0,1
206397,402.684563758389,4,2,10,80,1,1
206598,-100,4,2,11,80,0,1
206699,-100,4,2,10,80,0,1
207202,402.684563758389,4,2,10,80,1,1
207403,-100,4,2,11,80,0,1
207604,412.371134020619,4,2,3,80,1,1
208016,-100,4,2,10,80,0,1
208222,-100,4,2,2,80,0,1
208428,-100,4,2,10,80,0,1
208531,-100,4,2,2,80,0,1
208841,402.684563758389,4,2,10,80,1,1
209042,-100,4,2,2,80,0,1
209243,421.052631578947,4,2,10,80,1,1
209453,-100,4,2,2,80,0,1
209663,-100,4,2,10,80,0,1
209874,-100,4,2,2,80,0,1
210085,410.958904109589,4,2,2,80,1,0
210495,405.405405405405,4,2,2,80,1,0
210900,410.958904109589,4,2,1,80,1,1
211310,-100,4,2,15,80,0,1
211516,-100,4,2,2,80,0,1
211721,425.531914893617,4,2,15,80,1,1
211827,-100,4,2,2,80,0,1
212146,408.163265306122,4,2,15,80,1,1
212350,-103.626943005181,4,2,2,80,0,1
212452,-103.626943005181,4,2,27,80,0,1
212554,431.654676258993,4,2,27,80,1,1
212661,-100,4,2,2,80,0,1
212985,402.68456375839,4,2,15,80,1,1
213085,-100,4,2,2,80,0,1
213387,410.958904109589,4,2,15,80,1,1
213387,-90.9090909090909,4,2,15,80,0,1
213489,-90.9090909090909,4,2,2,80,0,1
213797,419.58041958042,4,2,15,80,1,1
213901,-100,4,2,2,80,0,1
214216,-100,4,2,15,80,0,1
214321,-100,4,2,2,80,0,1
214636,405.405405405406,4,2,15,80,1,1
214737,-100,4,2,2,80,0,1
215041,434.782608695653,4,2,15,80,1,1
215149,-100,4,2,21,80,0,1
215475,408.163265306123,4,2,15,80,1,1
215679,-100,4,2,2,80,0,1
215883,-100,4,2,15,80,0,1
216087,-100,4,2,2,80,0,1
216291,416.666666666667,4,2,15,80,1,1
216499,-100,4,2,2,80,0,1
216707,419.58041958042,4,2,15,80,1,0
216811,-100,4,2,2,80,0,0
217546,406.77966101695,4,2,1,80,1,1
217647,-100,4,2,21,80,0,1
217952,-100,4,2,15,80,0,1
218156,-100,4,2,2,80,0,1
218359,-100,4,2,15,80,0,1
218461,-100,4,2,2,80,0,1
218765,-100,4,2,15,80,0,1
218969,-100,4,2,2,80,0,1
219173,400.000000000001,4,2,15,80,1,1
219373,-100,4,2,2,80,0,1
219573,408.163265306123,4,2,15,80,1,1
219777,-100,4,2,2,80,0,1
219981,416.666666666667,4,2,15,80,1,1
220189,-100,4,2,2,80,0,1
220397,-100,4,2,15,80,0,1
220606,-100,4,2,2,80,0,1
220803,402.684563758389,4,2,15,80,1,1
220803,-83.3333333333333,4,2,15,80,0,1
220903,-83.3333333333333,4,2,2,80,0,1
221205,387.096774193548,4,2,15,80,1,1
221205,-83.3333333333333,4,2,15,80,0,1
221394,-83.3333333333333,4,2,2,80,0,1
221629,408.163265306122,4,2,15,80,1,1
221731,-100,4,2,2,80,0,1
222037,389.61038961039,4,2,15,80,1,1
222231,-100,4,2,2,80,0,1
222426,405.405405405405,4,2,15,80,1,1
222628,-100,4,2,2,80,0,1
222830,-100,4,2,15,80,0,1
223034,-100,4,2,2,80,0,1
223236,419.58041958042,4,2,15,80,1,1
223340,-100,4,2,2,80,0,1
223655,410.958904109589,4,2,2,80,1,0
224065,422.535211267606,4,2,1,75,1,1
224487,-100,4,2,15,75,0,1
224698,-100,4,2,2,75,0,1
224910,413.793103448276,4,2,15,75,1,1
225116,-100,4,2,2,75,0,1
225322,-100,4,2,15,75,0,1
225530,-100,4,2,2,75,0,1
225736,-100,4,2,15,75,0,1
225944,-100,4,2,2,75,0,1
226151,377.358490566038,4,2,15,75,1,1
226339,-100,4,2,2,75,0,1
226528,419.58041958042,4,2,15,75,1,1
226632,-100,4,2,21,75,0,1
226947,-100,4,2,15,75,0,1
227157,-100,4,2,2,75,0,1
227367,-100,4,2,15,75,0,1
227472,-100,4,2,2,75,0,1
227786,394.736842105263,4,2,15,75,1,1
227983,-100,4,2,2,75,0,1
228180,431.654676258993,4,2,15,75,1,1
228287,-100,4,2,2,75,0,1
228611,387.096774193548,4,2,15,75,1,1
228804,-100,4,2,2,75,0,1
228998,425.531914893617,4,2,15,75,1,1
229210,-100,4,2,2,75,0,1
229423,392.156862745098,4,2,15,75,1,1
229619,-100,4,2,2,75,0,1
229815,419.58041958042,4,2,15,75,1,1
229919,-100,4,2,2,75,0,1
230234,-100,4,2,2,75,0,0
230654,410.958904109589,4,2,1,75,1,1
230756,-100,4,2,21,75,0,1
231064,-100,4,2,15,75,0,1
231270,-100,4,2,2,75,0,1
231475,-100,4,2,15,75,0,1
231578,-100,4,2,21,75,0,1
231885,-100,4,2,15,75,0,1
232092,-100,4,2,2,75,0,1
232297,413.793103448276,4,2,15,75,1,1
232503,-100,4,2,2,75,0,1
232709,-100,4,2,15,75,0,1
232917,-100,4,2,2,75,0,1
233124,-100,4,2,15,75,0,1
233331,-100,4,2,2,75,0,1
233538,400,4,2,15,75,1,1
233738,-100,4,2,2,75,0,1
233938,408.163265306122,4,2,15,75,1,1
234040,-100,4,2,2,75,0,1
234346,-100,4,2,15,75,0,1
234550,-100,4,2,2,75,0,1
234754,410.958904109589,4,2,15,75,1,1
234856,-100,4,2,2,75,0,1
235164,-100,4,2,15,75,0,1
235267,-100,4,2,2,75,0,1
235575,-100,4,2,15,75,0,1
235678,-100,4,2,2,75,0,1
235986,422.535211267606,4,2,15,75,1,1
236091,-100,4,2,2,75,0,1
236408,-100,4,2,15,75,0,1
236619,-100,4,2,2,75,0,1
236831,428.571428571429,4,2,15,75,1,1
236938,-100,4,2,2,75,0,1
237259,410.958904109589,4,2,1,80,1,0
238902,-100,4,2,1,30,0,0
240546,-100,4,2,1,20,0,0
242190,-100,4,2,1,10,0,0
243834,-100,4,2,1,5,0,0

[Colours]
Combo1 : 255,255,128
Combo2 : 128,255,128

[HitObjects]
67,192,503,6,0,L|265:192,1,190,14|8,2:1|2:0,2:0:0:0:
362,192,1119,1,10,2:1:0:0:
257,192,1324,1,10,2:1:0:0:
372,298,1530,2,0,P|414:269|356:164,1,188.150666666667,10|10,2:1|2:1,2:0:0:0:
260,165,2137,5,10,2:1:0:0:
146,164,2345,2,0,L|355:165,1,188.632,10|10,2:1|2:1,2:0:0:0:
137,269,2963,2,0,L|2:269,2,95,10|10|10,2:1|2:1|2:0,2:0:0:0:
251,335,3580,2,0,L|250:256,1,47.5,8|8,2:1|2:0,2:0:0:0:
130,278,3785,6,0,P|105:248|198:156,1,190,10|8,2:1|2:0,2:0:0:0:
287,150,4405,1,10,2:1:0:0:
180,150,4612,1,10,2:1:0:0:
66,152,4819,2,0,L|55:-49,1,190,10|10,2:1|2:1,2:0:0:0:
159,230,5440,5,10,2:1:0:0:
274,232,5634,2,0,L|41:233,1,197.315,10|2,2:1|2:3,2:0:0:0:
285,324,6248,2,0,L|369:323,1,47.5,2|2,2:3|2:3,2:0:0:0:
285,324,6458,1,10,2:1:0:0:
85,372,6659,2,0,L|68:259,1,95,10|8,2:0|2:1,2:0:0:0:
339,245,7066,6,0,P|387:225|332:129,1,190,12|8,2:1|2:0,2:0:0:0:
234,125,7684,1,10,2:1:0:0:
337,125,7890,1,10,2:1:0:0:
223,209,8096,2,0,P|181:183|250:76,1,190,10|10,2:1|2:1,2:0:0:0:
331,78,8715,5,10,2:1:0:0:
446,76,8919,2,0,L|227:75,1,190,10|10,2:1|2:1,2:0:0:0:
455,194,9531,2,0,L|472:84,1,95,10|10,2:1|2:1,2:0:0:0:
364,82,9939,1,10,2:0:0:0:
473,78,10143,2,0,L|383:77,1,47.5,8|2,2:1|2:3,2:0:0:0:
305,193,10347,6,0,P|284:122|376:87,1,190,10|8,2:1|2:0,2:0:0:0:
508,102,10957,1,10,2:1:0:0:
392,98,11160,1,10,2:1:0:0:
285,99,11369,2,0,P|248:134|325:234,1,188.6415,10|10,2:1|2:1,2:0:0:0:
396,237,11992,5,10,2:1:0:0:
196,324,12196,2,0,L|85:324,2,95,10|10|8,2:0|2:0|2:1,2:0:0:0:
296,326,12811,1,10,2:1:0:0:
91,246,13015,2,0,L|74:127,1,95.4639166666667,10|10,2:0|2:0,2:0:0:0:
176,145,13432,2,0,L|238:144,1,47.5,8|0,2:1|2:0,2:0:0:0:
102,84,13647,5,14,2:1:0:0:
48,208,26784,6,0,L|255:209,1,190,14|8,2:1|2:0,2:0:0:0:
342,211,27396,1,10,2:1:0:0:
240,208,27600,1,10,2:1:0:0:
127,298,27809,2,0,P|95:261|191:184,1,188.6415,10|10,2:1|2:1,2:0:0:0:
373,182,28432,6,0,L|391:70,1,95,10|10,2:1|2:1,2:0:0:0:
273,74,28846,2,0,L|436:76,1,142.5,10|0,2:0|2:0,2:0:0:0:
472,79,29260,2,0,L|333:78,2,95,10|8|10,2:1|2:1|2:0,2:0:0:0:
196,259,29884,6,0,L|183:148,1,95,10|8,2:1|2:1,2:0:0:0:
385,147,30293,1,10,2:1:0:0:
493,147,30497,2,0,L|268:145,1,190,8|8,2:0|2:1,2:0:0:0:
410,113,31109,1,8,2:1:0:0:
303,213,31313,2,0,L|173:213,1,95,8|10,2:0|2:1,2:0:0:0:
408,151,31721,5,10,2:1:0:0:
430,46,31927,1,10,2:1:0:0:
312,203,32134,1,10,2:0:0:0:
290,98,32341,1,10,2:1:0:0:
392,77,32548,1,10,2:1:0:0:
194,322,32755,2,0,L|74:323,2,95,10|8|10,2:0|2:0|2:1,2:0:0:0:
464,364,33376,6,0,L|251:363,1,190,12|8,2:1|2:0,2:0:0:0:
378,336,33996,2,0,L|425:336,1,47.5,10|0,2:1|2:0,2:0:0:0:
378,336,34203,1,10,2:1:0:0:
266,333,34410,2,0,L|393:333,1,95,10|8,2:1|2:0,2:0:0:0:
156,272,34824,6,0,P|123:250|186:148,1,189.081666666667,10|10,2:1|2:1,2:0:0:0:
272,154,35439,1,8,2:0:0:0:
165,88,35643,2,0,L|44:88,1,95,10|8,2:1|2:1,2:0:0:0:
183,11,36051,2,0,L|278:11,1,95,10|8,2:1|2:0,2:0:0:0:
183,11,36456,1,10,2:1:0:0:
452,195,36657,5,8,2:0:0:0:
358,195,36862,2,0,L|465:195,1,95,10|8,2:1|2:1,2:0:0:0:
253,347,37273,2,0,P|205:309|284:211,1,190,10|10,2:0|2:1,2:0:0:0:
346,196,37889,1,8,2:0:0:0:
232,187,38090,6,0,L|229:83,1,95,10|8,2:1|2:1,2:0:0:0:
345,80,38497,1,10,2:0:0:0:
146,344,38703,2,0,L|49:337,1,95,10|8,2:0|2:1,2:0:0:0:
321,272,39115,2,0,P|378:256|355:159,1,142.5,10|0,2:0|2:0,2:0:0:0:
312,171,39528,1,10,2:0:0:0:
196,169,39734,1,10,2:1:0:0:
463,40,39940,6,0,P|487:89|369:148,1,190,12|8,2:1|2:1,2:0:0:0:
344,184,40450,1,8,2:1:0:0:
320,236,40552,1,8,2:1:0:0:
339,291,40654,1,8,2:1:0:0:
392,316,40756,6,0,L|461:304,1,47.5,8|8,2:1|2:1,2:0:0:0:
392,316,40960,1,8,2:1:0:0:
277,366,41164,2,0,L|230:357,1,47.5,8|8,2:1|2:1,2:0:0:0:
230,357,41368,2,0,L|277:366,1,47.5,10|8,2:1|2:1,2:0:0:0:
392,316,41572,6,0,L|191:319,1,190,10|8,2:1|2:1,2:0:0:0:
163,296,42083,1,8,2:1:0:0:
202,318,42186,1,8,2:1:0:0:
250,322,42288,1,8,2:1:0:0:
202,318,42391,5,10,2:1:0:0:
87,370,42595,2,0,L|217:369,1,95,8|8,2:1|2:1,2:0:0:0:
60,298,43005,2,0,L|-13:298,1,47.5,10|8,2:1|2:1,2:0:0:0:
133,221,43210,5,12,2:1:0:0:
170,248,43312,1,8,2:1:0:0:
183,293,43415,1,10,2:1:0:0:
166,336,43518,1,8,2:1:0:0:
126,355,43620,2,0,L|18:356,1,95,10|8,2:1|2:1,2:0:0:0:
154,281,44031,6,0,L|225:280,1,47.5,8|8,2:1|2:1,2:0:0:0:
201,280,44239,2,0,L|154:281,1,47.5,8|8,2:1|2:1,2:0:0:0:
101,283,44447,1,8,2:1:0:0:
154,281,44549,1,8,2:1:0:0:
209,280,44652,1,10,2:1:0:0:
412,280,44857,6,0,L|429:173,1,95,14|8,2:1|2:1,2:0:0:0:
376,178,45163,1,8,2:1:0:0:
324,173,45265,2,0,L|307:66,1,95,10|8,2:1|2:1,2:0:0:0:
105,75,45677,6,0,L|22:75,1,47.5,14|8,2:1|2:1,2:0:0:0:
105,75,45883,1,10,2:1:0:0:
213,135,46089,2,0,L|296:135,1,47.5,12|8,2:1|2:1,2:0:0:0:
213,135,46295,1,8,2:1:0:0:
416,307,46502,5,12,2:1:0:0:
457,285,46604,1,8,2:1:0:0:
475,243,46706,1,8,2:1:0:0:
462,198,46808,1,10,2:1:0:0:
423,173,46910,2,0,L|294:170,1,95,8|8,2:1|2:1,2:0:0:0:
439,84,47315,6,0,L|310:81,1,95,10|10,2:1|2:1,2:0:0:0:
297,77,47619,1,8,2:1:0:0:
344,81,47720,1,8,2:1:0:0:
142,275,47929,2,0,L|62:273,1,47.5,10|8,2:1|2:1,2:0:0:0:
143,281,48139,5,8,2:1:0:0:
257,190,48345,2,0,L|337:188,1,47.5,10|8,2:1|2:1,2:0:0:0:
256,196,48552,1,8,2:1:0:0:
142,184,48759,2,0,L|147:123,1,47.5,10|8,2:1|2:1,2:0:0:0:
193,120,48966,5,8,2:1:0:0:
308,108,49171,2,0,L|303:47,1,47.5,10|8,2:1|2:1,2:0:0:0:
257,44,49376,1,8,2:1:0:0:
143,39,49582,2,0,L|85:34,1,47.5,10|8,2:1|2:1,2:0:0:0:
212,8,49787,5,12,2:1:0:0:
226,52,49889,1,8,2:1:0:0:
214,97,49992,1,8,2:1:0:0:
178,127,50095,1,8,2:1:0:0:
131,130,50197,1,8,2:1:0:0:
242,132,50403,1,8,2:1:0:0:
119,282,50608,5,8,2:1:0:0:
79,256,50711,1,8,2:1:0:0:
67,212,50814,1,8,2:1:0:0:
88,170,50917,1,8,2:1:0:0:
155,155,51019,1,8,2:1:0:0:
95,154,51125,1,8,2:1:0:0:
35,156,51231,1,10,2:1:0:0:
310,346,51443,6,0,L|432:344,1,95,10|10,2:0|2:0,2:0:0:0:
353,341,51761,1,8,2:0:0:0:
246,341,51867,2,0,L|166:339,1,47.5,6|8,2:3|2:3,2:0:0:0:
246,341,52079,1,8,2:0:0:0:
443,284,52281,5,10,2:0:0:0:
498,284,52375,1,8,2:0:0:0:
443,284,52470,2,0,L|354:284,1,47.5,4|8,2:3|2:0,2:0:0:0:
300,284,52660,2,0,L|408:284,1,95,10|8,2:0|2:3,2:0:0:0:
109,372,53068,6,0,P|76:343|156:259,1,178.59999727478,12|10,2:1|2:0,2:0:0:0:
234,235,53702,1,10,2:1:0:0:
344,240,53912,2,0,L|137:237,1,190,10|10,2:1|2:0,2:0:0:0:
46,237,54537,2,0,L|119:237,1,47.5,10|0,2:1|2:0,2:0:0:0:
207,237,54753,6,0,P|228:186|111:101,1,190,10|10,2:1|2:0,2:0:0:0:
44,97,55369,1,10,2:1:0:0:
239,35,55574,2,0,L|338:35,1,95,10|10,2:1|2:1,2:0:0:0:
386,37,55883,2,0,L|261:38,1,94.0753333333333,2|2,2:0|2:0,2:0:0:0:
231,37,56187,2,0,L|334:36,1,95.4686666666667,10|10,2:1|2:1,2:0:0:0:
413,37,56590,1,10,2:1:0:0:
226,283,56790,6,0,L|226:166,1,95,10|10,2:0|2:1,2:0:0:0:
282,186,57100,1,0,2:0:0:0:
426,195,57203,2,0,P|477:162|422:58,1,190,10|10,2:1|2:0,2:0:0:0:
336,57,57815,1,10,2:1:0:0:
145,202,58019,6,0,L|359:201,1,190,14|10,2:1|2:0,2:0:0:0:
426,198,58640,1,10,2:1:0:0:
334,201,58848,2,0,L|248:202,2,47.5,10|0|10,2:1|2:0|2:1,2:0:0:0:
426,198,59256,2,0,L|427:303,1,95,10|10,2:0|2:1,2:0:0:0:
149,353,59664,5,12,2:1:0:0:
254,360,59869,2,0,L|253:251,1,95,10|10,2:1|2:0,2:0:0:0:
141,256,60280,2,0,P|106:228|198:151,1,190,10|8,2:1|2:1,2:0:0:0:
298,143,60896,2,0,L|432:144,1,95,8|8,2:0|2:1,2:0:0:0:
198,230,61321,6,0,L|416:230,1,190,10|8,2:1|2:0,2:0:0:0:
289,218,61942,1,8,2:1:0:0:
99,338,62147,1,10,2:1:0:0:
8,332,62349,2,0,P|18:267|141:228,1,190,8|10,2:1|2:1,2:0:0:0:
402,219,62957,6,0,P|454:185|382:102,1,190.468666666667,8|8,2:1|2:0,2:0:0:0:
297,99,63571,1,8,2:1:0:0:
202,97,63779,2,0,L|325:99,1,95,8|8,2:1|2:1,2:0:0:0:
483,100,64189,2,0,L|368:100,1,95,10|10,2:0|2:1,2:0:0:0:
108,213,64600,6,0,L|250:213,1,142.5,14|2,2:1|2:0,2:0:0:0:
303,215,65008,2,0,L|188:215,1,95,8|10,2:0|2:1,2:0:0:0:
400,162,65416,2,0,L|425:47,1,95,10|8,2:1|2:1,2:0:0:0:
224,350,65824,2,0,L|199:235,1,95,10|10,2:0|2:1,2:0:0:0:
488,233,66240,5,12,2:1:0:0:
302,233,66659,2,0,L|238:233,1,47.5,10|8,2:1|2:1,2:0:0:0:
302,233,66865,1,10,2:1:0:0:
415,233,67072,1,10,2:1:0:0:
456,213,67172,1,8,2:1:0:0:
473,169,67272,1,10,2:1:0:0:
455,127,67372,1,8,2:1:0:0:
412,109,67472,1,10,2:1:0:0:
305,110,67666,1,10,2:1:0:0:
114,110,67861,5,10,2:1:0:0:
223,188,68063,2,0,L|298:187,1,47.5,10|8,2:1|2:1,2:0:0:0:
223,188,68266,1,10,2:1:0:0:
112,192,68471,1,10,2:1:0:0:
226,304,68676,2,0,L|360:304,1,95,10|10,2:1|2:1,2:0:0:0:
263,295,68985,1,8,2:1:0:0:
148,291,69087,2,0,L|59:291,1,47.5,10|8,2:1|2:1,2:0:0:0:
148,291,69293,1,10,2:1:0:0:
347,191,69498,6,0,L|231:191,1,95,10|8,2:1|2:1,2:0:0:0:
197,189,69814,1,8,2:1:0:0:
252,191,69920,2,0,L|347:191,1,95,10|8,2:1|2:1,2:0:0:0:
252,191,70325,1,8,2:1:0:0:
442,124,70534,2,0,L|509:124,1,47.5,10|8,2:1|2:1,2:0:0:0:
442,124,70744,1,8,2:1:0:0:
258,268,70954,2,0,L|258:206,1,47.5,10|8,2:1|2:1,2:0:0:0:
314,209,71164,5,8,2:1:0:0:
428,208,71369,1,10,2:1:0:0:
234,361,71574,2,0,L|150:362,1,47.5,10|8,2:1|2:1,2:0:0:0:
234,361,71780,2,0,L|298:360,1,47.5,10|8,2:1|2:1,2:0:0:0:
217,282,71985,2,0,L|145:282,1,47.5,10|8,2:1|2:1,2:0:0:0:
217,282,72191,1,10,2:1:0:0:
409,242,72396,2,0,L|474:242,1,47.5,10|8,2:1|2:1,2:0:0:0:
409,242,72602,1,10,2:1:0:0:
134,177,72809,6,0,L|348:177,1,190,10|8,2:1|2:1,2:0:0:0:
433,178,73417,1,8,2:1:0:0:
325,177,73619,2,0,L|238:177,1,47.5,10|8,2:1|2:1,2:0:0:0:
325,177,73822,1,8,2:1:0:0:
442,97,74025,2,0,L|329:95,1,95,8|8,2:1|2:1,2:0:0:0:
157,285,74433,6,0,P|97:251|157:153,1,190,10|8,2:1|2:1,2:0:0:0:
239,135,75049,1,8,2:1:0:0:
437,130,75254,2,0,L|505:129,1,47.5,10|8,2:1|2:1,2:0:0:0:
437,130,75460,1,8,2:1:0:0:
323,131,75665,1,8,2:1:0:0:
382,118,75768,1,8,2:1:0:0:
402,61,75871,1,8,2:1:0:0:
365,14,75974,1,8,2:1:0:0:
252,219,76076,6,0,L|45:218,1,190,10|8,2:1|2:1,2:0:0:0:
161,202,76688,1,8,2:1:0:0:
349,191,76892,2,0,P|394:163|336:63,1,190,10|8,2:1|2:1,2:0:0:0:
274,62,77410,1,8,2:1:0:0:
204,62,77512,1,8,2:1:0:0:
487,26,77716,6,0,L|488:146,1,95,10|10,2:0|2:0,2:0:0:0:
178,201,78528,5,10,2:0:0:0:
487,206,78757,1,10,2:0:0:0:
183,206,79385,6,0,L|68:206,1,95,14|10,2:1|2:1,2:0:0:0:
200,86,79804,2,0,L|351:86,1,142.5,10|8,2:0|2:0,2:0:0:0:
240,87,80224,2,0,P|194:97|255:181,1,190,10|10,2:1|2:0,2:0:0:0:
437,191,80847,6,0,L|438:67,1,95,10|8,2:1|2:1,2:0:0:0:
342,96,81252,1,10,2:1:0:0:
220,91,81453,2,0,L|125:91,1,95,10|10,2:0|2:1,2:0:0:0:
178,91,81755,1,8,2:0:0:0:
307,264,81856,2,0,L|535:264,1,190,10|10,2:1|2:0,2:0:0:0:
12,373,82661,6,0,L|13:265,1,95,14|10,2:1|2:1,2:0:0:0:
112,277,83083,2,0,P|36:263|5:189,1,142.5,10|8,2:0|2:0,2:0:0:0:
126,193,83499,2,0,P|168:168|115:58,1,190.456,10|10,2:1|2:0,2:0:0:0:
22,58,84121,1,10,2:1:0:0:
126,60,84326,1,8,2:1:0:0:
320,196,84531,2,0,L|411:196,1,47.5,10|0,2:1|2:0,2:0:0:0:
320,196,84736,2,0,L|188:195,1,95,10|10,2:0|2:1,2:0:0:0:
495,57,85147,6,0,L|494:283,1,190,10|10,2:0|2:0,2:0:0:0:
8,365,85997,6,0,L|222:366,1,190,14|8,2:1|2:0,2:0:0:0:
303,371,86601,1,10,2:1:0:0:
200,368,86802,2,0,P|147:335|210:244,1,190,10|8,2:1|2:0,2:0:0:0:
398,242,87406,6,0,L|398:184,1,47.5,10|8,2:1|2:0,2:0:0:0:
349,188,87607,1,10,2:1:0:0:
157,186,87813,2,0,L|39:186,1,95,10|8,2:1|2:0,2:0:0:0:
167,72,88227,2,0,L|227:72,1,47.5,10|8,2:1|2:0,2:0:0:0:
167,72,88434,1,8,2:1:0:0:
25,72,88641,2,0,L|25:202,1,95.4591666666667,10|8,2:1|2:0,2:0:0:0:
121,167,89059,1,10,2:1:0:0:
407,240,89270,6,0,L|525:240,1,95,12|10,2:1|2:1,2:0:0:0:
407,240,89686,2,0,L|237:239,1,142.5,8|8,2:0|2:0,2:0:0:0:
344,290,90105,2,0,L|474:289,2,95,8|10|10,2:1|2:1|2:0,2:0:0:0:
59,368,90715,1,10,2:1:0:0:
59,368,90920,5,12,2:1:0:0:
164,371,91126,2,0,L|270:371,1,96.387,14|8,2:1|2:0,2:0:0:0:
164,371,91542,1,10,2:1:0:0:
374,316,91750,2,0,L|373:207,1,95,14|8,2:1|2:1,2:0:0:0:
184,220,92178,2,0,L|70:220,1,95,10|12,2:0|2:1,2:0:0:0:
360,48,92586,6,0,L|487:49,1,95,14|10,2:1|2:1,2:0:0:0:
354,139,92996,2,0,P|299:110|348:36,1,142.5,10|8,2:0|2:0,2:0:0:0:
433,32,93407,2,0,P|488:55|420:137,1,190,10|10,2:1|2:0,2:0:0:0:
241,224,94024,6,0,L|125:224,1,95,10|8,2:1|2:1,2:0:0:0:
241,224,94435,1,10,2:1:0:0:
134,245,94642,2,0,L|32:245,1,95,10|10,2:0|2:1,2:0:0:0:
96,239,94953,1,8,2:0:0:0:
200,138,95056,2,0,L|0:138,1,190,10|10,2:1|2:0,2:0:0:0:
493,31,95861,6,0,L|493:132,1,95,14|10,2:1|2:1,2:0:0:0:
379,132,96266,2,0,L|214:132,1,142.5,10|8,2:0|2:0,2:0:0:0:
339,189,96671,2,0,P|390:228|319:321,1,190.468666666667,10|10,2:1|2:0,2:0:0:0:
225,322,97278,6,0,L|224:220,1,95,10|8,2:1|2:1,2:0:0:0:
422,222,97684,2,0,L|474:222,1,47.5,10|0,2:1|2:0,2:0:0:0:
418,211,97889,2,0,L|298:212,1,95,10|10,2:0|2:1,2:0:0:0:
15,362,98300,6,0,L|14:167,1,190,10|10,2:0|2:0,2:0:0:0:
491,84,99133,6,0,L|264:84,1,190,14|8,2:1|2:0,2:0:0:0:
197,83,99749,1,10,2:1:0:0:
301,84,99954,2,0,L|491:84,1,190,10|8,2:1|2:0,2:0:0:0:
297,180,100571,2,0,L|217:180,1,47.5,10|0,2:1|2:0,2:0:0:0:
297,180,100776,5,10,2:1:0:0:
108,350,100980,2,0,L|108:244,1,95,10|8,2:1|2:0,2:0:0:0:
224,253,101390,2,0,L|290:251,1,47.5,10|8,2:1|2:0,2:0:0:0:
224,253,101595,1,8,2:1:0:0:
108,253,101799,2,0,L|230:251,1,95,10|8,2:1|2:0,2:0:0:0:
108,253,102209,1,10,2:1:0:0:
381,144,102414,5,12,2:0:0:0:
481,144,102618,2,0,L|373:144,1,95,10|8,2:1|2:1,2:0:0:0:
190,361,103026,1,8,2:0:0:0:
305,359,103230,2,0,L|305:262,1,95,8|10,2:0|2:1,2:0:0:0:
190,262,103649,1,10,2:0:0:0:
460,188,103859,6,0,L|346:189,1,95.4528333333333,10|12,2:1|2:1,2:0:0:0:
162,259,104274,1,10,2:0:0:0:
118,243,104374,1,8,2:0:0:0:
95,203,104474,1,8,2:0:0:0:
104,157,104574,1,8,2:0:0:0:
141,129,104674,1,10,2:1:0:0:
332,121,104874,5,10,2:0:0:0:
379,122,104974,1,8,2:0:0:0:
332,121,105074,2,0,L|270:120,1,47.5,8|8,2:1|2:0,2:0:0:0:
164,123,105274,1,10,2:0:0:0:
164,123,105477,1,4,2:3:0:0:
461,196,105693,5,14,2:1:0:0:
359,195,105897,2,0,P|370:131|487:81,1,190,10|10,2:1|2:1,2:0:0:0:
368,75,106509,2,0,L|368:185,1,95,10|10,2:1|2:1,2:0:0:0:
252,195,106925,2,0,L|143:194,1,95,8|10,2:0|2:1,2:0:0:0:
214,184,107238,1,0,2:0:0:0:
339,177,107336,6,0,P|390:202|313:286,1,190,10|10,2:1|2:0,2:0:0:0:
112,295,108154,1,10,2:1:0:0:
301,296,108356,2,0,L|403:296,1,95,10|8,2:1|2:0,2:0:0:0:
120,370,108758,6,0,L|120:251,1,95.4718333333333,10|8,2:1|2:1,2:0:0:0:
227,272,109162,2,0,L|338:273,1,95,10|8,2:1|2:0,2:0:0:0:
227,272,109568,1,8,2:1:0:0:
119,269,109770,1,8,2:1:0:0:
244,271,109988,2,0,P|292:242|226:145,1,184.794,8|10,2:1|2:1,2:0:0:0:
51,146,110620,6,0,L|177:145,2,95,10|10|10,2:1|2:1|2:0,2:0:0:0:
168,68,111241,2,0,L|167:134,1,47.5,8|0,2:1|2:0,2:0:0:0:
102,142,111459,2,0,L|-11:143,1,95,14|8,2:0|2:1,2:0:0:0:
72,136,111767,1,0,2:0:0:0:
196,123,111869,2,0,L|56:124,1,95,14|10,2:0|2:1,2:0:0:0:
396,40,112282,5,12,2:1:0:0:
287,41,112488,2,0,P|234:75|296:159,1,190,8|8,2:1|2:1,2:0:0:0:
343,160,113006,1,0,2:0:0:0:
401,160,113109,1,10,2:1:0:0:
289,268,113316,2,0,L|160:266,1,95,10|8,2:1|2:0,2:0:0:0:
385,212,113730,6,0,P|430:200|392:86,1,189.081666666667,10|10,2:1|2:1,2:0:0:0:
317,83,114345,1,8,2:0:0:0:
124,92,114549,2,0,L|233:92,1,95,10|8,2:1|2:1,2:0:0:0:
103,199,114964,2,0,L|103:94,1,95,10|8,2:1|2:0,2:0:0:0:
209,101,115386,1,10,2:1:0:0:
480,346,115598,6,0,L|365:345,2,95,12|10|8,2:0|2:1|2:1,2:0:0:0:
285,258,116202,2,0,L|170:257,1,95,8|8,2:0|2:1,2:0:0:0:
285,258,116614,1,10,2:1:0:0:
476,260,116825,2,0,L|477:142,1,95,8|10,2:0|2:1,2:0:0:0:
191,148,117235,6,0,L|322:148,2,95.2311666666667,10|8|8,2:1|2:0|2:0,2:0:0:0:
299,56,117847,2,0,L|372:54,1,47.5,8|8,2:1|2:1,2:0:0:0:
222,201,118048,2,0,L|118:201,1,95,8|8,2:0|2:1,2:0:0:0:
64,201,118350,1,8,2:1:0:0:
127,201,118451,2,0,L|222:201,1,95,8|8,2:0|2:0,2:0:0:0:
161,199,118743,1,8,2:0:0:0:
21,312,118840,6,0,L|232:311,1,190,14|8,2:1|2:0,2:0:0:0:
315,314,119477,1,10,2:1:0:0:
210,311,119684,1,10,2:1:0:0:
315,314,119891,2,0,P|368:277|288:177,1,190,10|10,2:1|2:1,2:0:0:0:
133,176,120512,6,0,L|252:178,1,95,10|8,2:1|2:1,2:0:0:0:
328,264,120909,2,0,L|209:266,1,95,10|8,2:0|2:1,2:0:0:0:
328,264,121306,1,10,2:1:0:0:
140,367,121511,2,0,L|27:367,2,95,10|8|10,2:1|2:0|2:1,2:0:0:0:
422,264,122127,6,0,L|291:263,1,95,8|10,2:1|2:1,2:0:0:0:
440,237,122538,2,0,L|440:128,1,95,8|8,2:0|2:1,2:0:0:0:
340,140,122946,1,8,2:1:0:0:
229,139,123150,2,0,L|429:141,1,190,8|10,2:1|2:1,2:0:0:0:
208,224,123762,2,0,L|86:223,1,95,10|8,2:1|2:1,2:0:0:0:
231,147,124180,6,0,L|231:258,1,95,10|8,2:0|2:1,2:0:0:0:
168,239,124493,1,8,2:1:0:0:
106,237,124598,2,0,L|227:237,1,95,14|10,2:0|2:1,2:0:0:0:
148,226,124911,1,8,2:1:0:0:
23,190,125016,2,0,L|144:190,1,95,12|8,2:0|2:1,2:0:0:0:
387,247,125434,6,0,L|169:245,1,190,12|8,2:1|2:0,2:0:0:0:
94,244,126050,1,8,2:1:0:0:
283,166,126255,1,10,2:1:0:0:
386,167,126461,2,0,L|386:50,1,95,10|8,2:1|2:0,2:0:0:0:
194,71,126872,6,0,L|394:73,1,190,10|10,2:1|2:1,2:0:0:0:
477,75,127488,1,8,2:0:0:0:
366,194,127694,2,0,L|241:192,1,95,10|8,2:1|2:1,2:0:0:0:
229,213,128002,1,8,2:1:0:0:
211,256,128105,1,10,2:1:0:0:
225,300,128207,1,8,2:1:0:0:
342,331,128310,2,0,L|460:332,1,95,8|8,2:0|2:1,2:0:0:0:
163,219,128715,6,0,L|26:218,2,95,12|8|8,2:0|2:1|2:1,2:0:0:0:
349,219,129340,2,0,L|486:218,1,95,8|8,2:0|2:1,2:0:0:0:
349,219,129759,1,8,2:1:0:0:
163,219,129970,2,0,L|154:95,1,95,8|8,2:0|2:1,2:0:0:0:
443,218,130364,6,0,L|318:219,1,95,10|10,2:0|2:1,2:0:0:0:
469,188,130777,2,0,L|469:88,1,95,10|8,2:1|2:0,2:0:0:0:
299,94,131169,2,0,P|238:119|309:184,1,190,10|10,2:1|2:0,2:0:0:0:
402,192,131769,1,10,2:1:0:0:
124,350,131972,6,0,L|330:352,1,190,14|8,2:1|2:0,2:0:0:0:
214,334,132599,2,0,L|213:282,1,47.5,10|8,2:1|2:1,2:0:0:0:
287,273,132807,2,0,L|357:272,1,47.5,10|8,2:1|2:1,2:0:0:0:
287,273,133016,1,10,2:1:0:0:
178,271,133224,2,0,L|177:165,1,95,8|10,2:0|2:1,2:0:0:0:
380,162,133634,6,0,L|266:161,2,95,10|10|10,2:1|2:1|2:0,2:0:0:0:
380,162,134251,1,10,2:1:0:0:
190,297,134456,2,0,P|149:267|213:169,1,190,10|10,2:1|2:0,2:0:0:0:
302,168,135061,1,10,2:1:0:0:
36,83,135266,6,0,P|8:147|129:202,1,190,12|8,2:1|2:0,2:0:0:0:
198,218,135913,2,0,L|266:218,1,47.5,10|8,2:1|2:1,2:0:0:0:
131,152,136129,2,0,L|23:152,1,95,8|8,2:1|2:1,2:0:0:0:
143,89,136521,2,0,L|142:213,1,95,8|8,2:0|2:1,2:0:0:0:
333,199,136937,6,0,L|471:201,2,95,10|10|10,2:1|2:1|2:0,2:0:0:0:
235,200,137562,2,0,L|236:147,1,47.5,8|8,2:0|2:0,2:0:0:0:
352,118,137771,2,0,L|479:118,1,95,10|8,2:0|2:1,2:0:0:0:
499,119,138077,1,8,2:1:0:0:
447,118,138179,2,0,L|352:118,1,95,10|10,2:0|2:1,2:0:0:0:
79,353,138587,6,0,P|48:318|146:247,1,190,14|8,2:1|2:0,2:0:0:0:
224,236,139199,1,10,2:1:0:0:
326,236,139403,2,0,L|97:234,1,190,10|8,2:1|2:0,2:0:0:0:
41,232,140015,1,10,2:1:0:0:
231,108,140219,5,10,2:1:0:0:
256,146,140321,1,8,2:1:0:0:
252,192,140423,1,10,2:1:0:0:
219,225,140525,1,8,2:1:0:0:
173,230,140627,1,10,2:0:0:0:
67,231,140831,1,10,2:1:0:0:
259,338,141035,2,0,L|378:338,1,95,10|10,2:1|2:1,2:0:0:0:
239,263,141466,2,0,L|217:150,1,95,10|10,2:0|2:1,2:0:0:0:
488,165,141875,6,0,L|260:156,1,190,14|8,2:0|2:1,2:0:0:0:
404,142,142489,1,8,2:0:0:0:
289,135,142694,2,0,L|158:136,2,95,8|8|8,2:1|2:1|2:0,2:0:0:0:
90,223,143321,2,0,L|34:221,1,47.5,10|2,2:1|2:0,2:0:0:0:
155,154,143530,6,0,L|287:154,2,95,10|10|10,2:1|2:0|2:0,2:0:0:0:
155,154,144157,1,10,2:1:0:0:
347,63,144367,2,0,P|389:92|321:200,1,190,10|10,2:0|2:0,2:0:0:0:
229,196,144979,1,10,2:1:0:0:
497,338,145183,6,0,L|275:337,1,190,14|8,2:1|2:0,2:0:0:0:
192,335,145792,1,10,2:1:0:0:
307,333,145995,2,0,L|406:333,1,95,10|10,2:1|2:1,2:0:0:0:
292,238,146401,2,0,L|168:238,1,95,8|10,2:0|2:1,2:0:0:0:
396,175,146807,6,0,L|422:60,1,95,10|10,2:1|2:1,2:0:0:0:
302,110,147226,2,0,L|284:13,1,95,10|8,2:0|2:1,2:0:0:0:
348,9,147534,1,8,2:1:0:0:
460,174,147636,2,0,L|252:173,1,190.462333333333,10|10,2:1|2:0,2:0:0:0:
379,160,148253,1,10,2:1:0:0:
110,335,148460,6,0,P|83:290|181:228,1,190.459166666667,14|8,2:1|2:0,2:0:0:0:
280,226,149074,1,10,2:1:0:0:
171,223,149274,2,0,L|51:225,1,95,10|10,2:1|2:1,2:0:0:0:
186,196,149674,2,0,L|213:82,1,95,8|10,2:0|2:1,2:0:0:0:
16,97,150074,6,0,L|140:97,1,95,10|10,2:1|2:1,2:0:0:0:
165,98,150382,1,0,2:0:0:0:
111,97,150484,2,0,L|16:97,1,95,10|8,2:0|2:1,2:0:0:0:
207,221,150895,2,0,L|207:117,1,95,10|8,2:0|2:1,2:0:0:0:
16,97,151306,2,0,L|111:97,1,95,10|8,2:0|2:1,2:0:0:0:
382,207,151722,6,0,P|413:175|320:83,1,190,12|10,2:1|2:0,2:0:0:0:
244,76,152344,1,10,2:1:0:0:
53,184,152552,2,0,L|255:184,1,190,8|8,2:1|2:0,2:0:0:0:
347,185,153175,1,10,2:1:0:0:
243,184,153382,6,0,P|191:119|261:58,1,190,8|8,2:1|2:0,2:0:0:0:
363,63,154002,1,10,2:1:0:0:
249,347,154203,2,0,L|140:348,1,95,10|10,2:1|2:1,2:0:0:0:
347,270,154606,2,0,L|500:269,1,142.5,10|0,2:0|2:0,2:0:0:0:
376,258,155022,6,0,L|244:257,1,95,10|8,2:1|2:1,2:0:0:0:
13,370,155431,2,0,L|243:370,1,190,10|8,2:0|2:1,2:0:0:0:
103,358,156045,1,8,2:0:0:0:
293,303,156250,2,0,L|407:300,1,95,8|10,2:0|2:1,2:0:0:0:
120,205,156660,6,0,L|120:102,1,95,10|8,2:0|2:1,2:0:0:0:
244,99,157069,2,0,L|109:99,1,95,10|8,2:0|2:1,2:0:0:0:
329,191,157479,1,10,2:0:0:0:
396,131,157688,1,8,2:1:0:0:
373,43,157898,1,8,2:0:0:0:
285,25,158103,1,10,2:1:0:0:
16,27,158308,5,14,2:1:0:0:
149,195,171253,6,0,L|75:196,1,47.5,0|0,2:0|2:0,2:0:0:0:
216,112,171456,6,0,L|339:112,1,95,10|8,2:1|2:1,2:0:0:0:
365,112,171762,1,8,2:1:0:0:
311,112,171864,2,0,L|216:112,1,95,10|8,2:1|2:1,2:0:0:0:
331,45,172272,2,0,L|331:148,1,95,10|10,2:1|2:1,2:0:0:0:
271,149,172578,1,8,2:1:0:0:
208,166,172680,2,0,L|129:179,1,47.5,8|8,2:1|2:1,2:0:0:0:
208,166,172880,1,10,2:1:0:0:
380,307,173080,6,0,L|447:323,1,47.5,8|8,2:1|2:1,2:0:0:0:
380,307,173282,1,10,2:1:0:0:
273,358,173485,2,0,L|206:374,1,47.5,10|8,2:1|2:1,2:0:0:0:
273,358,173688,1,10,2:1:0:0:
387,361,173890,2,0,P|427:324|354:240,1,190,10|10,2:1|2:1,2:0:0:0:
456,239,174498,1,10,2:1:0:0:
260,197,174701,6,0,L|180:197,1,47.5,10|8,2:1|2:1,2:0:0:0:
260,197,174912,1,8,2:1:0:0:
369,195,175123,2,0,L|369:46,1,142.5,10|8,2:1|2:1,2:0:0:0:
314,53,175546,1,10,2:1:0:0:
200,52,175750,1,10,2:1:0:0:
163,80,175852,1,8,2:1:0:0:
157,126,175954,1,8,2:1:0:0:
184,163,176056,1,8,2:1:0:0:
230,170,176158,1,10,2:1:0:0:
420,170,176362,5,8,2:1:0:0:
326,170,176566,1,8,2:1:0:0:
373,170,176668,1,8,2:1:0:0:
420,170,176770,1,10,2:1:0:0:
420,170,176974,1,10,2:1:0:0:
306,344,177178,1,8,2:1:0:0:
268,296,177280,1,8,2:1:0:0:
288,238,177383,1,10,2:1:0:0:
347,225,177486,1,8,2:1:0:0:
416,226,177588,2,0,L|486:226,1,47.5,8|8,2:1|2:1,2:0:0:0:
416,226,177794,1,10,2:1:0:0:
100,360,177999,6,0,P|56:333|122:236,1,190,10|8,2:1|2:1,2:0:0:0:
153,224,178505,1,8,2:1:0:0:
181,186,178607,1,8,2:1:0:0:
177,140,178708,1,8,2:1:0:0:
105,115,178809,2,0,L|-9:121,1,95,10|10,2:1|2:1,2:0:0:0:
126,0,179215,2,0,L|131:71,1,47.5,8|8,2:1|2:1,2:0:0:0:
71,191,179424,2,0,L|0:196,1,47.5,10|8,2:1|2:1,2:0:0:0:
153,330,179634,5,8,2:1:0:0:
194,310,179739,1,8,2:1:0:0:
210,266,179844,1,10,2:1:0:0:
189,225,179949,1,8,2:1:0:0:
145,210,180054,1,8,2:1:0:0:
31,213,180265,1,10,2:1:0:0:
222,147,180476,2,0,L|284:147,1,47.5,8|8,2:1|2:1,2:0:0:0:
269,147,180680,2,0,L|222:147,1,47.5,10|8,2:1|2:1,2:0:0:0:
144,147,180885,2,0,L|144:36,1,95,8|10,2:1|2:1,2:0:0:0:
438,43,181295,5,8,2:1:0:0:
466,80,181397,1,8,2:1:0:0:
465,126,181499,1,10,2:1:0:0:
435,162,181602,1,8,2:1:0:0:
390,172,181704,1,8,2:1:0:0:
491,175,181921,1,10,2:1:0:0:
301,358,182138,5,8,2:1:0:0:
261,333,182243,1,8,2:1:0:0:
249,289,182349,1,10,2:1:0:0:
271,248,182454,1,8,2:1:0:0:
364,233,182560,2,0,L|429:233,1,47.5,8|8,2:1|2:1,2:0:0:0:
364,233,182761,1,10,2:1:0:0:
42,235,182962,6,0,L|42:118,1,95,10|10,2:0|2:0,2:0:0:0:
325,102,183386,1,8,2:1:0:0:
115,99,183788,6,0,L|236:99,1,95,10|10,2:0|2:0,2:0:0:0:
17,35,184191,2,0,L|-1:90,1,47.5,8|8,2:1|2:1,2:0:0:0:
17,35,184391,1,8,2:0:0:0:
358,207,184592,6,0,L|234:207,1,95,14|10,2:1|2:1,2:0:0:0:
367,125,185020,2,0,P|403:163|346:230,1,142.5,10|8,2:0|2:0,2:0:0:0:
240,253,185449,2,0,L|454:253,1,190,10|10,2:1|2:0,2:0:0:0:
232,352,186083,6,0,P|203:315|302:239,1,187.245,10|10,2:1|2:1,2:0:0:0:
397,233,186690,2,0,L|273:232,1,95,10|10,2:0|2:1,2:0:0:0:
364,220,186990,1,8,2:0:0:0:
486,208,187090,2,0,L|486:4,1,190,10|10,2:1|2:0,2:0:0:0:
10,31,187900,6,0,L|141:32,1,95,14|10,2:1|2:1,2:0:0:0:
197,103,188313,2,0,L|29:104,1,142.5,10|8,2:0|2:0,2:0:0:0:
164,110,188727,2,0,P|184:159|77:222,1,190.459166666667,10|10,2:1|2:0,2:0:0:0:
192,224,189339,1,10,2:1:0:0:
90,227,189538,1,8,2:1:0:0:
288,201,189743,2,0,L|240:200,1,47.5,10|0,2:1|2:0,2:0:0:0:
189,198,189948,2,0,L|189:60,1,95,10|10,2:0|2:1,2:0:0:0:
495,57,190359,6,0,L|494:283,1,190,10|10,2:0|2:0,2:0:0:0:
13,335,191181,6,0,L|232:337,1,190,14|8,2:1|2:0,2:0:0:0:
299,336,191795,1,10,2:1:0:0:
198,339,192000,2,0,P|145:300|218:215,1,190,10|8,2:1|2:0,2:0:0:0:
468,206,192614,6,0,L|478:152,1,47.5,10|0,2:1|2:0,2:0:0:0:
404,142,192819,1,10,2:1:0:0:
212,190,193027,2,0,L|337:190,1,95,10|8,2:1|2:0,2:0:0:0:
193,301,193444,2,0,L|116:301,1,47.5,10|8,2:1|2:3,2:0:0:0:
193,301,193652,1,8,2:1:0:0:
297,301,193860,2,0,L|297:184,1,95.456,10|8,2:1|2:0,2:0:0:0:
193,301,194271,1,10,2:1:0:0:
460,357,194474,6,0,L|352:355,2,95,8|10|8,2:1|2:1|2:0,2:0:0:0:
347,279,195094,2,0,L|344:207,1,47.5,8|8,2:1|2:3,2:0:0:0:
347,279,195301,1,8,2:1:0:0:
239,199,195508,2,0,L|127:199,1,95.4591666666667,10|10,2:1|2:0,2:0:0:0:
427,59,195919,1,10,2:1:0:0:
458,106,196021,1,8,2:1:0:0:
427,154,196123,5,12,2:1:0:0:
319,180,196326,2,0,L|433:181,1,95,10|8,2:1|2:0,2:0:0:0:
319,180,196733,1,10,2:1:0:0:
126,322,196936,2,0,L|112:219,1,95,10|8,2:1|2:1,2:0:0:0:
226,202,197343,2,0,L|357:190,1,95,10|8,2:0|2:1,2:0:0:0:
36,79,197750,6,0,L|25:193,1,95,14|10,2:1|2:1,2:0:0:0:
144,190,198166,2,0,P|191:155|160:81,1,142.5,10|8,2:0|2:0,2:0:0:0:
60,74,198583,2,0,L|260:64,1,190.456,10|10,2:1|2:0,2:0:0:0:
60,49,199200,6,0,P|10:109|89:176,1,192.85,10|10,2:1|2:1,2:0:0:0:
188,181,199813,2,0,L|189:307,1,95,10|10,2:0|2:1,2:0:0:0:
135,294,200124,1,8,2:0:0:0:
6,369,200227,2,0,L|6:167,1,190.459166666667,10|10,2:1|2:0,2:0:0:0:
499,184,201049,6,0,L|499:57,1,95,14|10,2:1|2:1,2:0:0:0:
383,90,201477,2,0,L|231:88,1,142.5,10|8,2:0|2:3,2:0:0:0:
372,59,201906,2,0,P|401:113|301:177,1,190,10|10,2:1|2:0,2:0:0:0:
209,181,202535,1,10,2:1:0:0:
260,181,202636,1,8,2:3:0:0:
316,182,202736,5,12,2:1:0:0:
125,339,202944,2,0,L|126:280,1,47.5,10|0,2:1|2:0,2:0:0:0:
190,287,203152,2,0,L|190:175,1,95,10|10,2:0|2:1,2:0:0:0:
125,186,203465,1,8,2:3:0:0:
9,253,203569,6,0,L|136:253,2,95,10|8|10,2:0|2:1|2:0,2:0:0:0:
487,149,204358,6,0,L|262:148,1,190,14|8,2:1|2:0,2:0:0:0:
190,145,204974,1,10,2:1:0:0:
297,148,205171,2,0,L|487:149,1,190,10|8,2:1|2:0,2:0:0:0:
285,255,205772,2,0,L|200:255,1,47.5,10|8,2:1|2:0,2:0:0:0:
285,255,205966,5,10,2:1:0:0:
93,358,206181,2,0,L|93:257,1,95.4401666666667,10|8,2:1|2:0,2:0:0:0:
207,248,206598,1,2,2:3:0:0:
241,216,206699,1,2,2:3:0:0:
248,170,206799,1,2,2:3:0:0:
224,130,206900,1,2,2:3:0:0:
180,115,207001,1,10,2:1:0:0:
70,109,207202,1,8,2:0:0:0:
188,110,207403,1,2,2:3:0:0:
451,193,207604,6,0,L|321:192,2,95,12|10|8,2:1|2:1|2:0,2:0:0:0:
250,338,208222,1,8,2:1:0:0:
354,340,208428,2,0,L|455:340,2,95.230375,8|10|10,2:0|2:1|2:1,2:0:0:0:
80,191,209042,6,0,L|196:192,1,95,10|8,2:0|2:1,2:0:0:0:
366,86,209453,2,0,L|250:87,1,95,10|8,2:0|2:0,2:0:0:0:
366,86,209874,1,10,2:1:0:0:
61,322,210085,5,10,2:0:0:0:
27,272,210187,1,8,2:0:0:0:
53,217,210290,1,8,2:0:0:0:
113,210,210393,1,8,2:0:0:0:
198,206,210495,1,10,2:0:0:0:
231,155,210596,1,8,2:0:0:0:
205,100,210697,1,8,2:0:0:0:
145,93,210799,1,8,2:0:0:0:
20,93,210900,5,14,2:1:0:0:
121,92,211105,2,0,L|123:214,1,95,10|10,2:1|2:0,2:0:0:0:
233,194,211516,2,0,L|300:194,1,47.5,8|8,2:1|2:0,2:0:0:0:
166,300,211721,2,0,L|59:300,2,95,10|8|10,2:1|2:1|2:0,2:0:0:0:
373,357,212350,6,0,L|171:357,1,188.291278093624,10|10,2:1|2:1,2:0:0:0:
296,323,212985,2,0,L|422:323,1,95,10|10,2:0|2:1,2:0:0:0:
340,313,213287,1,8,2:1:0:0:
214,298,213387,2,0,L|199:240,1,52.25,10|8,2:1|2:1,2:0:0:0:
257,227,213592,1,8,2:1:0:0:
448,203,213797,2,0,L|476:105,1,95,10|8,2:0|2:1,2:0:0:0:
191,106,214216,6,0,L|57:104,1,95,14|10,2:1|2:1,2:0:0:0:
213,29,214636,2,0,L|211:159,1,95,10|8,2:0|2:1,2:0:0:0:
157,141,214940,1,8,2:0:0:0:
39,188,215041,2,0,L|234:189,1,190,10|10,2:1|2:0,2:0:0:0:
120,166,215679,1,10,2:1:0:0:
228,167,215883,5,8,2:1:0:0:
420,168,216087,2,0,L|429:108,1,47.5,10|0,2:1|2:0,2:0:0:0:
420,168,216291,1,10,2:0:0:0:
311,167,216499,1,10,2:1:0:0:
44,278,216707,6,0,L|161:278,1,95,10|8,2:0|2:1,2:0:0:0:
35,258,217126,6,0,L|34:150,1,95,10|8,2:0|2:1,2:0:0:0:
338,72,217546,6,0,P|355:114|249:168,1,190,14|8,2:1|2:0,2:0:0:0:
367,174,218156,2,0,L|436:174,1,47.5,10|8,2:1|2:0,2:0:0:0:
310,101,218359,2,0,L|195:101,2,95,10|8|8,2:1|2:1|2:0,2:0:0:0:
310,101,218969,1,10,2:1:0:0:
43,293,219173,5,10,2:1:0:0:
148,294,219373,2,0,L|148:192,1,95,10|8,2:1|2:0,2:0:0:0:
346,195,219777,2,0,L|346:127,1,47.5,10|8,2:1|2:0,2:0:0:0:
301,147,219981,1,8,2:1:0:0:
202,282,220189,2,0,L|331:282,1,95,10|8,2:1|2:0,2:0:0:0:
202,282,220606,1,10,2:1:0:0:
477,153,220803,5,12,2:1:0:0:
371,152,221004,2,0,L|371:34,1,113.999996520996,10|8,2:1|2:0,2:0:0:0:
478,54,221398,1,8,2:1:0:0:
288,238,221629,2,0,L|418:238,2,95,8|10|10,2:0|2:1|2:1,2:0:0:0:
19,358,222231,6,0,L|143:359,1,95.4876666666667,10|8,2:0|2:1,2:0:0:0:
307,266,222628,2,0,L|183:267,1,95,10|8,2:1|2:0,2:0:0:0:
307,266,223034,1,10,2:1:0:0:
34,204,223236,2,0,L|34:102,1,95,10|8,2:1|2:0,2:0:0:0:
312,46,223655,1,10,2:0:0:0:
337,100,223757,1,8,2:0:0:0:
301,148,223860,1,8,2:0:0:0:
241,150,223963,1,8,2:0:0:0:
366,234,224065,6,0,L|467:234,2,95,14|10|10,2:1|2:1|2:0,2:0:0:0:
170,232,224698,2,0,L|171:167,1,47.5,8|8,2:1|2:0,2:0:0:0:
226,178,224910,1,10,2:1:0:0:
337,173,225116,2,0,L|216:173,1,95,8|10,2:1|2:0,2:0:0:0:
451,66,225530,6,0,L|460:177,1,95,10|8,2:1|2:1,2:0:0:0:
351,185,225944,2,0,L|469:185,1,95.4591666666667,10|10,2:1|2:0,2:0:0:0:
351,185,226339,2,0,L|263:185,1,47.5,10|8,2:1|2:0,2:0:0:0:
417,121,226528,2,0,P|462:156|384:237,1,190,10|10,2:1|2:0,2:0:0:0:
296,239,227157,1,8,2:1:0:0:
27,321,227367,6,0,L|142:321,2,95,14|10|10,2:1|2:1|2:0,2:0:0:0:
157,241,227983,2,0,L|231:240,1,47.5,8|8,2:1|2:0,2:0:0:0:
84,176,228180,2,0,L|-11:179,1,95,10|8,2:1|2:1,2:0:0:0:
84,176,228611,1,10,2:0:0:0:
283,170,228804,6,0,L|293:68,1,95.4908333333333,10|8,2:1|2:1,2:0:0:0:
195,57,229210,2,0,L|301:58,1,95.4465,10|10,2:1|2:0,2:0:0:0:
195,57,229619,1,10,2:1:0:0:
491,27,229815,2,0,L|490:250,1,190,10|10,2:1|2:0,2:0:0:0:
11,370,230654,6,0,P|-13:330|94:248,1,190,14|8,2:1|2:0,2:0:0:0:
184,241,231270,2,0,L|125:241,1,47.5,10|8,2:1|2:0,2:0:0:0:
31,307,231475,2,0,L|234:307,1,190,10|8,2:1|2:0,2:0:0:0:
114,288,232092,1,10,2:1:0:0:
304,285,232297,5,10,2:1:0:0:
414,286,232503,2,0,L|302:285,1,95,10|8,2:1|2:0,2:0:0:0:
132,360,232917,1,10,2:1:0:0:
179,359,233021,1,8,2:0:0:0:
226,359,233124,1,8,2:1:0:0:
111,342,233331,2,0,L|98:231,1,95.4591666666667,10|8,2:1|2:0,2:0:0:0:
222,216,233738,1,10,2:1:0:0:
500,162,233938,6,0,L|361:162,2,95,12|10|8,2:1|2:0|2:0,2:0:0:0:
312,254,234550,1,8,2:1:0:0:
207,252,234754,2,0,L|322:252,1,95,8|10,2:0|2:1,2:0:0:0:
34,193,235164,2,0,L|28:75,1,95,10|10,2:1|2:0,2:0:0:0:
318,52,235575,6,0,L|210:61,1,95,8|10,2:1|2:0,2:0:0:0:
337,141,235986,2,0,L|445:150,1,95,8|10,2:0|2:1,2:0:0:0:
376,162,236302,1,8,2:1:0:0:
320,177,236408,1,10,2:0:0:0:
49,276,236619,2,8,L|-20:275,1,47.5,8|8,2:1|2:1,2:1:0:0:
49,276,236831,2,0,L|158:258,1,95,10|8,2:0|2:1,2:0:0:0:
471,212,237259,5,14,2:1:0:0:
256,192,237464,12,0,245478,2:0:0:0:
